osu file format v14

[General]
AudioFilename: TAG - Alstroemeria 1.4.mp3
AudioLeadIn: 0
PreviewTime: -1
Countdown: 0
SampleSet: None
StackLeniency: 0.7
Mode: 3
LetterboxInBreaks: 0
SpecialStyle: 0
WidescreenStoryboard: 0

[Editor]
DistanceSpacing: 0.5
BeatDivisor: 4
GridSize: 32
TimelineZoom: 1

[Metadata]
Title:Alstroemeria
TitleUnicode:アルストロメリア
Artist:TAG
ArtistUnicode:TAG
Creator:IControl
Version:Another 1.4x
Source:jubeat copius
Tags:
BeatmapID:2852518
BeatmapSetID:956118

[Difficulty]
HPDrainRate:9
CircleSize:4
OverallDifficulty:9
ApproachRate:5
SliderMultiplier:1.4
SliderTickRate:1

[Events]
//Background and Video events
0,0,"alstroemeria-bouquet-closeup.jpg",0,0
//Break Periods
//Storyboard Layer 0 (Background)
//Storyboard Layer 1 (Fail)
//Storyboard Layer 2 (Pass)
//Storyboard Layer 3 (Foreground)
//Storyboard Layer 4 (Overlay)
//Storyboard Sound Samples

[TimingPoints]
261,297.619047619048,4,2,1,25,1,0

[HitObjects]
448,192,261,5,4,0:0:0:0:
64,192,261,1,0,0:0:0:0:
320,192,261,1,4,0:0:0:0:
320,192,484,1,0,0:0:0:0:
64,192,484,1,0,0:0:0:0:
192,192,559,1,0,0:0:0:0:
64,192,633,1,0,0:0:0:0:
192,192,708,1,0,0:0:0:0:
320,192,782,1,0,0:0:0:0:
448,192,856,1,0,0:0:0:0:
192,192,856,1,0,0:0:0:0:
320,192,931,1,0,0:0:0:0:
192,192,1005,1,0,0:0:0:0:
64,192,1005,1,0,0:0:0:0:
320,192,1079,1,0,0:0:0:0:
448,192,1154,1,0,0:0:0:0:
320,192,1229,1,4,0:0:0:0:
192,192,1229,1,4,0:0:0:0:
64,192,1229,1,0,0:0:0:0:
448,192,1377,1,4,0:0:0:0:
320,192,1377,1,4,0:0:0:0:
320,192,1601,1,0,0:0:0:0:
448,192,1675,1,0,0:0:0:0:
64,192,1749,1,0,0:0:0:0:
192,192,1749,1,0,0:0:0:0:
320,192,1824,1,0,0:0:0:0:
192,192,1898,1,0,0:0:0:0:
64,192,1972,1,0,0:0:0:0:
192,192,2047,1,0,0:0:0:0:
320,192,2047,1,0,0:0:0:0:
448,192,2121,1,0,0:0:0:0:
320,192,2196,1,0,0:0:0:0:
192,192,2270,1,0,0:0:0:0:
448,192,2344,1,0,0:0:0:0:
320,192,2419,1,4,0:0:0:0:
64,192,2419,1,0,0:0:0:0:
192,192,2419,1,4,0:0:0:0:
448,192,2568,1,4,0:0:0:0:
320,192,2568,1,4,0:0:0:0:
64,192,2791,1,0,0:0:0:0:
448,192,2791,1,0,0:0:0:0:
192,192,2865,1,0,0:0:0:0:
320,192,2940,1,0,0:0:0:0:
448,192,3014,1,0,0:0:0:0:
320,192,3089,1,0,0:0:0:0:
192,192,3163,1,0,0:0:0:0:
64,192,3237,1,0,0:0:0:0:
320,192,3237,1,4,0:0:0:0:
448,192,3237,1,4,0:0:0:0:
192,192,3311,1,0,0:0:0:0:
64,192,3386,1,0,0:0:0:0:
320,192,3461,1,0,0:0:0:0:
448,192,3535,1,0,0:0:0:0:
192,192,3609,1,0,0:0:0:0:
64,192,3684,1,0,0:0:0:0:
192,192,3758,1,4,0:0:0:0:
320,192,3758,1,4,0:0:0:0:
448,192,3758,1,0,0:0:0:0:
320,192,3907,1,8,0:0:0:0:
192,192,3981,1,12,0:0:0:0:
64,192,3981,1,0,0:0:0:0:
448,192,4056,1,8,0:0:0:0:
64,192,4130,1,8,0:0:0:0:
192,192,4204,1,4,0:0:0:0:
448,192,4204,1,8,0:0:0:0:
320,192,4279,1,8,0:0:0:0:
64,192,4279,1,0,0:0:0:0:
448,192,4354,1,8,0:0:0:0:
320,192,4428,1,0,0:0:0:0:
192,192,4428,1,4,0:0:0:0:
64,192,4428,1,4,0:0:0:0:
448,192,4502,1,8,0:0:0:0:
192,192,4576,1,0,0:0:0:0:
64,192,4651,1,8,0:0:0:0:
320,192,4726,1,4,0:0:0:0:
448,192,4726,1,4,0:0:0:0:
192,192,4726,1,0,0:0:0:0:
64,192,4800,1,8,0:0:0:0:
448,192,4874,1,8,0:0:0:0:
320,192,4949,1,8,0:0:0:0:
64,192,5023,1,4,0:0:0:0:
192,192,5023,1,4,0:0:0:0:
448,192,5023,1,0,0:0:0:0:
320,192,5246,1,0,0:0:0:0:
192,192,5246,1,0,0:0:0:0:
448,192,5321,1,0,0:0:0:0:
320,192,5395,1,0,0:0:0:0:
192,192,5469,1,0,0:0:0:0:
320,192,5544,1,0,0:0:0:0:
64,192,5619,1,0,0:0:0:0:
448,192,5619,1,0,0:0:0:0:
192,192,5693,1,0,0:0:0:0:
320,192,5767,1,0,0:0:0:0:
64,192,5767,1,0,0:0:0:0:
448,192,5841,1,0,0:0:0:0:
320,192,5916,1,0,0:0:0:0:
64,192,5990,1,4,0:0:0:0:
192,192,5990,1,4,0:0:0:0:
448,192,5990,1,0,0:0:0:0:
320,192,6139,1,4,0:0:0:0:
192,192,6139,1,4,0:0:0:0:
320,192,6362,1,0,0:0:0:0:
448,192,6436,1,0,0:0:0:0:
320,192,6511,1,0,0:0:0:0:
192,192,6511,1,0,0:0:0:0:
448,192,6586,1,0,0:0:0:0:
64,192,6660,1,0,0:0:0:0:
192,192,6734,1,0,0:0:0:0:
448,192,6809,1,2,0:0:0:0:
320,192,6809,1,2,0:0:0:0:
64,192,6809,1,0,0:0:0:0:
192,192,6883,1,0,0:0:0:0:
320,192,6958,1,0,0:0:0:0:
448,192,6958,1,0,0:0:0:0:
192,192,7032,1,0,0:0:0:0:
320,192,7106,1,0,0:0:0:0:
448,192,7181,1,0,0:0:0:0:
192,192,7181,1,4,0:0:0:0:
64,192,7181,1,4,0:0:0:0:
448,192,7329,1,4,0:0:0:0:
320,192,7329,1,4,0:0:0:0:
64,192,7553,1,0,0:0:0:0:
320,192,7553,1,0,0:0:0:0:
448,192,7627,1,0,0:0:0:0:
320,192,7701,1,0,0:0:0:0:
192,192,7701,1,0,0:0:0:0:
448,192,7776,1,0,0:0:0:0:
192,192,7851,1,0,0:0:0:0:
64,192,7925,1,0,0:0:0:0:
448,192,7999,1,4,0:0:0:0:
320,192,7999,1,0,0:0:0:0:
192,192,7999,1,0,0:0:0:0:
64,192,8074,1,0,0:0:0:0:
192,192,8148,1,0,0:0:0:0:
320,192,8148,1,0,0:0:0:0:
64,192,8222,1,0,0:0:0:0:
320,192,8297,1,0,0:0:0:0:
448,192,8297,1,0,0:0:0:0:
192,192,8371,1,0,0:0:0:0:
448,192,8446,1,8,0:0:0:0:
192,192,8520,1,12,0:0:0:0:
64,192,8520,1,12,0:0:0:0:
320,192,8520,1,8,0:0:0:0:
448,192,8669,1,8,0:0:0:0:
64,192,8744,1,8,0:0:0:0:
192,192,8744,1,8,0:0:0:0:
320,192,8744,1,8,0:0:0:0:
448,192,8818,1,8,0:0:0:0:
320,192,8892,1,8,0:0:0:0:
64,192,8892,1,8,0:0:0:0:
192,192,8892,1,8,0:0:0:0:
448,192,8966,1,8,0:0:0:0:
64,192,9041,1,8,0:0:0:0:
192,192,9115,1,8,0:0:0:0:
320,192,9190,1,8,0:0:0:0:
64,192,9190,1,4,0:0:0:0:
448,192,9264,1,8,0:0:0:0:
320,192,9339,1,8,0:0:0:0:
448,192,9413,1,8,0:0:0:0:
192,192,9487,1,4,0:0:0:0:
64,192,9487,1,8,0:0:0:0:
320,192,9561,1,8,0:0:0:0:
192,192,9636,1,8,0:0:0:0:
64,192,9711,1,8,0:0:0:0:
192,192,9785,1,0,0:0:0:0:
320,192,9785,1,4,0:0:0:0:
448,192,9785,1,2,0:0:0:0:
64,192,9934,1,0,0:0:0:0:
448,192,10008,1,0,0:0:0:0:
320,192,10008,1,0,0:0:0:0:
192,192,10008,1,0,0:0:0:0:
192,192,10157,1,0,0:0:0:0:
64,192,10231,1,0,0:0:0:0:
448,192,10231,1,0,0:0:0:0:
320,192,10231,1,0,0:0:0:0:
448,192,10380,1,0,0:0:0:0:
64,192,10529,1,0,0:0:0:0:
448,192,10678,1,0,0:0:0:0:
64,192,10752,1,0,0:0:0:0:
192,192,10752,1,4,0:0:0:0:
320,192,10752,1,4,0:0:0:0:
448,192,10901,1,4,0:0:0:0:
320,192,10901,1,4,0:0:0:0:
192,192,11124,1,0,0:0:0:0:
64,192,11124,1,0,0:0:0:0:
448,192,11124,1,0,0:0:0:0:
320,192,11273,1,0,0:0:0:0:
64,192,11347,1,0,0:0:0:0:
192,192,11347,1,0,0:0:0:0:
448,192,11347,1,0,0:0:0:0:
320,192,11496,1,0,0:0:0:0:
192,192,11571,1,0,0:0:0:0:
64,192,11571,1,0,0:0:0:0:
448,192,11571,1,0,0:0:0:0:
64,192,11719,1,0,0:0:0:0:
448,192,11794,1,0,0:0:0:0:
320,192,11794,1,0,0:0:0:0:
64,192,11943,1,0,0:0:0:0:
320,192,11943,1,4,0:0:0:0:
448,192,11943,1,4,0:0:0:0:
192,192,12017,1,0,0:0:0:0:
448,192,12091,1,4,0:0:0:0:
320,192,12091,1,4,0:0:0:0:
64,192,12166,1,4,0:0:0:0:
192,192,12166,1,4,0:0:0:0:
320,192,12166,1,0,0:0:0:0:
64,192,12389,1,0,0:0:0:0:
192,192,12389,1,0,0:0:0:0:
320,192,12389,1,0,0:0:0:0:
64,192,12612,1,0,0:0:0:0:
192,192,12612,1,0,0:0:0:0:
448,192,12612,1,0,0:0:0:0:
448,192,12761,1,4,0:0:0:0:
320,192,12761,1,4,0:0:0:0:
64,192,12761,1,0,0:0:0:0:
64,192,12910,1,0,0:0:0:0:
448,192,13059,1,0,0:0:0:0:
320,192,13133,1,0,0:0:0:0:
64,192,13133,1,0,0:0:0:0:
320,192,13282,1,4,0:0:0:0:
192,192,13282,1,2,0:0:0:0:
448,192,13282,1,4,0:0:0:0:
64,192,13505,1,4,0:0:0:0:
192,192,13505,1,4,0:0:0:0:
448,192,13505,1,8,0:0:0:0:
320,192,13654,1,8,0:0:0:0:
192,192,13729,1,4,0:0:0:0:
448,192,13729,1,8,0:0:0:0:
64,192,13729,1,4,0:0:0:0:
320,192,13877,1,8,0:0:0:0:
192,192,13951,1,4,0:0:0:0:
64,192,13951,1,4,0:0:0:0:
448,192,14026,1,8,0:0:0:0:
320,192,14026,1,8,0:0:0:0:
192,192,14101,1,8,0:0:0:0:
64,192,14175,1,8,0:0:0:0:
320,192,14175,1,4,0:0:0:0:
448,192,14175,1,4,0:0:0:0:
192,192,14249,128,2,14398:0:0:0:0:
64,192,14398,1,8,0:0:0:0:
320,192,14472,1,8,0:0:0:0:
64,192,14547,1,4,0:0:0:0:
448,192,14547,1,0,0:0:0:0:
192,192,14547,1,4,0:0:0:0:
320,192,14696,1,0,0:0:0:0:
448,192,14770,1,0,0:0:0:0:
64,192,14770,1,0,0:0:0:0:
192,192,14770,1,0,0:0:0:0:
64,192,14919,1,0,0:0:0:0:
448,192,14994,1,0,0:0:0:0:
320,192,14994,1,0,0:0:0:0:
192,192,14994,1,0,0:0:0:0:
64,192,15291,1,0,0:0:0:0:
192,192,15440,1,0,0:0:0:0:
320,192,15440,1,0,0:0:0:0:
192,192,15514,1,4,0:0:0:0:
320,192,15589,1,4,0:0:0:0:
448,192,15737,1,0,0:0:0:0:
448,192,15886,1,0,0:0:0:0:
320,192,15961,1,0,0:0:0:0:
448,192,16109,1,0,0:0:0:0:
64,192,16109,1,0,0:0:0:0:
192,192,16258,1,0,0:0:0:0:
320,192,16258,1,0,0:0:0:0:
448,192,16258,1,0,0:0:0:0:
64,192,16779,1,0,0:0:0:0:
192,192,16854,1,0,0:0:0:0:
64,192,16928,1,4,0:0:0:0:
448,192,17151,1,0,0:0:0:0:
320,192,17151,1,0,0:0:0:0:
192,192,17374,1,0,0:0:0:0:
192,192,17523,1,4,0:0:0:0:
448,192,17523,1,0,0:0:0:0:
64,192,17523,1,4,0:0:0:0:
320,192,17746,1,0,0:0:0:0:
192,192,18044,1,4,0:0:0:0:
64,192,18044,1,0,0:0:0:0:
448,192,18044,1,4,0:0:0:0:
320,192,18267,1,12,0:0:0:0:
448,192,18267,1,12,0:0:0:0:
64,192,18267,1,8,0:0:0:0:
192,192,18416,1,8,0:0:0:0:
64,192,18490,1,8,0:0:0:0:
320,192,18490,1,12,0:0:0:0:
448,192,18490,1,12,0:0:0:0:
320,192,18639,1,8,0:0:0:0:
64,192,18714,1,12,0:0:0:0:
192,192,18788,1,8,0:0:0:0:
448,192,18862,1,8,0:0:0:0:
320,192,18936,1,8,0:0:0:0:
192,192,19011,1,8,0:0:0:0:
448,192,19160,1,8,0:0:0:0:
192,192,19234,1,8,0:0:0:0:
448,192,19309,1,4,0:0:0:0:
64,192,19309,1,0,0:0:0:0:
320,192,19309,1,4,0:0:0:0:
64,192,19532,1,0,0:0:0:0:
192,192,19532,1,0,0:0:0:0:
192,192,19755,1,0,0:0:0:0:
320,192,19755,1,0,0:0:0:0:
64,192,20276,1,4,0:0:0:0:
192,192,20351,1,0,0:0:0:0:
448,192,20425,1,4,0:0:0:0:
64,192,20425,1,0,0:0:0:0:
320,192,20425,1,4,0:0:0:0:
320,192,20946,1,0,0:0:0:0:
64,192,21094,1,0,0:0:0:0:
320,192,21094,1,0,0:0:0:0:
192,192,21244,1,0,0:0:0:0:
448,192,21244,1,0,0:0:0:0:
448,192,21392,1,4,0:0:0:0:
320,192,21392,1,4,0:0:0:0:
64,192,21392,1,0,0:0:0:0:
448,192,21541,1,0,0:0:0:0:
192,192,21541,1,0,0:0:0:0:
320,192,21690,1,4,0:0:0:0:
192,192,21690,1,4,0:0:0:0:
64,192,21690,1,0,0:0:0:0:
192,192,21913,1,0,0:0:0:0:
320,192,21913,1,0,0:0:0:0:
64,192,22136,1,0,0:0:0:0:
192,192,22136,1,0,0:0:0:0:
448,192,22136,1,0,0:0:0:0:
320,192,22285,1,4,0:0:0:0:
448,192,22285,1,0,0:0:0:0:
192,192,22285,1,4,0:0:0:0:
192,192,22731,1,0,0:0:0:0:
320,192,22806,1,0,0:0:0:0:
192,192,22880,1,4,0:0:0:0:
64,192,22880,1,4,0:0:0:0:
448,192,23029,1,0,0:0:0:0:
320,192,23029,1,4,0:0:0:0:
192,192,23029,1,4,0:0:0:0:
64,192,23178,1,0,0:0:0:0:
192,192,23252,1,4,0:0:0:0:
448,192,23252,1,0,0:0:0:0:
320,192,23252,1,4,0:0:0:0:
320,192,23401,1,0,0:0:0:0:
192,192,23476,1,0,0:0:0:0:
64,192,23550,1,0,0:0:0:0:
320,192,23624,128,2,23773:0:0:0:0:
192,192,23624,1,0,0:0:0:0:
64,192,23699,1,0,0:0:0:0:
448,192,23773,128,2,23922:0:0:0:0:
192,192,23773,1,0,0:0:0:0:
192,192,23922,128,2,24071:0:0:0:0:
320,192,23922,1,0,0:0:0:0:
448,192,24071,1,2,0:0:0:0:
64,192,24071,1,2,0:0:0:0:
320,192,24071,1,4,0:0:0:0:
320,192,24294,1,0,0:0:0:0:
448,192,24369,1,0,0:0:0:0:
192,192,24369,1,0,0:0:0:0:
64,192,24369,1,0,0:0:0:0:
64,192,24517,1,0,0:0:0:0:
320,192,24517,1,2,1:2:0:0:
320,192,24591,1,2,1:2:0:0:
64,192,24666,1,0,0:0:0:0:
192,192,24666,1,0,0:0:0:0:
320,192,24815,1,0,0:0:0:0:
192,192,24815,1,0,0:0:0:0:
448,192,24964,1,0,0:0:0:0:
320,192,24964,1,0,0:0:0:0:
64,192,24964,1,0,0:0:0:0:
192,192,25112,1,0,0:0:0:0:
320,192,25112,1,2,0:0:0:0:
64,192,25112,128,2,25410:0:0:0:0:
448,192,25410,1,2,0:0:0:0:
448,192,25484,1,2,0:0:0:0:
192,192,25484,1,2,0:0:0:0:
320,192,25708,1,2,0:0:0:0:
320,192,25782,1,2,0:0:0:0:
64,192,25782,1,2,0:0:0:0:
320,192,26005,1,2,0:0:0:0:
64,192,26005,1,2,0:0:0:0:
320,192,26154,1,2,0:0:0:0:
448,192,26229,1,2,0:0:0:0:
192,192,26229,1,2,0:0:0:0:
448,192,26377,1,4,0:0:0:0:
64,192,26377,1,0,0:0:0:0:
192,192,26377,1,6,0:0:0:0:
320,192,26601,1,2,0:0:0:0:
448,192,26601,128,2,26898:0:0:0:0:
192,192,26749,1,2,0:0:0:0:
64,192,26749,128,2,26898:0:0:0:0:
320,192,26898,1,2,0:0:0:0:
320,192,26972,1,2,0:0:0:0:
448,192,27047,1,2,0:0:0:0:
192,192,27047,128,2,27344:0:0:0:0:
64,192,27196,1,2,0:0:0:0:
448,192,27344,1,2,0:0:0:0:
320,192,27344,1,2,0:0:0:0:
192,192,27494,1,2,0:0:0:0:
192,192,27642,1,2,0:0:0:0:
64,192,27642,1,2,0:0:0:0:
448,192,27791,1,2,0:0:0:0:
192,192,27865,1,2,0:0:0:0:
64,192,27865,1,2,0:0:0:0:
448,192,27865,1,2,0:0:0:0:
320,192,28014,1,2,0:0:0:0:
64,192,28089,1,2,0:0:0:0:
320,192,28089,1,2,0:0:0:0:
448,192,28163,1,2,0:0:0:0:
192,192,28237,1,4,0:0:0:0:
64,192,28237,128,2,28833:0:0:0:0:
448,192,28386,1,2,0:0:0:0:
320,192,28386,1,4,0:0:0:0:
192,192,28535,1,10,0:0:0:0:
448,192,28535,128,2,28833:0:0:0:0:
320,192,28684,1,0,0:0:0:0:
192,192,28833,1,4,0:0:0:0:
192,192,29279,1,0,0:0:0:0:
64,192,29279,128,0,29874:0:0:0:0:
192,192,29428,1,0,0:0:0:0:
192,192,29576,1,0,0:0:0:0:
320,192,29726,1,0,0:0:0:0:
448,192,29874,1,0,0:0:0:0:
64,192,30172,1,2,0:0:0:0:
320,192,30246,1,2,0:0:0:0:
64,192,30246,1,2,0:0:0:0:
192,192,30469,1,2,0:0:0:0:
448,192,30544,1,2,0:0:0:0:
192,192,30544,1,2,0:0:0:0:
448,192,30767,1,2,0:0:0:0:
192,192,30767,1,2,0:0:0:0:
192,192,30916,1,2,0:0:0:0:
64,192,30990,1,2,0:0:0:0:
320,192,30990,1,2,0:0:0:0:
64,192,31139,1,2,0:0:0:0:
320,192,31139,1,6,0:0:0:0:
448,192,31139,1,2,0:0:0:0:
448,192,31362,128,2,31660:0:0:0:0:
320,192,31362,1,2,0:0:0:0:
192,192,31511,1,2,0:0:0:0:
64,192,31511,128,2,31660:0:0:0:0:
320,192,31660,1,2,0:0:0:0:
192,192,31734,1,2,0:0:0:0:
192,192,31809,1,2,0:0:0:0:
320,192,31809,128,6,32255:0:0:0:0:
64,192,31958,1,2,0:0:0:0:
192,192,32106,1,2,0:0:0:0:
448,192,32106,128,2,32255:0:0:0:0:
64,192,32255,1,2,0:0:0:0:
64,192,32404,1,0,0:0:0:0:
192,192,32404,1,0,0:0:0:0:
448,192,32404,1,0,0:0:0:0:
64,192,32627,1,0,0:0:0:0:
192,192,32627,1,0,0:0:0:0:
448,192,32627,1,0,0:0:0:0:
64,192,32851,1,0,0:0:0:0:
192,192,32925,1,0,0:0:0:0:
320,192,32999,1,2,0:0:0:0:
320,192,33074,1,2,0:0:0:0:
64,192,33148,1,0,0:0:0:0:
448,192,33297,1,0,0:0:0:0:
320,192,33297,1,4,0:0:0:0:
192,192,33297,1,4,0:0:0:0:
64,192,33446,1,0,0:0:0:0:
192,192,33520,1,0,0:0:0:0:
448,192,33594,1,0,0:0:0:0:
64,192,33594,128,4,33818:0:0:0:0:
448,192,33818,1,0,0:0:0:0:
448,192,34041,1,0,0:0:0:0:
64,192,34041,1,0,0:0:0:0:
320,192,34115,1,0,0:0:0:0:
192,192,34115,1,0,0:0:0:0:
448,192,34190,1,0,0:0:0:0:
448,192,34264,1,0,0:0:0:0:
64,192,34264,1,0,0:0:0:0:
192,192,34339,1,0,0:0:0:0:
448,192,34487,1,0,0:0:0:0:
192,192,34487,1,0,0:0:0:0:
320,192,34561,1,0,0:0:0:0:
192,192,34636,1,0,0:0:0:0:
64,192,34711,1,4,0:0:0:0:
448,192,34711,1,12,0:0:0:0:
448,192,34859,1,8,0:0:0:0:
320,192,34859,1,8,0:0:0:0:
192,192,34934,1,8,0:0:0:0:
64,192,35008,1,8,0:0:0:0:
448,192,35083,1,8,0:0:0:0:
192,192,35083,1,8,0:0:0:0:
320,192,35157,1,8,0:0:0:0:
192,192,35231,1,8,0:0:0:0:
64,192,35306,1,8,0:0:0:0:
320,192,35306,1,8,0:0:0:0:
448,192,35306,128,10,35678:0:0:0:0:
192,192,35380,1,8,0:0:0:0:
320,192,35454,1,8,0:0:0:0:
192,192,35529,1,8,0:0:0:0:
64,192,35604,1,8,0:0:0:0:
320,192,35678,1,8,0:0:0:0:
192,192,35678,128,12,35976:0:0:0:0:
320,192,35826,1,8,0:0:0:0:
64,192,35901,1,8,0:0:0:0:
448,192,35976,1,4,0:0:0:0:
320,192,36050,1,0,0:0:0:0:
448,192,36124,1,0,0:0:0:0:
192,192,36199,1,0,0:0:0:0:
320,192,36273,1,4,0:0:0:0:
448,192,36273,1,0,0:0:0:0:
64,192,36347,1,0,0:0:0:0:
320,192,36422,1,0,0:0:0:0:
192,192,36422,1,0,0:0:0:0:
448,192,36496,1,0,0:0:0:0:
64,192,36571,1,0,0:0:0:0:
320,192,36571,1,8,0:0:0:0:
192,192,36645,1,0,0:0:0:0:
448,192,36645,1,0,0:0:0:0:
320,192,36719,1,0,0:0:0:0:
64,192,36719,1,0,0:0:0:0:
192,192,36794,1,0,0:0:0:0:
64,192,36869,1,0,0:0:0:0:
320,192,36869,1,8,0:0:0:0:
448,192,36869,1,0,0:0:0:0:
192,192,36943,1,0,0:0:0:0:
320,192,37017,1,0,0:0:0:0:
64,192,37017,1,0,0:0:0:0:
448,192,37091,1,0,0:0:0:0:
320,192,37166,1,2,0:0:0:0:
192,192,37166,1,0,0:0:0:0:
64,192,37166,1,0,0:0:0:0:
448,192,37240,1,0,0:0:0:0:
320,192,37315,1,0,0:0:0:0:
192,192,37315,1,0,0:0:0:0:
64,192,37389,1,0,0:0:0:0:
448,192,37389,1,0,0:0:0:0:
192,192,37464,1,0,0:0:0:0:
320,192,37464,1,4,0:0:0:0:
64,192,37538,1,0,0:0:0:0:
192,192,37612,1,0,0:0:0:0:
448,192,37612,1,0,0:0:0:0:
64,192,37686,1,0,0:0:0:0:
192,192,37761,1,8,0:0:0:0:
320,192,37836,1,0,0:0:0:0:
448,192,37836,1,0,0:0:0:0:
192,192,37910,1,0,0:0:0:0:
64,192,37910,1,0,0:0:0:0:
320,192,37984,1,0,0:0:0:0:
64,192,38059,1,0,0:0:0:0:
448,192,38059,1,0,0:0:0:0:
192,192,38059,1,8,0:0:0:0:
320,192,38133,1,0,0:0:0:0:
192,192,38208,1,0,0:0:0:0:
448,192,38208,1,0,0:0:0:0:
64,192,38282,1,0,0:0:0:0:
320,192,38356,1,8,0:0:0:0:
192,192,38356,1,0,0:0:0:0:
448,192,38356,1,0,0:0:0:0:
64,192,38431,1,0,0:0:0:0:
320,192,38505,1,0,0:0:0:0:
192,192,38579,1,0,0:0:0:0:
448,192,38654,1,0,0:0:0:0:
320,192,38654,1,4,0:0:0:0:
192,192,38729,1,0,0:0:0:0:
448,192,38803,1,0,0:0:0:0:
64,192,38803,1,0,0:0:0:0:
192,192,38877,1,0,0:0:0:0:
448,192,38951,1,0,0:0:0:0:
320,192,38951,1,8,0:0:0:0:
64,192,39026,1,0,0:0:0:0:
192,192,39026,1,0,0:0:0:0:
448,192,39101,1,0,0:0:0:0:
320,192,39101,1,0,0:0:0:0:
192,192,39175,1,0,0:0:0:0:
448,192,39249,1,0,0:0:0:0:
64,192,39249,1,0,0:0:0:0:
320,192,39249,1,8,0:0:0:0:
192,192,39324,1,0,0:0:0:0:
320,192,39398,1,0,0:0:0:0:
64,192,39472,1,0,0:0:0:0:
320,192,39547,1,0,0:0:0:0:
192,192,39547,1,0,0:0:0:0:
448,192,39547,128,0,39994:0:0:0:0:
192,192,39770,1,0,0:0:0:0:
64,192,39994,128,0,40737:0:0:0:0:
320,192,39994,1,0,0:0:0:0:
192,192,40142,1,8,0:0:0:0:
320,192,40216,1,0,0:0:0:0:
448,192,40216,1,0,0:0:0:0:
192,192,40291,1,0,0:0:0:0:
320,192,40365,1,0,0:0:0:0:
192,192,40440,1,10,0:0:0:0:
448,192,40440,1,8,0:0:0:0:
320,192,40589,1,8,0:0:0:0:
448,192,40589,1,8,0:0:0:0:
192,192,40663,1,8,0:0:0:0:
448,192,40737,1,2,0:0:0:0:
320,192,40737,1,2,0:0:0:0:
192,192,40811,1,0,0:0:0:0:
64,192,40886,1,0,0:0:0:0:
448,192,40886,1,0,0:0:0:0:
320,192,40961,1,0,0:0:0:0:
192,192,40961,1,0,0:0:0:0:
64,192,41035,1,4,0:0:0:0:
448,192,41109,1,0,0:0:0:0:
320,192,41184,1,0,0:0:0:0:
192,192,41184,1,0,0:0:0:0:
64,192,41258,1,0,0:0:0:0:
448,192,41333,1,0,0:0:0:0:
320,192,41333,1,8,0:0:0:0:
64,192,41407,1,0,0:0:0:0:
192,192,41407,1,0,0:0:0:0:
320,192,41481,1,0,0:0:0:0:
192,192,41556,1,0,0:0:0:0:
448,192,41630,1,4,0:0:0:0:
64,192,41630,1,0,0:0:0:0:
320,192,41630,1,8,0:0:0:0:
192,192,41704,1,0,0:0:0:0:
448,192,41779,1,0,0:0:0:0:
64,192,41779,1,0,0:0:0:0:
320,192,41854,1,0,0:0:0:0:
448,192,41928,1,0,0:0:0:0:
192,192,41928,1,8,0:0:0:0:
64,192,41928,1,0,0:0:0:0:
320,192,42002,1,0,0:0:0:0:
448,192,42076,1,0,0:0:0:0:
320,192,42151,1,0,0:0:0:0:
64,192,42151,1,0,0:0:0:0:
192,192,42226,1,0,0:0:0:0:
448,192,42226,1,8,0:0:0:0:
64,192,42300,1,0,0:0:0:0:
192,192,42374,1,0,0:0:0:0:
320,192,42374,1,0,0:0:0:0:
448,192,42449,1,0,0:0:0:0:
192,192,42523,1,8,0:0:0:0:
320,192,42523,1,0,0:0:0:0:
64,192,42597,1,0,0:0:0:0:
448,192,42597,1,0,0:0:0:0:
192,192,42672,1,0,0:0:0:0:
320,192,42746,1,0,0:0:0:0:
448,192,42821,1,4,0:0:0:0:
64,192,42821,1,0,0:0:0:0:
192,192,42821,1,4,0:0:0:0:
320,192,42895,1,0,0:0:0:0:
448,192,42969,1,0,0:0:0:0:
192,192,42969,1,0,0:0:0:0:
320,192,43044,1,0,0:0:0:0:
192,192,43119,1,2,0:0:0:0:
64,192,43119,1,0,0:0:0:0:
448,192,43119,1,0,0:0:0:0:
320,192,43193,1,0,0:0:0:0:
192,192,43267,1,0,0:0:0:0:
320,192,43341,1,0,0:0:0:0:
448,192,43341,1,0,0:0:0:0:
64,192,43416,1,0,0:0:0:0:
192,192,43416,1,4,0:0:0:0:
448,192,43490,1,0,0:0:0:0:
192,192,43565,1,0,0:0:0:0:
320,192,43565,1,0,0:0:0:0:
64,192,43639,1,0,0:0:0:0:
320,192,43714,1,8,0:0:0:0:
448,192,43714,1,0,0:0:0:0:
192,192,43788,1,0,0:0:0:0:
64,192,43788,1,0,0:0:0:0:
320,192,43862,1,0,0:0:0:0:
448,192,43862,1,0,0:0:0:0:
192,192,43936,1,0,0:0:0:0:
64,192,44011,1,0,0:0:0:0:
320,192,44011,1,12,0:0:0:0:
448,192,44011,1,4,0:0:0:0:
192,192,44086,1,0,0:0:0:0:
448,192,44160,1,0,0:0:0:0:
320,192,44234,1,0,0:0:0:0:
192,192,44309,1,0,0:0:0:0:
64,192,44309,1,4,0:0:0:0:
448,192,44309,1,4,0:0:0:0:
320,192,44383,1,0,0:0:0:0:
64,192,44458,1,0,0:0:0:0:
448,192,44532,1,4,0:0:0:0:
320,192,44532,1,4,0:0:0:0:
192,192,44532,1,0,0:0:0:0:
64,192,44606,1,0,0:0:0:0:
448,192,44681,1,0,0:0:0:0:
192,192,44755,1,4,0:0:0:0:
64,192,44755,1,0,0:0:0:0:
320,192,44755,1,0,0:0:0:0:
448,192,44829,1,0,0:0:0:0:
192,192,44904,1,0,0:0:0:0:
64,192,44904,1,0,0:0:0:0:
448,192,44979,1,4,0:0:0:0:
320,192,44979,1,4,0:0:0:0:
192,192,45053,1,0,0:0:0:0:
448,192,45127,1,0,0:0:0:0:
64,192,45201,1,4,0:0:0:0:
192,192,45201,1,4,0:0:0:0:
320,192,45201,1,0,0:0:0:0:
320,192,45351,1,2,0:0:0:0:
192,192,45351,1,0,0:0:0:0:
448,192,45351,1,0,0:0:0:0:
64,192,45425,1,0,0:0:0:0:
320,192,45499,1,0,0:0:0:0:
448,192,45499,1,0,0:0:0:0:
192,192,45499,128,4,45648:0:0:0:0:
64,192,45722,1,0,0:0:0:0:
448,192,45722,128,0,45871:0:0:0:0:
320,192,45946,1,0,0:0:0:0:
192,192,45946,1,0,0:0:0:0:
64,192,46094,1,0,0:0:0:0:
320,192,46094,1,0,0:0:0:0:
192,192,46094,1,0,0:0:0:0:
64,192,46244,128,0,46318:0:0:0:0:
448,192,46318,1,0,0:0:0:0:
320,192,46318,128,0,46466:0:0:0:0:
448,192,46541,128,0,46690:0:0:0:0:
192,192,46541,1,0,0:0:0:0:
64,192,46541,1,0,0:0:0:0:
320,192,46615,1,0,0:0:0:0:
64,192,46690,1,4,0:0:0:0:
192,192,46690,128,0,46913:0:0:0:0:
448,192,46913,1,0,0:0:0:0:
320,192,46913,128,0,47136:0:0:0:0:
64,192,47061,1,0,0:0:0:0:
448,192,47136,128,0,47285:0:0:0:0:
192,192,47136,1,0,0:0:0:0:
192,192,47285,1,0,0:0:0:0:
64,192,47285,128,0,47508:0:0:0:0:
320,192,47508,1,0,0:0:0:0:
448,192,47508,1,0,0:0:0:0:
192,192,47508,1,0,0:0:0:0:
448,192,47731,1,0,0:0:0:0:
320,192,47731,1,0,0:0:0:0:
64,192,47806,1,0,0:0:0:0:
320,192,47880,1,0,0:0:0:0:
192,192,47880,1,0,0:0:0:0:
448,192,47880,128,0,48029:0:0:0:0:
192,192,48104,128,0,48252:0:0:0:0:
64,192,48104,1,0,0:0:0:0:
448,192,48326,128,0,48476:0:0:0:0:
320,192,48326,1,0,0:0:0:0:
64,192,48476,1,0,0:0:0:0:
192,192,48476,128,4,48699:0:0:0:0:
448,192,48699,128,0,48847:0:0:0:0:
320,192,48847,1,0,0:0:0:0:
64,192,48922,128,0,48996:0:0:0:0:
192,192,48996,1,0,0:0:0:0:
320,192,48996,1,0,0:0:0:0:
448,192,49071,1,8,0:0:0:0:
64,192,49219,1,8,0:0:0:0:
448,192,49219,1,8,0:0:0:0:
192,192,49219,1,8,0:0:0:0:
320,192,49294,128,8,49517:0:0:0:0:
64,192,49443,1,8,0:0:0:0:
192,192,49517,1,8,0:0:0:0:
448,192,49517,1,8,0:0:0:0:
64,192,49666,128,8,49889:0:0:0:0:
192,192,49666,1,8,0:0:0:0:
448,192,49666,1,8,0:0:0:0:
320,192,49740,1,8,0:0:0:0:
448,192,49815,1,8,0:0:0:0:
320,192,49889,1,8,0:0:0:0:
192,192,49964,1,0,0:0:0:0:
448,192,49964,128,0,50112:0:0:0:0:
320,192,50112,1,8,0:0:0:0:
192,192,50186,1,8,0:0:0:0:
320,192,50261,1,0,0:0:0:0:
448,192,50261,1,0,0:0:0:0:
64,192,50261,128,4,50410:0:0:0:0:
448,192,50484,1,0,0:0:0:0:
192,192,50484,128,0,50633:0:0:0:0:
448,192,50708,1,0,0:0:0:0:
320,192,50708,1,0,0:0:0:0:
64,192,50856,1,0,0:0:0:0:
448,192,50856,1,0,0:0:0:0:
192,192,50856,1,0,0:0:0:0:
448,192,51005,128,0,51079:0:0:0:0:
320,192,51079,1,0,0:0:0:0:
64,192,51079,128,0,51229:0:0:0:0:
448,192,51303,128,0,51451:0:0:0:0:
320,192,51303,1,0,0:0:0:0:
192,192,51303,1,0,0:0:0:0:
64,192,51377,1,0,0:0:0:0:
320,192,51451,1,0,0:0:0:0:
192,192,51451,128,0,51675:0:0:0:0:
448,192,51675,1,0,0:0:0:0:
320,192,51675,128,0,51898:0:0:0:0:
64,192,51824,1,0,0:0:0:0:
192,192,51898,128,0,52047:0:0:0:0:
448,192,51898,1,0,0:0:0:0:
448,192,52047,1,0,0:0:0:0:
64,192,52047,128,0,52270:0:0:0:0:
320,192,52270,1,0,0:0:0:0:
448,192,52270,1,0,0:0:0:0:
192,192,52270,1,0,0:0:0:0:
320,192,52494,1,0,0:0:0:0:
192,192,52494,1,0,0:0:0:0:
448,192,52568,1,0,0:0:0:0:
64,192,52642,1,2,0:0:0:0:
192,192,52642,1,2,0:0:0:0:
320,192,52642,128,2,52791:0:0:0:0:
64,192,52791,128,2,52940:0:0:0:0:
320,192,52865,1,2,0:0:0:0:
192,192,52940,128,2,53014:0:0:0:0:
448,192,53014,128,2,53163:0:0:0:0:
64,192,53163,128,2,53311:0:0:0:0:
320,192,53163,1,2,0:0:0:0:
320,192,53237,128,4,53386:0:0:0:0:
192,192,53386,128,2,53535:0:0:0:0:
448,192,53386,1,2,0:0:0:0:
64,192,53461,1,2,0:0:0:0:
448,192,53535,128,2,53609:0:0:0:0:
64,192,53535,1,2,0:0:0:0:
320,192,53609,128,2,53758:0:0:0:0:
64,192,53758,1,4,0:0:0:0:
448,192,53758,1,2,0:0:0:0:
192,192,53833,1,2,0:0:0:0:
448,192,53833,1,2,0:0:0:0:
320,192,53981,1,2,0:0:0:0:
448,192,54056,1,2,0:0:0:0:
192,192,54056,1,2,0:0:0:0:
64,192,54056,1,6,0:0:0:0:
448,192,54130,1,2,0:0:0:0:
64,192,54204,1,2,0:0:0:0:
192,192,54279,1,2,0:0:0:0:
320,192,54279,1,2,0:0:0:0:
64,192,54428,1,10,0:0:0:0:
320,192,54428,1,10,0:0:0:0:
448,192,54428,1,10,0:0:0:0:
64,192,54576,1,10,0:0:0:0:
448,192,54651,1,10,0:0:0:0:
320,192,54651,1,10,0:0:0:0:
192,192,54651,1,10,0:0:0:0:
448,192,54800,1,10,0:0:0:0:
320,192,54874,1,10,0:0:0:0:
192,192,54874,1,10,0:0:0:0:
64,192,54874,1,10,0:0:0:0:
192,192,55023,1,0,0:0:0:0:
448,192,55023,1,0,0:0:0:0:
64,192,55023,128,4,55990:0:0:0:0:
320,192,55172,1,0,0:0:0:0:
192,192,55246,1,0,0:0:0:0:
448,192,55246,1,0,0:0:0:0:
320,192,55395,1,0,0:0:0:0:
192,192,55469,1,0,0:0:0:0:
448,192,55469,1,0,0:0:0:0:
320,192,55544,1,0,0:0:0:0:
192,192,55619,1,0,0:0:0:0:
448,192,55619,1,0,0:0:0:0:
320,192,55619,1,0,0:0:0:0:
448,192,55767,1,0,0:0:0:0:
192,192,55767,1,0,0:0:0:0:
320,192,55916,1,0,0:0:0:0:
448,192,55990,1,0,0:0:0:0:
192,192,55990,1,4,0:0:0:0:
64,192,56139,1,0,0:0:0:0:
320,192,56139,1,4,0:0:0:0:
448,192,56139,1,4,0:0:0:0:
64,192,56362,128,8,56809:0:0:0:0:
192,192,56362,1,0,0:0:0:0:
448,192,56362,1,0,0:0:0:0:
320,192,56436,1,8,0:0:0:0:
192,192,56511,1,8,0:0:0:0:
320,192,56586,1,8,0:0:0:0:
448,192,56586,1,8,0:0:0:0:
192,192,56660,1,8,0:0:0:0:
320,192,56734,1,8,0:0:0:0:
192,192,56809,1,8,0:0:0:0:
448,192,56809,1,8,0:0:0:0:
64,192,56908,1,8,0:0:0:0:
320,192,56908,1,8,0:0:0:0:
448,192,56908,1,8,0:0:0:0:
320,192,57007,1,8,0:0:0:0:
192,192,57007,1,8,0:0:0:0:
448,192,57106,1,8,0:0:0:0:
64,192,57106,1,8,0:0:0:0:
320,192,57106,1,8,0:0:0:0:
64,192,57206,1,8,0:0:0:0:
192,192,57206,1,8,0:0:0:0:
448,192,57206,1,8,0:0:0:0:
448,192,57305,1,8,0:0:0:0:
320,192,57305,1,8,0:0:0:0:
192,192,57305,1,8,0:0:0:0:
64,192,57404,1,4,0:0:0:0:
192,192,57404,1,4,0:0:0:0:
320,192,57479,1,0,0:0:0:0:
448,192,57553,1,0,0:0:0:0:
192,192,57627,1,0,0:0:0:0:
320,192,57701,1,8,0:0:0:0:
64,192,57701,1,0,0:0:0:0:
448,192,57701,1,0,0:0:0:0:
192,192,57776,1,0,0:0:0:0:
320,192,57851,1,0,0:0:0:0:
448,192,57851,1,0,0:0:0:0:
64,192,57925,1,0,0:0:0:0:
192,192,57999,1,0,0:0:0:0:
64,192,58074,1,0,0:0:0:0:
320,192,58074,1,0,0:0:0:0:
448,192,58148,1,0,0:0:0:0:
320,192,58222,1,0,0:0:0:0:
192,192,58297,1,0,0:0:0:0:
64,192,58297,1,0,0:0:0:0:
448,192,58297,1,8,0:0:0:0:
320,192,58371,1,0,0:0:0:0:
64,192,58446,1,0,0:0:0:0:
448,192,58446,1,0,0:0:0:0:
320,192,58520,1,0,0:0:0:0:
192,192,58594,1,0,0:0:0:0:
448,192,58669,1,0,0:0:0:0:
64,192,58744,1,0,0:0:0:0:
192,192,58818,1,0,0:0:0:0:
448,192,58892,1,8,0:0:0:0:
64,192,58892,1,0,0:0:0:0:
320,192,58892,1,0,0:0:0:0:
192,192,58966,1,0,0:0:0:0:
448,192,59041,1,0,0:0:0:0:
64,192,59041,1,0,0:0:0:0:
320,192,59115,1,0,0:0:0:0:
192,192,59190,1,0,0:0:0:0:
448,192,59264,1,0,0:0:0:0:
320,192,59264,1,0,0:0:0:0:
64,192,59339,1,0,0:0:0:0:
448,192,59413,1,0,0:0:0:0:
64,192,59487,1,0,0:0:0:0:
320,192,59487,1,0,0:0:0:0:
192,192,59487,1,8,0:0:0:0:
448,192,59561,1,0,0:0:0:0:
192,192,59636,1,0,0:0:0:0:
64,192,59636,1,0,0:0:0:0:
320,192,59711,1,0,0:0:0:0:
64,192,59785,1,0,0:0:0:0:
192,192,59785,1,0,0:0:0:0:
448,192,59859,1,0,0:0:0:0:
320,192,59934,1,0,0:0:0:0:
448,192,60008,1,0,0:0:0:0:
192,192,60083,1,0,0:0:0:0:
320,192,60083,1,8,0:0:0:0:
64,192,60083,1,0,0:0:0:0:
448,192,60157,1,0,0:0:0:0:
192,192,60231,1,0,0:0:0:0:
320,192,60306,1,0,0:0:0:0:
64,192,60380,1,0,0:0:0:0:
192,192,60380,1,0,0:0:0:0:
448,192,60454,1,0,0:0:0:0:
64,192,60529,1,0,0:0:0:0:
448,192,60604,1,0,0:0:0:0:
320,192,60678,1,0,0:0:0:0:
192,192,60678,1,8,0:0:0:0:
64,192,60678,1,0,0:0:0:0:
448,192,60752,1,0,0:0:0:0:
192,192,60826,1,0,0:0:0:0:
320,192,60826,1,0,0:0:0:0:
448,192,60901,1,0,0:0:0:0:
192,192,60976,1,8,0:0:0:0:
64,192,60976,1,0,0:0:0:0:
448,192,61422,1,0,0:0:0:0:
448,192,61869,1,8,0:0:0:0:
192,192,61869,1,12,0:0:0:0:
192,192,62017,1,0,0:0:0:0:
64,192,62091,1,0,0:0:0:0:
320,192,62166,1,4,0:0:0:0:
448,192,62166,1,4,0:0:0:0:
64,192,62240,1,0,0:0:0:0:
192,192,62315,1,0,0:0:0:0:
320,192,62389,1,0,0:0:0:0:
448,192,62464,1,8,0:0:0:0:
64,192,62464,1,0,0:0:0:0:
320,192,62538,1,0,0:0:0:0:
448,192,62612,1,0,0:0:0:0:
192,192,62612,1,0,0:0:0:0:
64,192,62686,1,0,0:0:0:0:
192,192,62761,1,0,0:0:0:0:
320,192,62761,1,4,0:0:0:0:
448,192,62836,1,0,0:0:0:0:
192,192,62910,1,0,0:0:0:0:
64,192,62910,1,0,0:0:0:0:
320,192,62984,1,0,0:0:0:0:
448,192,63059,1,4,0:0:0:0:
192,192,63059,1,8,0:0:0:0:
64,192,63133,1,0,0:0:0:0:
192,192,63208,1,0,0:0:0:0:
64,192,63282,1,0,0:0:0:0:
320,192,63356,1,12,0:0:0:0:
448,192,63356,1,0,0:0:0:0:
192,192,63431,1,0,0:0:0:0:
448,192,63505,1,0,0:0:0:0:
192,192,63579,1,0,0:0:0:0:
64,192,63654,1,0,0:0:0:0:
320,192,63654,1,8,0:0:0:0:
448,192,63654,1,8,0:0:0:0:
192,192,63729,1,0,0:0:0:0:
320,192,63803,1,0,0:0:0:0:
64,192,63877,1,0,0:0:0:0:
448,192,63951,1,4,0:0:0:0:
320,192,63951,1,4,0:0:0:0:
64,192,64026,1,0,0:0:0:0:
192,192,64101,1,8,0:0:0:0:
320,192,64101,1,0,0:0:0:0:
64,192,64175,1,0,0:0:0:0:
320,192,64249,1,8,0:0:0:0:
192,192,64249,1,0,0:0:0:0:
448,192,64249,1,12,0:0:0:0:
64,192,64324,1,0,0:0:0:0:
320,192,64398,1,0,0:0:0:0:
192,192,64472,1,0,0:0:0:0:
64,192,64547,1,8,0:0:0:0:
320,192,64547,1,4,0:0:0:0:
192,192,64621,1,0,0:0:0:0:
320,192,64696,1,0,0:0:0:0:
64,192,64770,1,0,0:0:0:0:
320,192,64844,1,4,0:0:0:0:
448,192,64844,1,4,0:0:0:0:
192,192,64844,1,8,0:0:0:0:
64,192,64919,1,0,0:0:0:0:
448,192,64994,1,0,0:0:0:0:
320,192,64994,1,0,0:0:0:0:
192,192,65068,1,0,0:0:0:0:
320,192,65142,1,0,0:0:0:0:
448,192,65142,1,0,0:0:0:0:
64,192,65142,1,0,0:0:0:0:
192,192,65216,1,0,0:0:0:0:
320,192,65291,1,0,0:0:0:0:
64,192,65365,1,0,0:0:0:0:
448,192,65440,1,4,0:0:0:0:
320,192,65440,1,4,0:0:0:0:
320,192,65514,1,0,0:0:0:0:
64,192,65589,1,0,0:0:0:0:
192,192,65589,1,0,0:0:0:0:
192,192,65663,1,0,0:0:0:0:
448,192,65737,1,8,0:0:0:0:
320,192,65737,1,8,0:0:0:0:
64,192,65737,1,8,0:0:0:0:
192,192,65811,1,0,0:0:0:0:
320,192,65886,1,0,0:0:0:0:
192,192,65961,1,8,0:0:0:0:
64,192,65961,1,8,0:0:0:0:
448,192,65961,1,8,0:0:0:0:
320,192,66035,1,0,0:0:0:0:
192,192,66109,1,0,0:0:0:0:
320,192,66184,1,12,0:0:0:0:
448,192,66184,1,8,0:0:0:0:
448,192,66258,1,0,0:0:0:0:
64,192,66333,1,8,0:0:0:0:
192,192,66333,1,8,0:0:0:0:
320,192,66333,1,4,0:0:0:0:
448,192,66407,1,0,0:0:0:0:
320,192,66481,1,0,0:0:0:0:
64,192,66556,1,0,0:0:0:0:
320,192,66630,1,0,0:0:0:0:
192,192,66630,128,2,66779:0:0:0:0:
448,192,66630,1,0,0:0:0:0:
64,192,66704,1,0,0:0:0:0:
320,192,66779,1,0,0:0:0:0:
448,192,66779,128,2,66928:0:0:0:0:
64,192,66854,1,0,0:0:0:0:
192,192,66928,1,4,0:0:0:0:
320,192,66928,1,4,0:0:0:0:
64,192,67002,1,0,0:0:0:0:
448,192,67076,1,0,0:0:0:0:
320,192,67151,1,0,0:0:0:0:
192,192,67151,1,0,0:0:0:0:
64,192,67226,1,4,0:0:0:0:
192,192,67300,1,0,0:0:0:0:
64,192,67374,1,0,0:0:0:0:
448,192,67374,1,0,0:0:0:0:
320,192,67374,1,0,0:0:0:0:
192,192,67449,1,0,0:0:0:0:
320,192,67523,1,8,0:0:0:0:
192,192,67597,1,0,0:0:0:0:
448,192,67597,1,0,0:0:0:0:
64,192,67597,1,0,0:0:0:0:
320,192,67672,1,0,0:0:0:0:
448,192,67746,1,0,0:0:0:0:
320,192,67821,1,0,0:0:0:0:
192,192,67821,1,0,0:0:0:0:
64,192,67821,1,0,0:0:0:0:
448,192,67895,1,0,0:0:0:0:
320,192,67969,1,0,0:0:0:0:
192,192,67969,1,0,0:0:0:0:
64,192,68044,1,0,0:0:0:0:
192,192,68119,1,4,0:0:0:0:
320,192,68119,1,0,0:0:0:0:
448,192,68119,1,0,0:0:0:0:
64,192,68193,1,0,0:0:0:0:
192,192,68267,1,0,0:0:0:0:
64,192,68341,1,0,0:0:0:0:
320,192,68341,1,0,0:0:0:0:
448,192,68341,1,0,0:0:0:0:
192,192,68416,1,4,0:0:0:0:
320,192,68490,1,0,0:0:0:0:
448,192,68565,1,0,0:0:0:0:
192,192,68565,1,0,0:0:0:0:
320,192,68639,1,0,0:0:0:0:
192,192,68714,1,8,0:0:0:0:
320,192,68788,1,0,0:0:0:0:
448,192,68788,1,0,0:0:0:0:
64,192,68788,1,0,0:0:0:0:
192,192,68862,1,0,0:0:0:0:
320,192,68936,1,0,0:0:0:0:
448,192,69011,1,4,0:0:0:0:
192,192,69011,1,0,0:0:0:0:
64,192,69011,1,0,0:0:0:0:
320,192,69086,1,0,0:0:0:0:
448,192,69160,1,0,0:0:0:0:
64,192,69160,1,0,0:0:0:0:
192,192,69234,1,0,0:0:0:0:
320,192,69309,1,4,0:0:0:0:
64,192,69309,1,0,0:0:0:0:
448,192,69309,1,0,0:0:0:0:
192,192,69383,1,0,0:0:0:0:
320,192,69458,1,0,0:0:0:0:
192,192,69532,1,0,0:0:0:0:
64,192,69532,1,0,0:0:0:0:
320,192,69606,1,8,0:0:0:0:
448,192,69681,1,0,0:0:0:0:
192,192,69755,1,0,0:0:0:0:
64,192,69755,1,0,0:0:0:0:
320,192,69755,1,0,0:0:0:0:
448,192,69829,1,0,0:0:0:0:
320,192,69904,1,8,0:0:0:0:
192,192,69979,1,0,0:0:0:0:
64,192,69979,1,0,0:0:0:0:
448,192,69979,1,0,0:0:0:0:
320,192,70053,1,0,0:0:0:0:
64,192,70127,1,0,0:0:0:0:
448,192,70201,1,4,0:0:0:0:
320,192,70201,1,0,0:0:0:0:
192,192,70201,1,0,0:0:0:0:
64,192,70276,1,0,0:0:0:0:
192,192,70351,1,0,0:0:0:0:
320,192,70351,1,0,0:0:0:0:
448,192,70425,1,0,0:0:0:0:
320,192,70499,1,0,0:0:0:0:
192,192,70499,1,0,0:0:0:0:
64,192,70499,128,12,70946:0:0:0:0:
448,192,70574,1,0,0:0:0:0:
192,192,70648,1,0,0:0:0:0:
448,192,70722,1,0,0:0:0:0:
192,192,70797,1,0,0:0:0:0:
320,192,70797,1,0,0:0:0:0:
448,192,70871,1,0,0:0:0:0:
320,192,70946,128,12,71392:0:0:0:0:
192,192,70946,1,0,0:0:0:0:
448,192,71020,1,0,0:0:0:0:
192,192,71094,1,0,0:0:0:0:
64,192,71169,1,0,0:0:0:0:
448,192,71169,1,0,0:0:0:0:
192,192,71244,1,0,0:0:0:0:
64,192,71318,1,0,0:0:0:0:
448,192,71392,1,8,0:0:0:0:
192,192,71392,1,8,0:0:0:0:
64,192,71466,1,8,0:0:0:0:
192,192,71541,1,8,0:0:0:0:
448,192,71541,1,8,0:0:0:0:
320,192,71615,1,8,0:0:0:0:
64,192,71690,1,4,0:0:0:0:
192,192,71690,1,4,0:0:0:0:
448,192,71690,1,0,0:0:0:0:
320,192,71764,1,0,0:0:0:0:
64,192,71839,1,0,0:0:0:0:
448,192,71913,1,0,0:0:0:0:
320,192,71987,1,0,0:0:0:0:
64,192,72061,1,0,0:0:0:0:
192,192,72136,1,0,0:0:0:0:
320,192,72136,1,4,0:0:0:0:
448,192,72136,1,4,0:0:0:0:
64,192,72211,1,0,0:0:0:0:
320,192,72285,1,0,0:0:0:0:
448,192,72359,1,0,0:0:0:0:
64,192,72359,1,0,0:0:0:0:
192,192,72359,1,0,0:0:0:0:
320,192,72434,1,0,0:0:0:0:
64,192,72508,1,0,0:0:0:0:
320,192,72583,1,0,0:0:0:0:
448,192,72583,1,0,0:0:0:0:
64,192,72657,1,0,0:0:0:0:
192,192,72731,1,0,0:0:0:0:
320,192,72731,1,0,0:0:0:0:
448,192,72731,1,0,0:0:0:0:
64,192,72806,1,0,0:0:0:0:
192,192,72880,1,0,0:0:0:0:
320,192,72880,1,0,0:0:0:0:
448,192,72880,1,0,0:0:0:0:
64,192,72954,1,2,0:0:0:0:
192,192,73029,1,2,0:0:0:0:
192,192,73104,1,2,0:0:0:0:
448,192,73104,1,2,0:0:0:0:
320,192,73178,1,2,0:0:0:0:
320,192,73252,1,2,0:0:0:0:
192,192,73326,1,12,0:0:0:0:
64,192,73326,1,12,0:0:0:0:
448,192,73326,1,8,0:0:0:0:
320,192,73401,1,0,0:0:0:0:
64,192,73476,1,0,0:0:0:0:
320,192,73550,1,0,0:0:0:0:
448,192,73550,1,0,0:0:0:0:
192,192,73550,1,0,0:0:0:0:
64,192,73624,1,0,0:0:0:0:
192,192,73699,1,0,0:0:0:0:
64,192,73773,1,8,0:0:0:0:
320,192,73773,1,8,0:0:0:0:
448,192,73773,1,8,0:0:0:0:
192,192,73847,1,0,0:0:0:0:
448,192,73922,1,0,0:0:0:0:
320,192,73996,1,0,0:0:0:0:
192,192,74071,1,4,0:0:0:0:
64,192,74071,1,4,0:0:0:0:
448,192,74071,1,8,0:0:0:0:
320,192,74145,1,0,0:0:0:0:
192,192,74219,1,0,0:0:0:0:
448,192,74294,1,0,0:0:0:0:
320,192,74369,1,0,0:0:0:0:
192,192,74369,1,0,0:0:0:0:
64,192,74443,1,0,0:0:0:0:
320,192,74517,1,0,0:0:0:0:
448,192,74517,1,0,0:0:0:0:
192,192,74517,1,8,0:0:0:0:
64,192,74591,1,0,0:0:0:0:
320,192,74666,1,0,0:0:0:0:
192,192,74740,1,0,0:0:0:0:
64,192,74740,1,0,0:0:0:0:
448,192,74740,1,0,0:0:0:0:
320,192,74815,1,0,0:0:0:0:
192,192,74889,1,0,0:0:0:0:
64,192,74964,1,12,0:0:0:0:
448,192,74964,1,12,0:0:0:0:
192,192,75038,1,0,0:0:0:0:
64,192,75112,1,0,0:0:0:0:
320,192,75112,1,0,0:0:0:0:
448,192,75112,1,0,0:0:0:0:
192,192,75186,1,0,0:0:0:0:
448,192,75261,1,4,0:0:0:0:
320,192,75261,1,8,0:0:0:0:
192,192,75336,1,0,0:0:0:0:
64,192,75410,1,0,0:0:0:0:
320,192,75410,1,0,0:0:0:0:
192,192,75484,1,8,0:0:0:0:
448,192,75484,1,0,0:0:0:0:
320,192,75559,1,0,0:0:0:0:
64,192,75633,1,0,0:0:0:0:
192,192,75633,1,8,0:0:0:0:
448,192,75708,1,0,0:0:0:0:
320,192,75708,1,0,0:0:0:0:
192,192,75782,1,0,0:0:0:0:
64,192,75856,1,12,0:0:0:0:
320,192,75856,1,12,0:0:0:0:
448,192,75856,1,12,0:0:0:0:
448,192,76005,1,0,0:0:0:0:
192,192,76154,1,0,0:0:0:0:
64,192,76204,1,0,0:0:0:0:
192,192,76253,1,0,0:0:0:0:
320,192,76303,1,0,0:0:0:0:
448,192,76352,1,0,0:0:0:0:
64,192,76352,1,0,0:0:0:0:
320,192,76402,1,0,0:0:0:0:
192,192,76451,1,0,0:0:0:0:
64,192,76451,1,0,0:0:0:0:
448,192,76451,128,4,77270:0:0:0:0:
320,192,76675,1,0,0:0:0:0:
192,192,76675,1,0,0:0:0:0:
64,192,76749,1,0,0:0:0:0:
320,192,76824,1,0,0:0:0:0:
192,192,76898,1,0,0:0:0:0:
64,192,76972,1,0,0:0:0:0:
192,192,77047,1,0,0:0:0:0:
320,192,77047,1,0,0:0:0:0:
64,192,77121,1,0,0:0:0:0:
192,192,77196,1,0,0:0:0:0:
320,192,77196,1,0,0:0:0:0:
64,192,77270,1,0,0:0:0:0:
192,192,77344,1,0,0:0:0:0:
320,192,77419,1,4,0:0:0:0:
448,192,77419,1,4,0:0:0:0:
64,192,77419,1,0,0:0:0:0:
192,192,77568,128,4,78461:0:0:0:0:
64,192,77568,1,4,0:0:0:0:
320,192,77791,1,0,0:0:0:0:
64,192,77865,1,0,0:0:0:0:
320,192,77940,1,0,0:0:0:0:
448,192,77940,1,0,0:0:0:0:
64,192,78014,1,0,0:0:0:0:
320,192,78089,1,0,0:0:0:0:
448,192,78163,1,0,0:0:0:0:
320,192,78237,1,0,0:0:0:0:
64,192,78237,1,0,0:0:0:0:
448,192,78311,1,0,0:0:0:0:
320,192,78386,1,0,0:0:0:0:
64,192,78386,1,0,0:0:0:0:
448,192,78461,1,0,0:0:0:0:
64,192,78535,1,0,0:0:0:0:
192,192,78609,1,4,0:0:0:0:
320,192,78609,1,4,0:0:0:0:
448,192,78609,1,0,0:0:0:0:
448,192,78758,1,4,0:0:0:0:
64,192,78758,128,4,79279:0:0:0:0:
320,192,78981,1,0,0:0:0:0:
192,192,79056,1,0,0:0:0:0:
320,192,79130,1,0,0:0:0:0:
448,192,79130,1,0,0:0:0:0:
192,192,79204,1,0,0:0:0:0:
320,192,79279,1,0,0:0:0:0:
448,192,79354,1,0,0:0:0:0:
192,192,79428,1,4,0:0:0:0:
320,192,79428,1,0,0:0:0:0:
64,192,79428,1,4,0:0:0:0:
448,192,79502,1,0,0:0:0:0:
192,192,79576,1,0,0:0:0:0:
64,192,79576,1,0,0:0:0:0:
320,192,79651,1,0,0:0:0:0:
448,192,79726,1,0,0:0:0:0:
192,192,79726,1,0,0:0:0:0:
320,192,79800,1,0,0:0:0:0:
448,192,79874,1,0,0:0:0:0:
320,192,79949,1,4,0:0:0:0:
192,192,79949,128,4,80469:0:0:0:0:
448,192,80097,1,8,0:0:0:0:
320,192,80172,1,8,0:0:0:0:
64,192,80172,1,8,0:0:0:0:
448,192,80246,1,8,0:0:0:0:
320,192,80321,1,8,0:0:0:0:
64,192,80321,1,8,0:0:0:0:
448,192,80395,1,8,0:0:0:0:
320,192,80469,1,8,0:0:0:0:
448,192,80544,1,8,0:0:0:0:
320,192,80619,1,8,0:0:0:0:
192,192,80619,1,12,0:0:0:0:
64,192,80619,1,8,0:0:0:0:
448,192,80693,1,8,0:0:0:0:
320,192,80767,1,8,0:0:0:0:
192,192,80841,1,8,0:0:0:0:
320,192,80916,1,12,0:0:0:0:
64,192,80916,1,8,0:0:0:0:
448,192,80916,1,8,0:0:0:0:
192,192,80990,1,8,0:0:0:0:
320,192,81065,1,8,0:0:0:0:
448,192,81065,1,8,0:0:0:0:
192,192,81139,1,8,0:0:0:0:
448,192,81214,1,4,0:0:0:0:
64,192,81214,1,0,0:0:0:0:
320,192,81214,128,4,82032:0:0:0:0:
192,192,81436,1,0,0:0:0:0:
448,192,81511,1,0,0:0:0:0:
64,192,81511,1,0,0:0:0:0:
192,192,81586,1,0,0:0:0:0:
64,192,81660,1,0,0:0:0:0:
448,192,81734,1,0,0:0:0:0:
64,192,81809,1,0,0:0:0:0:
192,192,81809,1,0,0:0:0:0:
448,192,81883,1,0,0:0:0:0:
192,192,81958,1,0,0:0:0:0:
64,192,81958,1,0,0:0:0:0:
448,192,82032,1,0,0:0:0:0:
192,192,82106,1,0,0:0:0:0:
320,192,82181,1,4,0:0:0:0:
448,192,82181,1,0,0:0:0:0:
64,192,82181,1,4,0:0:0:0:
192,192,82329,1,4,0:0:0:0:
448,192,82329,128,4,83222:0:0:0:0:
192,192,82553,1,0,0:0:0:0:
320,192,82627,1,0,0:0:0:0:
192,192,82701,1,0,0:0:0:0:
64,192,82701,1,0,0:0:0:0:
320,192,82776,1,0,0:0:0:0:
64,192,82851,1,0,0:0:0:0:
192,192,82925,1,0,0:0:0:0:
320,192,82999,1,0,0:0:0:0:
64,192,82999,128,2,83222:0:0:0:0:
192,192,83074,1,0,0:0:0:0:
320,192,83148,1,0,0:0:0:0:
192,192,83222,1,0,0:0:0:0:
320,192,83297,1,0,0:0:0:0:
64,192,83371,1,4,0:0:0:0:
192,192,83371,1,4,0:0:0:0:
448,192,83371,1,0,0:0:0:0:
192,192,83520,128,4,84190:0:0:0:0:
64,192,83520,1,4,0:0:0:0:
448,192,83744,1,0,0:0:0:0:
320,192,83818,1,0,0:0:0:0:
64,192,83892,1,0,0:0:0:0:
448,192,83892,1,0,0:0:0:0:
320,192,83966,1,0,0:0:0:0:
64,192,84041,1,0,0:0:0:0:
320,192,84190,1,4,0:0:0:0:
448,192,84190,128,4,84711:0:0:0:0:
64,192,84264,1,0,0:0:0:0:
192,192,84339,1,0,0:0:0:0:
320,192,84413,1,0,0:0:0:0:
192,192,84487,1,0,0:0:0:0:
320,192,84561,1,0,0:0:0:0:
192,192,84636,1,0,0:0:0:0:
320,192,84711,1,0,0:0:0:0:
64,192,84711,128,12,86124:0:0:0:0:
192,192,84859,1,0,0:0:0:0:
320,192,84934,1,0,0:0:0:0:
448,192,84934,128,0,85231:0:0:0:0:
192,192,85008,1,0,0:0:0:0:
320,192,85083,1,0,0:0:0:0:
192,192,85157,1,0,0:0:0:0:
320,192,85231,1,0,0:0:0:0:
192,192,85306,1,0,0:0:0:0:
320,192,85380,1,0,0:0:0:0:
448,192,85380,1,0,0:0:0:0:
192,192,85454,1,0,0:0:0:0:
448,192,85529,1,0,0:0:0:0:
192,192,85604,1,0,0:0:0:0:
448,192,85678,1,0,0:0:0:0:
320,192,85678,1,0,0:0:0:0:
192,192,85752,1,0,0:0:0:0:
320,192,85826,1,0,0:0:0:0:
192,192,85901,1,0,0:0:0:0:
448,192,85976,1,0,0:0:0:0:
320,192,86013,1,0,0:0:0:0:
192,192,86050,1,0,0:0:0:0:
