osu file format v14

[General]
AudioFilename: TAG - Alstroemeria 1.3.mp3
AudioLeadIn: 0
PreviewTime: -1
Countdown: 0
SampleSet: None
StackLeniency: 0.7
Mode: 3
LetterboxInBreaks: 0
SpecialStyle: 0
WidescreenStoryboard: 0

[Editor]
DistanceSpacing: 0.5
BeatDivisor: 4
GridSize: 32
TimelineZoom: 1

[Metadata]
Title:Alstroemeria
TitleUnicode:アルストロメリア
Artist:TAG
ArtistUnicode:TAG
Creator:IControl
Version:Another 1.3x
Source:jubeat copius
Tags:
BeatmapID:2852517
BeatmapSetID:956118

[Difficulty]
HPDrainRate:9
CircleSize:4
OverallDifficulty:9
ApproachRate:5
SliderMultiplier:1.4
SliderTickRate:1

[Events]
//Background and Video events
0,0,"alstroemeria-bouquet-closeup.jpg",0,0
//Break Periods
//Storyboard Layer 0 (Background)
//Storyboard Layer 1 (Fail)
//Storyboard Layer 2 (Pass)
//Storyboard Layer 3 (Foreground)
//Storyboard Layer 4 (Overlay)
//Storyboard Sound Samples

[TimingPoints]
282,320.512820512821,4,2,1,25,1,0

[HitObjects]
448,192,282,5,4,0:0:0:0:
64,192,282,1,0,0:0:0:0:
320,192,282,1,4,0:0:0:0:
320,192,522,1,0,0:0:0:0:
64,192,522,1,0,0:0:0:0:
192,192,602,1,0,0:0:0:0:
64,192,682,1,0,0:0:0:0:
192,192,762,1,0,0:0:0:0:
320,192,842,1,0,0:0:0:0:
448,192,922,1,0,0:0:0:0:
192,192,922,1,0,0:0:0:0:
320,192,1002,1,0,0:0:0:0:
192,192,1082,1,0,0:0:0:0:
64,192,1082,1,0,0:0:0:0:
320,192,1162,1,0,0:0:0:0:
448,192,1243,1,0,0:0:0:0:
320,192,1323,1,4,0:0:0:0:
192,192,1323,1,4,0:0:0:0:
64,192,1323,1,0,0:0:0:0:
448,192,1483,1,4,0:0:0:0:
320,192,1483,1,4,0:0:0:0:
320,192,1724,1,0,0:0:0:0:
448,192,1804,1,0,0:0:0:0:
64,192,1884,1,0,0:0:0:0:
192,192,1884,1,0,0:0:0:0:
320,192,1964,1,0,0:0:0:0:
192,192,2044,1,0,0:0:0:0:
64,192,2124,1,0,0:0:0:0:
192,192,2205,1,0,0:0:0:0:
320,192,2205,1,0,0:0:0:0:
448,192,2285,1,0,0:0:0:0:
320,192,2365,1,0,0:0:0:0:
192,192,2445,1,0,0:0:0:0:
448,192,2525,1,0,0:0:0:0:
320,192,2605,1,4,0:0:0:0:
64,192,2605,1,0,0:0:0:0:
192,192,2605,1,4,0:0:0:0:
448,192,2765,1,4,0:0:0:0:
320,192,2765,1,4,0:0:0:0:
64,192,3005,1,0,0:0:0:0:
448,192,3005,1,0,0:0:0:0:
192,192,3085,1,0,0:0:0:0:
320,192,3166,1,0,0:0:0:0:
448,192,3246,1,0,0:0:0:0:
320,192,3326,1,0,0:0:0:0:
192,192,3406,1,0,0:0:0:0:
64,192,3486,1,0,0:0:0:0:
320,192,3486,1,4,0:0:0:0:
448,192,3486,1,4,0:0:0:0:
192,192,3566,1,0,0:0:0:0:
64,192,3647,1,0,0:0:0:0:
320,192,3727,1,0,0:0:0:0:
448,192,3807,1,0,0:0:0:0:
192,192,3887,1,0,0:0:0:0:
64,192,3967,1,0,0:0:0:0:
192,192,4047,1,4,0:0:0:0:
320,192,4047,1,4,0:0:0:0:
448,192,4047,1,0,0:0:0:0:
320,192,4208,1,8,0:0:0:0:
192,192,4288,1,12,0:0:0:0:
64,192,4288,1,0,0:0:0:0:
448,192,4368,1,8,0:0:0:0:
64,192,4448,1,8,0:0:0:0:
192,192,4528,1,4,0:0:0:0:
448,192,4528,1,8,0:0:0:0:
320,192,4608,1,8,0:0:0:0:
64,192,4608,1,0,0:0:0:0:
448,192,4688,1,8,0:0:0:0:
320,192,4768,1,0,0:0:0:0:
192,192,4768,1,4,0:0:0:0:
64,192,4768,1,4,0:0:0:0:
448,192,4848,1,8,0:0:0:0:
192,192,4928,1,0,0:0:0:0:
64,192,5008,1,8,0:0:0:0:
320,192,5089,1,4,0:0:0:0:
448,192,5089,1,4,0:0:0:0:
192,192,5089,1,0,0:0:0:0:
64,192,5169,1,8,0:0:0:0:
448,192,5249,1,8,0:0:0:0:
320,192,5329,1,8,0:0:0:0:
64,192,5409,1,4,0:0:0:0:
192,192,5409,1,4,0:0:0:0:
448,192,5409,1,0,0:0:0:0:
320,192,5650,1,0,0:0:0:0:
192,192,5650,1,0,0:0:0:0:
448,192,5730,1,0,0:0:0:0:
320,192,5810,1,0,0:0:0:0:
192,192,5890,1,0,0:0:0:0:
320,192,5970,1,0,0:0:0:0:
64,192,6051,1,0,0:0:0:0:
448,192,6051,1,0,0:0:0:0:
192,192,6131,1,0,0:0:0:0:
320,192,6211,1,0,0:0:0:0:
64,192,6211,1,0,0:0:0:0:
448,192,6291,1,0,0:0:0:0:
320,192,6371,1,0,0:0:0:0:
64,192,6451,1,4,0:0:0:0:
192,192,6451,1,4,0:0:0:0:
448,192,6451,1,0,0:0:0:0:
320,192,6612,1,4,0:0:0:0:
192,192,6612,1,4,0:0:0:0:
320,192,6852,1,0,0:0:0:0:
448,192,6932,1,0,0:0:0:0:
320,192,7012,1,0,0:0:0:0:
192,192,7012,1,0,0:0:0:0:
448,192,7092,1,0,0:0:0:0:
64,192,7172,1,0,0:0:0:0:
192,192,7252,1,0,0:0:0:0:
448,192,7332,1,2,0:0:0:0:
320,192,7332,1,2,0:0:0:0:
64,192,7332,1,0,0:0:0:0:
192,192,7412,1,0,0:0:0:0:
320,192,7493,1,0,0:0:0:0:
448,192,7493,1,0,0:0:0:0:
192,192,7573,1,0,0:0:0:0:
320,192,7653,1,0,0:0:0:0:
448,192,7733,1,0,0:0:0:0:
192,192,7733,1,4,0:0:0:0:
64,192,7733,1,4,0:0:0:0:
448,192,7893,1,4,0:0:0:0:
320,192,7893,1,4,0:0:0:0:
64,192,8134,1,0,0:0:0:0:
320,192,8134,1,0,0:0:0:0:
448,192,8214,1,0,0:0:0:0:
320,192,8294,1,0,0:0:0:0:
192,192,8294,1,0,0:0:0:0:
448,192,8374,1,0,0:0:0:0:
192,192,8455,1,0,0:0:0:0:
64,192,8535,1,0,0:0:0:0:
448,192,8615,1,4,0:0:0:0:
320,192,8615,1,0,0:0:0:0:
192,192,8615,1,0,0:0:0:0:
64,192,8695,1,0,0:0:0:0:
192,192,8775,1,0,0:0:0:0:
320,192,8775,1,0,0:0:0:0:
64,192,8855,1,0,0:0:0:0:
320,192,8935,1,0,0:0:0:0:
448,192,8935,1,0,0:0:0:0:
192,192,9015,1,0,0:0:0:0:
448,192,9095,1,8,0:0:0:0:
192,192,9175,1,12,0:0:0:0:
64,192,9175,1,12,0:0:0:0:
320,192,9175,1,8,0:0:0:0:
448,192,9335,1,8,0:0:0:0:
64,192,9416,1,8,0:0:0:0:
192,192,9416,1,8,0:0:0:0:
320,192,9416,1,8,0:0:0:0:
448,192,9496,1,8,0:0:0:0:
320,192,9576,1,8,0:0:0:0:
64,192,9576,1,8,0:0:0:0:
192,192,9576,1,8,0:0:0:0:
448,192,9656,1,8,0:0:0:0:
64,192,9736,1,8,0:0:0:0:
192,192,9816,1,8,0:0:0:0:
320,192,9897,1,8,0:0:0:0:
64,192,9897,1,4,0:0:0:0:
448,192,9977,1,8,0:0:0:0:
320,192,10057,1,8,0:0:0:0:
448,192,10137,1,8,0:0:0:0:
192,192,10217,1,4,0:0:0:0:
64,192,10217,1,8,0:0:0:0:
320,192,10297,1,8,0:0:0:0:
192,192,10378,1,8,0:0:0:0:
64,192,10458,1,8,0:0:0:0:
192,192,10538,1,0,0:0:0:0:
320,192,10538,1,4,0:0:0:0:
448,192,10538,1,2,0:0:0:0:
64,192,10698,1,0,0:0:0:0:
448,192,10778,1,0,0:0:0:0:
320,192,10778,1,0,0:0:0:0:
192,192,10778,1,0,0:0:0:0:
192,192,10938,1,0,0:0:0:0:
64,192,11018,1,0,0:0:0:0:
448,192,11018,1,0,0:0:0:0:
320,192,11018,1,0,0:0:0:0:
448,192,11178,1,0,0:0:0:0:
64,192,11339,1,0,0:0:0:0:
448,192,11499,1,0,0:0:0:0:
64,192,11579,1,0,0:0:0:0:
192,192,11579,1,4,0:0:0:0:
320,192,11579,1,4,0:0:0:0:
448,192,11739,1,4,0:0:0:0:
320,192,11739,1,4,0:0:0:0:
192,192,11980,1,0,0:0:0:0:
64,192,11980,1,0,0:0:0:0:
448,192,11980,1,0,0:0:0:0:
320,192,12140,1,0,0:0:0:0:
64,192,12220,1,0,0:0:0:0:
192,192,12220,1,0,0:0:0:0:
448,192,12220,1,0,0:0:0:0:
320,192,12381,1,0,0:0:0:0:
192,192,12461,1,0,0:0:0:0:
64,192,12461,1,0,0:0:0:0:
448,192,12461,1,0,0:0:0:0:
64,192,12621,1,0,0:0:0:0:
448,192,12701,1,0,0:0:0:0:
320,192,12701,1,0,0:0:0:0:
64,192,12862,1,0,0:0:0:0:
320,192,12862,1,4,0:0:0:0:
448,192,12862,1,4,0:0:0:0:
192,192,12942,1,0,0:0:0:0:
448,192,13022,1,4,0:0:0:0:
320,192,13022,1,4,0:0:0:0:
64,192,13102,1,4,0:0:0:0:
192,192,13102,1,4,0:0:0:0:
320,192,13102,1,0,0:0:0:0:
64,192,13342,1,0,0:0:0:0:
192,192,13342,1,0,0:0:0:0:
320,192,13342,1,0,0:0:0:0:
64,192,13582,1,0,0:0:0:0:
192,192,13582,1,0,0:0:0:0:
448,192,13582,1,0,0:0:0:0:
448,192,13743,1,4,0:0:0:0:
320,192,13743,1,4,0:0:0:0:
64,192,13743,1,0,0:0:0:0:
64,192,13903,1,0,0:0:0:0:
448,192,14063,1,0,0:0:0:0:
320,192,14143,1,0,0:0:0:0:
64,192,14143,1,0,0:0:0:0:
320,192,14304,1,4,0:0:0:0:
192,192,14304,1,2,0:0:0:0:
448,192,14304,1,4,0:0:0:0:
64,192,14544,1,4,0:0:0:0:
192,192,14544,1,4,0:0:0:0:
448,192,14544,1,8,0:0:0:0:
320,192,14705,1,8,0:0:0:0:
192,192,14785,1,4,0:0:0:0:
448,192,14785,1,8,0:0:0:0:
64,192,14785,1,4,0:0:0:0:
320,192,14945,1,8,0:0:0:0:
192,192,15025,1,4,0:0:0:0:
64,192,15025,1,4,0:0:0:0:
448,192,15105,1,8,0:0:0:0:
320,192,15105,1,8,0:0:0:0:
192,192,15185,1,8,0:0:0:0:
64,192,15265,1,8,0:0:0:0:
320,192,15265,1,4,0:0:0:0:
448,192,15265,1,4,0:0:0:0:
192,192,15345,128,2,15505:0:0:0:0:
64,192,15505,1,8,0:0:0:0:
320,192,15585,1,8,0:0:0:0:
64,192,15666,1,4,0:0:0:0:
448,192,15666,1,0,0:0:0:0:
192,192,15666,1,4,0:0:0:0:
320,192,15826,1,0,0:0:0:0:
448,192,15906,1,0,0:0:0:0:
64,192,15906,1,0,0:0:0:0:
192,192,15906,1,0,0:0:0:0:
64,192,16066,1,0,0:0:0:0:
448,192,16147,1,0,0:0:0:0:
320,192,16147,1,0,0:0:0:0:
192,192,16147,1,0,0:0:0:0:
64,192,16467,1,0,0:0:0:0:
192,192,16628,1,0,0:0:0:0:
320,192,16628,1,0,0:0:0:0:
192,192,16708,1,4,0:0:0:0:
320,192,16788,1,4,0:0:0:0:
448,192,16948,1,0,0:0:0:0:
448,192,17108,1,0,0:0:0:0:
320,192,17188,1,0,0:0:0:0:
448,192,17348,1,0,0:0:0:0:
64,192,17348,1,0,0:0:0:0:
192,192,17508,1,0,0:0:0:0:
320,192,17508,1,0,0:0:0:0:
448,192,17508,1,0,0:0:0:0:
64,192,18070,1,0,0:0:0:0:
192,192,18150,1,0,0:0:0:0:
64,192,18230,1,4,0:0:0:0:
448,192,18470,1,0,0:0:0:0:
320,192,18470,1,0,0:0:0:0:
192,192,18711,1,0,0:0:0:0:
192,192,18871,1,4,0:0:0:0:
448,192,18871,1,0,0:0:0:0:
64,192,18871,1,4,0:0:0:0:
320,192,19112,1,0,0:0:0:0:
192,192,19432,1,4,0:0:0:0:
64,192,19432,1,0,0:0:0:0:
448,192,19432,1,4,0:0:0:0:
320,192,19672,1,12,0:0:0:0:
448,192,19672,1,12,0:0:0:0:
64,192,19672,1,8,0:0:0:0:
192,192,19832,1,8,0:0:0:0:
64,192,19912,1,8,0:0:0:0:
320,192,19912,1,12,0:0:0:0:
448,192,19912,1,12,0:0:0:0:
320,192,20073,1,8,0:0:0:0:
64,192,20153,1,12,0:0:0:0:
192,192,20233,1,8,0:0:0:0:
448,192,20313,1,8,0:0:0:0:
320,192,20393,1,8,0:0:0:0:
192,192,20474,1,8,0:0:0:0:
448,192,20634,1,8,0:0:0:0:
192,192,20714,1,8,0:0:0:0:
448,192,20794,1,4,0:0:0:0:
64,192,20794,1,0,0:0:0:0:
320,192,20794,1,4,0:0:0:0:
64,192,21035,1,0,0:0:0:0:
192,192,21035,1,0,0:0:0:0:
192,192,21275,1,0,0:0:0:0:
320,192,21275,1,0,0:0:0:0:
64,192,21835,1,4,0:0:0:0:
192,192,21916,1,0,0:0:0:0:
448,192,21996,1,4,0:0:0:0:
64,192,21996,1,0,0:0:0:0:
320,192,21996,1,4,0:0:0:0:
320,192,22557,1,0,0:0:0:0:
64,192,22717,1,0,0:0:0:0:
320,192,22717,1,0,0:0:0:0:
192,192,22878,1,0,0:0:0:0:
448,192,22878,1,0,0:0:0:0:
448,192,23038,1,4,0:0:0:0:
320,192,23038,1,4,0:0:0:0:
64,192,23038,1,0,0:0:0:0:
448,192,23198,1,0,0:0:0:0:
192,192,23198,1,0,0:0:0:0:
320,192,23358,1,4,0:0:0:0:
192,192,23358,1,4,0:0:0:0:
64,192,23358,1,0,0:0:0:0:
192,192,23598,1,0,0:0:0:0:
320,192,23598,1,0,0:0:0:0:
64,192,23839,1,0,0:0:0:0:
192,192,23839,1,0,0:0:0:0:
448,192,23839,1,0,0:0:0:0:
320,192,23999,1,4,0:0:0:0:
448,192,23999,1,0,0:0:0:0:
192,192,23999,1,4,0:0:0:0:
192,192,24480,1,0,0:0:0:0:
320,192,24560,1,0,0:0:0:0:
192,192,24640,1,4,0:0:0:0:
64,192,24640,1,4,0:0:0:0:
448,192,24801,1,0,0:0:0:0:
320,192,24801,1,4,0:0:0:0:
192,192,24801,1,4,0:0:0:0:
64,192,24961,1,0,0:0:0:0:
192,192,25041,1,4,0:0:0:0:
448,192,25041,1,0,0:0:0:0:
320,192,25041,1,4,0:0:0:0:
320,192,25201,1,0,0:0:0:0:
192,192,25282,1,0,0:0:0:0:
64,192,25362,1,0,0:0:0:0:
320,192,25442,128,2,25602:0:0:0:0:
192,192,25442,1,0,0:0:0:0:
64,192,25522,1,0,0:0:0:0:
448,192,25602,128,2,25762:0:0:0:0:
192,192,25602,1,0,0:0:0:0:
192,192,25762,128,2,25922:0:0:0:0:
320,192,25762,1,0,0:0:0:0:
448,192,25922,1,2,0:0:0:0:
64,192,25922,1,2,0:0:0:0:
320,192,25922,1,4,0:0:0:0:
320,192,26162,1,0,0:0:0:0:
448,192,26243,1,0,0:0:0:0:
192,192,26243,1,0,0:0:0:0:
64,192,26243,1,0,0:0:0:0:
64,192,26403,1,0,0:0:0:0:
320,192,26403,1,2,2:2:0:0:
320,192,26483,1,2,2:2:0:0:
64,192,26563,1,0,0:0:0:0:
192,192,26563,1,0,0:0:0:0:
320,192,26724,1,0,0:0:0:0:
192,192,26724,1,0,0:0:0:0:
448,192,26884,1,0,0:0:0:0:
320,192,26884,1,0,0:0:0:0:
64,192,26884,1,0,0:0:0:0:
192,192,27044,1,0,0:0:0:0:
320,192,27044,1,2,0:0:0:0:
64,192,27044,128,2,27365:0:0:0:0:
448,192,27365,1,2,0:0:0:0:
448,192,27445,1,2,0:0:0:0:
192,192,27445,1,2,0:0:0:0:
320,192,27685,1,2,0:0:0:0:
320,192,27765,1,2,0:0:0:0:
64,192,27765,1,2,0:0:0:0:
320,192,28005,1,2,0:0:0:0:
64,192,28005,1,2,0:0:0:0:
320,192,28166,1,2,0:0:0:0:
448,192,28246,1,2,0:0:0:0:
192,192,28246,1,2,0:0:0:0:
448,192,28406,1,4,0:0:0:0:
64,192,28406,1,0,0:0:0:0:
192,192,28406,1,6,0:0:0:0:
320,192,28647,1,2,0:0:0:0:
448,192,28647,128,2,28967:0:0:0:0:
192,192,28807,1,2,0:0:0:0:
64,192,28807,128,2,28967:0:0:0:0:
320,192,28967,1,2,0:0:0:0:
320,192,29047,1,2,0:0:0:0:
448,192,29128,1,2,0:0:0:0:
192,192,29128,128,2,29448:0:0:0:0:
64,192,29288,1,2,0:0:0:0:
448,192,29448,1,2,0:0:0:0:
320,192,29448,1,2,0:0:0:0:
192,192,29608,1,2,0:0:0:0:
192,192,29768,1,2,0:0:0:0:
64,192,29768,1,2,0:0:0:0:
448,192,29928,1,2,0:0:0:0:
192,192,30008,1,2,0:0:0:0:
64,192,30008,1,2,0:0:0:0:
448,192,30008,1,2,0:0:0:0:
320,192,30169,1,2,0:0:0:0:
64,192,30249,1,2,0:0:0:0:
320,192,30249,1,2,0:0:0:0:
448,192,30329,1,2,0:0:0:0:
192,192,30409,1,4,0:0:0:0:
64,192,30409,128,2,31051:0:0:0:0:
448,192,30570,1,2,0:0:0:0:
320,192,30570,1,4,0:0:0:0:
192,192,30730,1,10,0:0:0:0:
448,192,30730,128,2,31051:0:0:0:0:
320,192,30890,1,0,0:0:0:0:
192,192,31051,1,4,0:0:0:0:
192,192,31532,1,0,0:0:0:0:
64,192,31532,128,0,32172:0:0:0:0:
192,192,31692,1,0,0:0:0:0:
192,192,31852,1,0,0:0:0:0:
320,192,32012,1,0,0:0:0:0:
448,192,32172,1,0,0:0:0:0:
64,192,32493,1,2,0:0:0:0:
320,192,32573,1,2,0:0:0:0:
64,192,32573,1,2,0:0:0:0:
192,192,32813,1,2,0:0:0:0:
448,192,32893,1,2,0:0:0:0:
192,192,32893,1,2,0:0:0:0:
448,192,33134,1,2,0:0:0:0:
192,192,33134,1,2,0:0:0:0:
192,192,33294,1,2,0:0:0:0:
64,192,33374,1,2,0:0:0:0:
320,192,33374,1,2,0:0:0:0:
64,192,33535,1,2,0:0:0:0:
320,192,33535,1,6,0:0:0:0:
448,192,33535,1,2,0:0:0:0:
448,192,33775,128,2,34095:0:0:0:0:
320,192,33775,1,2,0:0:0:0:
192,192,33935,1,2,0:0:0:0:
64,192,33935,128,2,34095:0:0:0:0:
320,192,34095,1,2,0:0:0:0:
192,192,34175,1,2,0:0:0:0:
192,192,34255,1,2,0:0:0:0:
320,192,34255,128,6,34736:0:0:0:0:
64,192,34416,1,2,0:0:0:0:
192,192,34576,1,2,0:0:0:0:
448,192,34576,128,2,34736:0:0:0:0:
64,192,34736,1,2,0:0:0:0:
64,192,34897,1,0,0:0:0:0:
192,192,34897,1,0,0:0:0:0:
448,192,34897,1,0,0:0:0:0:
64,192,35137,1,0,0:0:0:0:
192,192,35137,1,0,0:0:0:0:
448,192,35137,1,0,0:0:0:0:
64,192,35378,1,0,0:0:0:0:
192,192,35458,1,0,0:0:0:0:
320,192,35538,1,2,0:0:0:0:
320,192,35618,1,2,0:0:0:0:
64,192,35698,1,0,0:0:0:0:
448,192,35858,1,0,0:0:0:0:
320,192,35858,1,4,0:0:0:0:
192,192,35858,1,4,0:0:0:0:
64,192,36018,1,0,0:0:0:0:
192,192,36098,1,0,0:0:0:0:
448,192,36178,1,0,0:0:0:0:
64,192,36178,128,4,36419:0:0:0:0:
448,192,36419,1,0,0:0:0:0:
448,192,36659,1,0,0:0:0:0:
64,192,36659,1,0,0:0:0:0:
320,192,36739,1,0,0:0:0:0:
192,192,36739,1,0,0:0:0:0:
448,192,36820,1,0,0:0:0:0:
448,192,36900,1,0,0:0:0:0:
64,192,36900,1,0,0:0:0:0:
192,192,36980,1,0,0:0:0:0:
448,192,37140,1,0,0:0:0:0:
192,192,37140,1,0,0:0:0:0:
320,192,37220,1,0,0:0:0:0:
192,192,37301,1,0,0:0:0:0:
64,192,37381,1,4,0:0:0:0:
448,192,37381,1,12,0:0:0:0:
448,192,37541,1,8,0:0:0:0:
320,192,37541,1,8,0:0:0:0:
192,192,37621,1,8,0:0:0:0:
64,192,37701,1,8,0:0:0:0:
448,192,37782,1,8,0:0:0:0:
192,192,37782,1,8,0:0:0:0:
320,192,37862,1,8,0:0:0:0:
192,192,37942,1,8,0:0:0:0:
64,192,38022,1,8,0:0:0:0:
320,192,38022,1,8,0:0:0:0:
448,192,38022,128,10,38422:0:0:0:0:
192,192,38102,1,8,0:0:0:0:
320,192,38182,1,8,0:0:0:0:
192,192,38262,1,8,0:0:0:0:
64,192,38342,1,8,0:0:0:0:
320,192,38422,1,8,0:0:0:0:
192,192,38422,128,12,38743:0:0:0:0:
320,192,38582,1,8,0:0:0:0:
64,192,38662,1,8,0:0:0:0:
448,192,38743,1,4,0:0:0:0:
320,192,38823,1,0,0:0:0:0:
448,192,38903,1,0,0:0:0:0:
192,192,38983,1,0,0:0:0:0:
320,192,39063,1,4,0:0:0:0:
448,192,39063,1,0,0:0:0:0:
64,192,39143,1,0,0:0:0:0:
320,192,39224,1,0,0:0:0:0:
192,192,39224,1,0,0:0:0:0:
448,192,39304,1,0,0:0:0:0:
64,192,39384,1,0,0:0:0:0:
320,192,39384,1,8,0:0:0:0:
192,192,39464,1,0,0:0:0:0:
448,192,39464,1,0,0:0:0:0:
320,192,39544,1,0,0:0:0:0:
64,192,39544,1,0,0:0:0:0:
192,192,39624,1,0,0:0:0:0:
64,192,39705,1,0,0:0:0:0:
320,192,39705,1,8,0:0:0:0:
448,192,39705,1,0,0:0:0:0:
192,192,39785,1,0,0:0:0:0:
320,192,39865,1,0,0:0:0:0:
64,192,39865,1,0,0:0:0:0:
448,192,39945,1,0,0:0:0:0:
320,192,40025,1,2,0:0:0:0:
192,192,40025,1,0,0:0:0:0:
64,192,40025,1,0,0:0:0:0:
448,192,40105,1,0,0:0:0:0:
320,192,40185,1,0,0:0:0:0:
192,192,40185,1,0,0:0:0:0:
64,192,40265,1,0,0:0:0:0:
448,192,40265,1,0,0:0:0:0:
192,192,40345,1,0,0:0:0:0:
320,192,40345,1,4,0:0:0:0:
64,192,40425,1,0,0:0:0:0:
192,192,40505,1,0,0:0:0:0:
448,192,40505,1,0,0:0:0:0:
64,192,40585,1,0,0:0:0:0:
192,192,40666,1,8,0:0:0:0:
320,192,40746,1,0,0:0:0:0:
448,192,40746,1,0,0:0:0:0:
192,192,40826,1,0,0:0:0:0:
64,192,40826,1,0,0:0:0:0:
320,192,40906,1,0,0:0:0:0:
64,192,40986,1,0,0:0:0:0:
448,192,40986,1,0,0:0:0:0:
192,192,40986,1,8,0:0:0:0:
320,192,41066,1,0,0:0:0:0:
192,192,41147,1,0,0:0:0:0:
448,192,41147,1,0,0:0:0:0:
64,192,41227,1,0,0:0:0:0:
320,192,41307,1,8,0:0:0:0:
192,192,41307,1,0,0:0:0:0:
448,192,41307,1,0,0:0:0:0:
64,192,41387,1,0,0:0:0:0:
320,192,41467,1,0,0:0:0:0:
192,192,41547,1,0,0:0:0:0:
448,192,41628,1,0,0:0:0:0:
320,192,41628,1,4,0:0:0:0:
192,192,41708,1,0,0:0:0:0:
448,192,41788,1,0,0:0:0:0:
64,192,41788,1,0,0:0:0:0:
192,192,41868,1,0,0:0:0:0:
448,192,41948,1,0,0:0:0:0:
320,192,41948,1,8,0:0:0:0:
64,192,42028,1,0,0:0:0:0:
192,192,42028,1,0,0:0:0:0:
448,192,42108,1,0,0:0:0:0:
320,192,42108,1,0,0:0:0:0:
192,192,42188,1,0,0:0:0:0:
448,192,42268,1,0,0:0:0:0:
64,192,42268,1,0,0:0:0:0:
320,192,42268,1,8,0:0:0:0:
192,192,42348,1,0,0:0:0:0:
320,192,42428,1,0,0:0:0:0:
64,192,42508,1,0,0:0:0:0:
320,192,42589,1,0,0:0:0:0:
192,192,42589,1,0,0:0:0:0:
448,192,42589,128,0,43070:0:0:0:0:
192,192,42829,1,0,0:0:0:0:
64,192,43070,128,0,43871:0:0:0:0:
320,192,43070,1,0,0:0:0:0:
192,192,43230,1,8,0:0:0:0:
320,192,43310,1,0,0:0:0:0:
448,192,43310,1,0,0:0:0:0:
192,192,43390,1,0,0:0:0:0:
320,192,43470,1,0,0:0:0:0:
192,192,43551,1,10,0:0:0:0:
448,192,43551,1,8,0:0:0:0:
320,192,43711,1,8,0:0:0:0:
448,192,43711,1,8,0:0:0:0:
192,192,43791,1,8,0:0:0:0:
448,192,43871,1,2,0:0:0:0:
320,192,43871,1,2,0:0:0:0:
192,192,43951,1,0,0:0:0:0:
64,192,44032,1,0,0:0:0:0:
448,192,44032,1,0,0:0:0:0:
320,192,44112,1,0,0:0:0:0:
192,192,44112,1,0,0:0:0:0:
64,192,44192,1,4,0:0:0:0:
448,192,44272,1,0,0:0:0:0:
320,192,44352,1,0,0:0:0:0:
192,192,44352,1,0,0:0:0:0:
64,192,44432,1,0,0:0:0:0:
448,192,44512,1,0,0:0:0:0:
320,192,44512,1,8,0:0:0:0:
64,192,44592,1,0,0:0:0:0:
192,192,44592,1,0,0:0:0:0:
320,192,44672,1,0,0:0:0:0:
192,192,44752,1,0,0:0:0:0:
448,192,44832,1,4,0:0:0:0:
64,192,44832,1,0,0:0:0:0:
320,192,44832,1,8,0:0:0:0:
192,192,44912,1,0,0:0:0:0:
448,192,44993,1,0,0:0:0:0:
64,192,44993,1,0,0:0:0:0:
320,192,45073,1,0,0:0:0:0:
448,192,45153,1,0,0:0:0:0:
192,192,45153,1,8,0:0:0:0:
64,192,45153,1,0,0:0:0:0:
320,192,45233,1,0,0:0:0:0:
448,192,45313,1,0,0:0:0:0:
320,192,45393,1,0,0:0:0:0:
64,192,45393,1,0,0:0:0:0:
192,192,45474,1,0,0:0:0:0:
448,192,45474,1,8,0:0:0:0:
64,192,45554,1,0,0:0:0:0:
192,192,45634,1,0,0:0:0:0:
320,192,45634,1,0,0:0:0:0:
448,192,45714,1,0,0:0:0:0:
192,192,45794,1,8,0:0:0:0:
320,192,45794,1,0,0:0:0:0:
64,192,45874,1,0,0:0:0:0:
448,192,45874,1,0,0:0:0:0:
192,192,45955,1,0,0:0:0:0:
320,192,46035,1,0,0:0:0:0:
448,192,46115,1,4,0:0:0:0:
64,192,46115,1,0,0:0:0:0:
192,192,46115,1,4,0:0:0:0:
320,192,46195,1,0,0:0:0:0:
448,192,46275,1,0,0:0:0:0:
192,192,46275,1,0,0:0:0:0:
320,192,46355,1,0,0:0:0:0:
192,192,46435,1,2,0:0:0:0:
64,192,46435,1,0,0:0:0:0:
448,192,46435,1,0,0:0:0:0:
320,192,46515,1,0,0:0:0:0:
192,192,46595,1,0,0:0:0:0:
320,192,46675,1,0,0:0:0:0:
448,192,46675,1,0,0:0:0:0:
64,192,46755,1,0,0:0:0:0:
192,192,46755,1,4,0:0:0:0:
448,192,46835,1,0,0:0:0:0:
192,192,46916,1,0,0:0:0:0:
320,192,46916,1,0,0:0:0:0:
64,192,46996,1,0,0:0:0:0:
320,192,47076,1,8,0:0:0:0:
448,192,47076,1,0,0:0:0:0:
192,192,47156,1,0,0:0:0:0:
64,192,47156,1,0,0:0:0:0:
320,192,47236,1,0,0:0:0:0:
448,192,47236,1,0,0:0:0:0:
192,192,47316,1,0,0:0:0:0:
64,192,47397,1,0,0:0:0:0:
320,192,47397,1,12,0:0:0:0:
448,192,47397,1,4,0:0:0:0:
192,192,47477,1,0,0:0:0:0:
448,192,47557,1,0,0:0:0:0:
320,192,47637,1,0,0:0:0:0:
192,192,47717,1,0,0:0:0:0:
64,192,47717,1,4,0:0:0:0:
448,192,47717,1,4,0:0:0:0:
320,192,47797,1,0,0:0:0:0:
64,192,47878,1,0,0:0:0:0:
448,192,47958,1,4,0:0:0:0:
320,192,47958,1,4,0:0:0:0:
192,192,47958,1,0,0:0:0:0:
64,192,48038,1,0,0:0:0:0:
448,192,48118,1,0,0:0:0:0:
192,192,48198,1,4,0:0:0:0:
64,192,48198,1,0,0:0:0:0:
320,192,48198,1,0,0:0:0:0:
448,192,48278,1,0,0:0:0:0:
192,192,48358,1,0,0:0:0:0:
64,192,48358,1,0,0:0:0:0:
448,192,48438,1,4,0:0:0:0:
320,192,48438,1,4,0:0:0:0:
192,192,48518,1,0,0:0:0:0:
448,192,48598,1,0,0:0:0:0:
64,192,48678,1,4,0:0:0:0:
192,192,48678,1,4,0:0:0:0:
320,192,48678,1,0,0:0:0:0:
320,192,48839,1,2,0:0:0:0:
192,192,48839,1,0,0:0:0:0:
448,192,48839,1,0,0:0:0:0:
64,192,48919,1,0,0:0:0:0:
320,192,48999,1,0,0:0:0:0:
448,192,48999,1,0,0:0:0:0:
192,192,48999,128,4,49159:0:0:0:0:
64,192,49239,1,0,0:0:0:0:
448,192,49239,128,0,49400:0:0:0:0:
320,192,49480,1,0,0:0:0:0:
192,192,49480,1,0,0:0:0:0:
64,192,49640,1,0,0:0:0:0:
320,192,49640,1,0,0:0:0:0:
192,192,49640,1,0,0:0:0:0:
64,192,49801,128,0,49881:0:0:0:0:
448,192,49881,1,0,0:0:0:0:
320,192,49881,128,0,50041:0:0:0:0:
448,192,50121,128,0,50282:0:0:0:0:
192,192,50121,1,0,0:0:0:0:
64,192,50121,1,0,0:0:0:0:
320,192,50201,1,0,0:0:0:0:
64,192,50282,1,4,0:0:0:0:
192,192,50282,128,0,50522:0:0:0:0:
448,192,50522,1,0,0:0:0:0:
320,192,50522,128,0,50762:0:0:0:0:
64,192,50682,1,0,0:0:0:0:
448,192,50762,128,0,50922:0:0:0:0:
192,192,50762,1,0,0:0:0:0:
192,192,50922,1,0,0:0:0:0:
64,192,50922,128,0,51162:0:0:0:0:
320,192,51162,1,0,0:0:0:0:
448,192,51162,1,0,0:0:0:0:
192,192,51162,1,0,0:0:0:0:
448,192,51403,1,0,0:0:0:0:
320,192,51403,1,0,0:0:0:0:
64,192,51483,1,0,0:0:0:0:
320,192,51563,1,0,0:0:0:0:
192,192,51563,1,0,0:0:0:0:
448,192,51563,128,0,51724:0:0:0:0:
192,192,51804,128,0,51964:0:0:0:0:
64,192,51804,1,0,0:0:0:0:
448,192,52044,128,0,52205:0:0:0:0:
320,192,52044,1,0,0:0:0:0:
64,192,52205,1,0,0:0:0:0:
192,192,52205,128,4,52445:0:0:0:0:
448,192,52445,128,0,52605:0:0:0:0:
320,192,52605,1,0,0:0:0:0:
64,192,52685,128,0,52765:0:0:0:0:
192,192,52765,1,0,0:0:0:0:
320,192,52765,1,0,0:0:0:0:
448,192,52845,1,8,0:0:0:0:
64,192,53005,1,8,0:0:0:0:
448,192,53005,1,8,0:0:0:0:
192,192,53005,1,8,0:0:0:0:
320,192,53085,128,8,53326:0:0:0:0:
64,192,53246,1,8,0:0:0:0:
192,192,53326,1,8,0:0:0:0:
448,192,53326,1,8,0:0:0:0:
64,192,53486,128,8,53727:0:0:0:0:
192,192,53486,1,8,0:0:0:0:
448,192,53486,1,8,0:0:0:0:
320,192,53566,1,8,0:0:0:0:
448,192,53647,1,8,0:0:0:0:
320,192,53727,1,8,0:0:0:0:
192,192,53807,1,0,0:0:0:0:
448,192,53807,128,0,53967:0:0:0:0:
320,192,53967,1,8,0:0:0:0:
192,192,54047,1,8,0:0:0:0:
320,192,54128,1,0,0:0:0:0:
448,192,54128,1,0,0:0:0:0:
64,192,54128,128,4,54288:0:0:0:0:
448,192,54368,1,0,0:0:0:0:
192,192,54368,128,0,54528:0:0:0:0:
448,192,54608,1,0,0:0:0:0:
320,192,54608,1,0,0:0:0:0:
64,192,54768,1,0,0:0:0:0:
448,192,54768,1,0,0:0:0:0:
192,192,54768,1,0,0:0:0:0:
448,192,54928,128,0,55008:0:0:0:0:
320,192,55008,1,0,0:0:0:0:
64,192,55008,128,0,55169:0:0:0:0:
448,192,55249,128,0,55409:0:0:0:0:
320,192,55249,1,0,0:0:0:0:
192,192,55249,1,0,0:0:0:0:
64,192,55329,1,0,0:0:0:0:
320,192,55409,1,0,0:0:0:0:
192,192,55409,128,0,55650:0:0:0:0:
448,192,55650,1,0,0:0:0:0:
320,192,55650,128,0,55890:0:0:0:0:
64,192,55810,1,0,0:0:0:0:
192,192,55890,128,0,56051:0:0:0:0:
448,192,55890,1,0,0:0:0:0:
448,192,56051,1,0,0:0:0:0:
64,192,56051,128,0,56291:0:0:0:0:
320,192,56291,1,0,0:0:0:0:
448,192,56291,1,0,0:0:0:0:
192,192,56291,1,0,0:0:0:0:
320,192,56532,1,0,0:0:0:0:
192,192,56532,1,0,0:0:0:0:
448,192,56612,1,0,0:0:0:0:
64,192,56692,1,2,0:0:0:0:
192,192,56692,1,2,0:0:0:0:
320,192,56692,128,2,56852:0:0:0:0:
64,192,56852,128,2,57012:0:0:0:0:
320,192,56932,1,2,0:0:0:0:
192,192,57012,128,2,57092:0:0:0:0:
448,192,57092,128,2,57252:0:0:0:0:
64,192,57252,128,2,57412:0:0:0:0:
320,192,57252,1,2,0:0:0:0:
320,192,57332,128,4,57493:0:0:0:0:
192,192,57493,128,2,57653:0:0:0:0:
448,192,57493,1,2,0:0:0:0:
64,192,57573,1,2,0:0:0:0:
448,192,57653,128,2,57733:0:0:0:0:
64,192,57653,1,2,0:0:0:0:
320,192,57733,128,2,57893:0:0:0:0:
64,192,57893,1,4,0:0:0:0:
448,192,57893,1,2,0:0:0:0:
192,192,57974,1,2,0:0:0:0:
448,192,57974,1,2,0:0:0:0:
320,192,58134,1,2,0:0:0:0:
448,192,58214,1,2,0:0:0:0:
192,192,58214,1,2,0:0:0:0:
64,192,58214,1,6,0:0:0:0:
448,192,58294,1,2,0:0:0:0:
64,192,58374,1,2,0:0:0:0:
192,192,58455,1,2,0:0:0:0:
320,192,58455,1,2,0:0:0:0:
64,192,58615,1,10,0:0:0:0:
320,192,58615,1,10,0:0:0:0:
448,192,58615,1,10,0:0:0:0:
64,192,58775,1,10,0:0:0:0:
448,192,58855,1,10,0:0:0:0:
320,192,58855,1,10,0:0:0:0:
192,192,58855,1,10,0:0:0:0:
448,192,59015,1,10,0:0:0:0:
320,192,59095,1,10,0:0:0:0:
192,192,59095,1,10,0:0:0:0:
64,192,59095,1,10,0:0:0:0:
192,192,59255,1,0,0:0:0:0:
448,192,59255,1,0,0:0:0:0:
64,192,59255,128,4,60297:0:0:0:0:
320,192,59416,1,0,0:0:0:0:
192,192,59496,1,0,0:0:0:0:
448,192,59496,1,0,0:0:0:0:
320,192,59656,1,0,0:0:0:0:
192,192,59736,1,0,0:0:0:0:
448,192,59736,1,0,0:0:0:0:
320,192,59816,1,0,0:0:0:0:
192,192,59897,1,0,0:0:0:0:
448,192,59897,1,0,0:0:0:0:
320,192,59897,1,0,0:0:0:0:
448,192,60057,1,0,0:0:0:0:
192,192,60057,1,0,0:0:0:0:
320,192,60217,1,0,0:0:0:0:
448,192,60297,1,0,0:0:0:0:
192,192,60297,1,4,0:0:0:0:
64,192,60458,1,0,0:0:0:0:
320,192,60458,1,4,0:0:0:0:
448,192,60458,1,4,0:0:0:0:
64,192,60698,128,8,61178:0:0:0:0:
192,192,60698,1,0,0:0:0:0:
448,192,60698,1,0,0:0:0:0:
320,192,60778,1,8,0:0:0:0:
192,192,60858,1,8,0:0:0:0:
320,192,60938,1,8,0:0:0:0:
448,192,60938,1,8,0:0:0:0:
192,192,61018,1,8,0:0:0:0:
320,192,61098,1,8,0:0:0:0:
192,192,61178,1,8,0:0:0:0:
448,192,61178,1,8,0:0:0:0:
64,192,61285,1,8,0:0:0:0:
320,192,61285,1,8,0:0:0:0:
448,192,61285,1,8,0:0:0:0:
320,192,61392,1,8,0:0:0:0:
192,192,61392,1,8,0:0:0:0:
448,192,61499,1,8,0:0:0:0:
64,192,61499,1,8,0:0:0:0:
320,192,61499,1,8,0:0:0:0:
64,192,61606,1,8,0:0:0:0:
192,192,61606,1,8,0:0:0:0:
448,192,61606,1,8,0:0:0:0:
448,192,61713,1,8,0:0:0:0:
320,192,61713,1,8,0:0:0:0:
192,192,61713,1,8,0:0:0:0:
64,192,61820,1,4,0:0:0:0:
192,192,61820,1,4,0:0:0:0:
320,192,61900,1,0,0:0:0:0:
448,192,61980,1,0,0:0:0:0:
192,192,62060,1,0,0:0:0:0:
320,192,62140,1,8,0:0:0:0:
64,192,62140,1,0,0:0:0:0:
448,192,62140,1,0,0:0:0:0:
192,192,62220,1,0,0:0:0:0:
320,192,62301,1,0,0:0:0:0:
448,192,62301,1,0,0:0:0:0:
64,192,62381,1,0,0:0:0:0:
192,192,62461,1,0,0:0:0:0:
64,192,62541,1,0,0:0:0:0:
320,192,62541,1,0,0:0:0:0:
448,192,62621,1,0,0:0:0:0:
320,192,62701,1,0,0:0:0:0:
192,192,62782,1,0,0:0:0:0:
64,192,62782,1,0,0:0:0:0:
448,192,62782,1,8,0:0:0:0:
320,192,62862,1,0,0:0:0:0:
64,192,62942,1,0,0:0:0:0:
448,192,62942,1,0,0:0:0:0:
320,192,63022,1,0,0:0:0:0:
192,192,63102,1,0,0:0:0:0:
448,192,63182,1,0,0:0:0:0:
64,192,63262,1,0,0:0:0:0:
192,192,63342,1,0,0:0:0:0:
448,192,63422,1,8,0:0:0:0:
64,192,63422,1,0,0:0:0:0:
320,192,63422,1,0,0:0:0:0:
192,192,63502,1,0,0:0:0:0:
448,192,63582,1,0,0:0:0:0:
64,192,63582,1,0,0:0:0:0:
320,192,63662,1,0,0:0:0:0:
192,192,63743,1,0,0:0:0:0:
448,192,63823,1,0,0:0:0:0:
320,192,63823,1,0,0:0:0:0:
64,192,63903,1,0,0:0:0:0:
448,192,63983,1,0,0:0:0:0:
64,192,64063,1,0,0:0:0:0:
320,192,64063,1,0,0:0:0:0:
192,192,64063,1,8,0:0:0:0:
448,192,64143,1,0,0:0:0:0:
192,192,64224,1,0,0:0:0:0:
64,192,64224,1,0,0:0:0:0:
320,192,64304,1,0,0:0:0:0:
64,192,64384,1,0,0:0:0:0:
192,192,64384,1,0,0:0:0:0:
448,192,64464,1,0,0:0:0:0:
320,192,64544,1,0,0:0:0:0:
448,192,64624,1,0,0:0:0:0:
192,192,64705,1,0,0:0:0:0:
320,192,64705,1,8,0:0:0:0:
64,192,64705,1,0,0:0:0:0:
448,192,64785,1,0,0:0:0:0:
192,192,64865,1,0,0:0:0:0:
320,192,64945,1,0,0:0:0:0:
64,192,65025,1,0,0:0:0:0:
192,192,65025,1,0,0:0:0:0:
448,192,65105,1,0,0:0:0:0:
64,192,65185,1,0,0:0:0:0:
448,192,65265,1,0,0:0:0:0:
320,192,65345,1,0,0:0:0:0:
192,192,65345,1,8,0:0:0:0:
64,192,65345,1,0,0:0:0:0:
448,192,65425,1,0,0:0:0:0:
192,192,65505,1,0,0:0:0:0:
320,192,65505,1,0,0:0:0:0:
448,192,65585,1,0,0:0:0:0:
192,192,65666,1,8,0:0:0:0:
64,192,65666,1,0,0:0:0:0:
448,192,66147,1,0,0:0:0:0:
448,192,66628,1,8,0:0:0:0:
192,192,66628,1,12,0:0:0:0:
192,192,66788,1,0,0:0:0:0:
64,192,66868,1,0,0:0:0:0:
320,192,66948,1,4,0:0:0:0:
448,192,66948,1,4,0:0:0:0:
64,192,67028,1,0,0:0:0:0:
192,192,67108,1,0,0:0:0:0:
320,192,67188,1,0,0:0:0:0:
448,192,67268,1,8,0:0:0:0:
64,192,67268,1,0,0:0:0:0:
320,192,67348,1,0,0:0:0:0:
448,192,67428,1,0,0:0:0:0:
192,192,67428,1,0,0:0:0:0:
64,192,67508,1,0,0:0:0:0:
192,192,67589,1,0,0:0:0:0:
320,192,67589,1,4,0:0:0:0:
448,192,67669,1,0,0:0:0:0:
192,192,67749,1,0,0:0:0:0:
64,192,67749,1,0,0:0:0:0:
320,192,67829,1,0,0:0:0:0:
448,192,67909,1,4,0:0:0:0:
192,192,67909,1,8,0:0:0:0:
64,192,67989,1,0,0:0:0:0:
192,192,68070,1,0,0:0:0:0:
64,192,68150,1,0,0:0:0:0:
320,192,68230,1,12,0:0:0:0:
448,192,68230,1,0,0:0:0:0:
192,192,68310,1,0,0:0:0:0:
448,192,68390,1,0,0:0:0:0:
192,192,68470,1,0,0:0:0:0:
64,192,68551,1,0,0:0:0:0:
320,192,68551,1,8,0:0:0:0:
448,192,68551,1,8,0:0:0:0:
192,192,68631,1,0,0:0:0:0:
320,192,68711,1,0,0:0:0:0:
64,192,68791,1,0,0:0:0:0:
448,192,68871,1,4,0:0:0:0:
320,192,68871,1,4,0:0:0:0:
64,192,68951,1,0,0:0:0:0:
192,192,69032,1,8,0:0:0:0:
320,192,69032,1,0,0:0:0:0:
64,192,69112,1,0,0:0:0:0:
320,192,69192,1,8,0:0:0:0:
192,192,69192,1,0,0:0:0:0:
448,192,69192,1,12,0:0:0:0:
64,192,69272,1,0,0:0:0:0:
320,192,69352,1,0,0:0:0:0:
192,192,69432,1,0,0:0:0:0:
64,192,69512,1,8,0:0:0:0:
320,192,69512,1,4,0:0:0:0:
192,192,69592,1,0,0:0:0:0:
320,192,69672,1,0,0:0:0:0:
64,192,69752,1,0,0:0:0:0:
320,192,69832,1,4,0:0:0:0:
448,192,69832,1,4,0:0:0:0:
192,192,69832,1,8,0:0:0:0:
64,192,69912,1,0,0:0:0:0:
448,192,69993,1,0,0:0:0:0:
320,192,69993,1,0,0:0:0:0:
192,192,70073,1,0,0:0:0:0:
320,192,70153,1,0,0:0:0:0:
448,192,70153,1,0,0:0:0:0:
64,192,70153,1,0,0:0:0:0:
192,192,70233,1,0,0:0:0:0:
320,192,70313,1,0,0:0:0:0:
64,192,70393,1,0,0:0:0:0:
448,192,70474,1,4,0:0:0:0:
320,192,70474,1,4,0:0:0:0:
320,192,70554,1,0,0:0:0:0:
64,192,70634,1,0,0:0:0:0:
192,192,70634,1,0,0:0:0:0:
192,192,70714,1,0,0:0:0:0:
448,192,70794,1,8,0:0:0:0:
320,192,70794,1,8,0:0:0:0:
64,192,70794,1,8,0:0:0:0:
192,192,70874,1,0,0:0:0:0:
320,192,70955,1,0,0:0:0:0:
192,192,71035,1,8,0:0:0:0:
64,192,71035,1,8,0:0:0:0:
448,192,71035,1,8,0:0:0:0:
320,192,71115,1,0,0:0:0:0:
192,192,71195,1,0,0:0:0:0:
320,192,71275,1,12,0:0:0:0:
448,192,71275,1,8,0:0:0:0:
448,192,71355,1,0,0:0:0:0:
64,192,71435,1,8,0:0:0:0:
192,192,71435,1,8,0:0:0:0:
320,192,71435,1,4,0:0:0:0:
448,192,71515,1,0,0:0:0:0:
320,192,71595,1,0,0:0:0:0:
64,192,71675,1,0,0:0:0:0:
320,192,71755,1,0,0:0:0:0:
192,192,71755,128,2,71916:0:0:0:0:
448,192,71755,1,0,0:0:0:0:
64,192,71835,1,0,0:0:0:0:
320,192,71916,1,0,0:0:0:0:
448,192,71916,128,2,72076:0:0:0:0:
64,192,71996,1,0,0:0:0:0:
192,192,72076,1,4,0:0:0:0:
320,192,72076,1,4,0:0:0:0:
64,192,72156,1,0,0:0:0:0:
448,192,72236,1,0,0:0:0:0:
320,192,72316,1,0,0:0:0:0:
192,192,72316,1,0,0:0:0:0:
64,192,72397,1,4,0:0:0:0:
192,192,72477,1,0,0:0:0:0:
64,192,72557,1,0,0:0:0:0:
448,192,72557,1,0,0:0:0:0:
320,192,72557,1,0,0:0:0:0:
192,192,72637,1,0,0:0:0:0:
320,192,72717,1,8,0:0:0:0:
192,192,72797,1,0,0:0:0:0:
448,192,72797,1,0,0:0:0:0:
64,192,72797,1,0,0:0:0:0:
320,192,72878,1,0,0:0:0:0:
448,192,72958,1,0,0:0:0:0:
320,192,73038,1,0,0:0:0:0:
192,192,73038,1,0,0:0:0:0:
64,192,73038,1,0,0:0:0:0:
448,192,73118,1,0,0:0:0:0:
320,192,73198,1,0,0:0:0:0:
192,192,73198,1,0,0:0:0:0:
64,192,73278,1,0,0:0:0:0:
192,192,73358,1,4,0:0:0:0:
320,192,73358,1,0,0:0:0:0:
448,192,73358,1,0,0:0:0:0:
64,192,73438,1,0,0:0:0:0:
192,192,73518,1,0,0:0:0:0:
64,192,73598,1,0,0:0:0:0:
320,192,73598,1,0,0:0:0:0:
448,192,73598,1,0,0:0:0:0:
192,192,73678,1,4,0:0:0:0:
320,192,73758,1,0,0:0:0:0:
448,192,73839,1,0,0:0:0:0:
192,192,73839,1,0,0:0:0:0:
320,192,73919,1,0,0:0:0:0:
192,192,73999,1,8,0:0:0:0:
320,192,74079,1,0,0:0:0:0:
448,192,74079,1,0,0:0:0:0:
64,192,74079,1,0,0:0:0:0:
192,192,74159,1,0,0:0:0:0:
320,192,74239,1,0,0:0:0:0:
448,192,74320,1,4,0:0:0:0:
192,192,74320,1,0,0:0:0:0:
64,192,74320,1,0,0:0:0:0:
320,192,74400,1,0,0:0:0:0:
448,192,74480,1,0,0:0:0:0:
64,192,74480,1,0,0:0:0:0:
192,192,74560,1,0,0:0:0:0:
320,192,74640,1,4,0:0:0:0:
64,192,74640,1,0,0:0:0:0:
448,192,74640,1,0,0:0:0:0:
192,192,74720,1,0,0:0:0:0:
320,192,74801,1,0,0:0:0:0:
192,192,74881,1,0,0:0:0:0:
64,192,74881,1,0,0:0:0:0:
320,192,74961,1,8,0:0:0:0:
448,192,75041,1,0,0:0:0:0:
192,192,75121,1,0,0:0:0:0:
64,192,75121,1,0,0:0:0:0:
320,192,75121,1,0,0:0:0:0:
448,192,75201,1,0,0:0:0:0:
320,192,75282,1,8,0:0:0:0:
192,192,75362,1,0,0:0:0:0:
64,192,75362,1,0,0:0:0:0:
448,192,75362,1,0,0:0:0:0:
320,192,75442,1,0,0:0:0:0:
64,192,75522,1,0,0:0:0:0:
448,192,75602,1,4,0:0:0:0:
320,192,75602,1,0,0:0:0:0:
192,192,75602,1,0,0:0:0:0:
64,192,75682,1,0,0:0:0:0:
192,192,75762,1,0,0:0:0:0:
320,192,75762,1,0,0:0:0:0:
448,192,75842,1,0,0:0:0:0:
320,192,75922,1,0,0:0:0:0:
192,192,75922,1,0,0:0:0:0:
64,192,75922,128,12,76403:0:0:0:0:
448,192,76002,1,0,0:0:0:0:
192,192,76082,1,0,0:0:0:0:
448,192,76162,1,0,0:0:0:0:
192,192,76243,1,0,0:0:0:0:
320,192,76243,1,0,0:0:0:0:
448,192,76323,1,0,0:0:0:0:
320,192,76403,128,12,76884:0:0:0:0:
192,192,76403,1,0,0:0:0:0:
448,192,76483,1,0,0:0:0:0:
192,192,76563,1,0,0:0:0:0:
64,192,76643,1,0,0:0:0:0:
448,192,76643,1,0,0:0:0:0:
192,192,76724,1,0,0:0:0:0:
64,192,76804,1,0,0:0:0:0:
448,192,76884,1,8,0:0:0:0:
192,192,76884,1,8,0:0:0:0:
64,192,76964,1,8,0:0:0:0:
192,192,77044,1,8,0:0:0:0:
448,192,77044,1,8,0:0:0:0:
320,192,77124,1,8,0:0:0:0:
64,192,77205,1,4,0:0:0:0:
192,192,77205,1,4,0:0:0:0:
448,192,77205,1,0,0:0:0:0:
320,192,77285,1,0,0:0:0:0:
64,192,77365,1,0,0:0:0:0:
448,192,77445,1,0,0:0:0:0:
320,192,77525,1,0,0:0:0:0:
64,192,77605,1,0,0:0:0:0:
192,192,77685,1,0,0:0:0:0:
320,192,77685,1,4,0:0:0:0:
448,192,77685,1,4,0:0:0:0:
64,192,77765,1,0,0:0:0:0:
320,192,77845,1,0,0:0:0:0:
448,192,77925,1,0,0:0:0:0:
64,192,77925,1,0,0:0:0:0:
192,192,77925,1,0,0:0:0:0:
320,192,78005,1,0,0:0:0:0:
64,192,78085,1,0,0:0:0:0:
320,192,78166,1,0,0:0:0:0:
448,192,78166,1,0,0:0:0:0:
64,192,78246,1,0,0:0:0:0:
192,192,78326,1,0,0:0:0:0:
320,192,78326,1,0,0:0:0:0:
448,192,78326,1,0,0:0:0:0:
64,192,78406,1,0,0:0:0:0:
192,192,78486,1,0,0:0:0:0:
320,192,78486,1,0,0:0:0:0:
448,192,78486,1,0,0:0:0:0:
64,192,78566,1,2,0:0:0:0:
192,192,78647,1,2,0:0:0:0:
192,192,78727,1,2,0:0:0:0:
448,192,78727,1,2,0:0:0:0:
320,192,78807,1,2,0:0:0:0:
320,192,78887,1,2,0:0:0:0:
192,192,78967,1,12,0:0:0:0:
64,192,78967,1,12,0:0:0:0:
448,192,78967,1,8,0:0:0:0:
320,192,79047,1,0,0:0:0:0:
64,192,79128,1,0,0:0:0:0:
320,192,79208,1,0,0:0:0:0:
448,192,79208,1,0,0:0:0:0:
192,192,79208,1,0,0:0:0:0:
64,192,79288,1,0,0:0:0:0:
192,192,79368,1,0,0:0:0:0:
64,192,79448,1,8,0:0:0:0:
320,192,79448,1,8,0:0:0:0:
448,192,79448,1,8,0:0:0:0:
192,192,79528,1,0,0:0:0:0:
448,192,79608,1,0,0:0:0:0:
320,192,79688,1,0,0:0:0:0:
192,192,79768,1,4,0:0:0:0:
64,192,79768,1,4,0:0:0:0:
448,192,79768,1,8,0:0:0:0:
320,192,79848,1,0,0:0:0:0:
192,192,79928,1,0,0:0:0:0:
448,192,80008,1,0,0:0:0:0:
320,192,80089,1,0,0:0:0:0:
192,192,80089,1,0,0:0:0:0:
64,192,80169,1,0,0:0:0:0:
320,192,80249,1,0,0:0:0:0:
448,192,80249,1,0,0:0:0:0:
192,192,80249,1,8,0:0:0:0:
64,192,80329,1,0,0:0:0:0:
320,192,80409,1,0,0:0:0:0:
192,192,80489,1,0,0:0:0:0:
64,192,80489,1,0,0:0:0:0:
448,192,80489,1,0,0:0:0:0:
320,192,80570,1,0,0:0:0:0:
192,192,80650,1,0,0:0:0:0:
64,192,80730,1,12,0:0:0:0:
448,192,80730,1,12,0:0:0:0:
192,192,80810,1,0,0:0:0:0:
64,192,80890,1,0,0:0:0:0:
320,192,80890,1,0,0:0:0:0:
448,192,80890,1,0,0:0:0:0:
192,192,80970,1,0,0:0:0:0:
448,192,81051,1,4,0:0:0:0:
320,192,81051,1,8,0:0:0:0:
192,192,81131,1,0,0:0:0:0:
64,192,81211,1,0,0:0:0:0:
320,192,81211,1,0,0:0:0:0:
192,192,81291,1,8,0:0:0:0:
448,192,81291,1,0,0:0:0:0:
320,192,81371,1,0,0:0:0:0:
64,192,81451,1,0,0:0:0:0:
192,192,81451,1,8,0:0:0:0:
448,192,81532,1,0,0:0:0:0:
320,192,81532,1,0,0:0:0:0:
192,192,81612,1,0,0:0:0:0:
64,192,81692,1,12,0:0:0:0:
320,192,81692,1,12,0:0:0:0:
448,192,81692,1,12,0:0:0:0:
448,192,81852,1,0,0:0:0:0:
192,192,82012,1,0,0:0:0:0:
64,192,82065,1,0,0:0:0:0:
192,192,82118,1,0,0:0:0:0:
320,192,82172,1,0,0:0:0:0:
448,192,82225,1,0,0:0:0:0:
64,192,82225,1,0,0:0:0:0:
320,192,82279,1,0,0:0:0:0:
192,192,82332,1,0,0:0:0:0:
64,192,82332,1,0,0:0:0:0:
448,192,82332,128,4,83214:0:0:0:0:
320,192,82573,1,0,0:0:0:0:
192,192,82573,1,0,0:0:0:0:
64,192,82653,1,0,0:0:0:0:
320,192,82733,1,0,0:0:0:0:
192,192,82813,1,0,0:0:0:0:
64,192,82893,1,0,0:0:0:0:
192,192,82974,1,0,0:0:0:0:
320,192,82974,1,0,0:0:0:0:
64,192,83054,1,0,0:0:0:0:
192,192,83134,1,0,0:0:0:0:
320,192,83134,1,0,0:0:0:0:
64,192,83214,1,0,0:0:0:0:
192,192,83294,1,0,0:0:0:0:
320,192,83374,1,4,0:0:0:0:
448,192,83374,1,4,0:0:0:0:
64,192,83374,1,0,0:0:0:0:
192,192,83535,128,4,84496:0:0:0:0:
64,192,83535,1,4,0:0:0:0:
320,192,83775,1,0,0:0:0:0:
64,192,83855,1,0,0:0:0:0:
320,192,83935,1,0,0:0:0:0:
448,192,83935,1,0,0:0:0:0:
64,192,84015,1,0,0:0:0:0:
320,192,84095,1,0,0:0:0:0:
448,192,84175,1,0,0:0:0:0:
320,192,84255,1,0,0:0:0:0:
64,192,84255,1,0,0:0:0:0:
448,192,84335,1,0,0:0:0:0:
320,192,84416,1,0,0:0:0:0:
64,192,84416,1,0,0:0:0:0:
448,192,84496,1,0,0:0:0:0:
64,192,84576,1,0,0:0:0:0:
192,192,84656,1,4,0:0:0:0:
320,192,84656,1,4,0:0:0:0:
448,192,84656,1,0,0:0:0:0:
448,192,84816,1,4,0:0:0:0:
64,192,84816,128,4,85378:0:0:0:0:
320,192,85057,1,0,0:0:0:0:
192,192,85137,1,0,0:0:0:0:
320,192,85217,1,0,0:0:0:0:
448,192,85217,1,0,0:0:0:0:
192,192,85297,1,0,0:0:0:0:
320,192,85378,1,0,0:0:0:0:
448,192,85458,1,0,0:0:0:0:
192,192,85538,1,4,0:0:0:0:
320,192,85538,1,0,0:0:0:0:
64,192,85538,1,4,0:0:0:0:
448,192,85618,1,0,0:0:0:0:
192,192,85698,1,0,0:0:0:0:
64,192,85698,1,0,0:0:0:0:
320,192,85778,1,0,0:0:0:0:
448,192,85858,1,0,0:0:0:0:
192,192,85858,1,0,0:0:0:0:
320,192,85938,1,0,0:0:0:0:
448,192,86018,1,0,0:0:0:0:
320,192,86098,1,4,0:0:0:0:
192,192,86098,128,4,86659:0:0:0:0:
448,192,86258,1,8,0:0:0:0:
320,192,86339,1,8,0:0:0:0:
64,192,86339,1,8,0:0:0:0:
448,192,86419,1,8,0:0:0:0:
320,192,86499,1,8,0:0:0:0:
64,192,86499,1,8,0:0:0:0:
448,192,86579,1,8,0:0:0:0:
320,192,86659,1,8,0:0:0:0:
448,192,86739,1,8,0:0:0:0:
320,192,86820,1,8,0:0:0:0:
192,192,86820,1,12,0:0:0:0:
64,192,86820,1,8,0:0:0:0:
448,192,86900,1,8,0:0:0:0:
320,192,86980,1,8,0:0:0:0:
192,192,87060,1,8,0:0:0:0:
320,192,87140,1,12,0:0:0:0:
64,192,87140,1,8,0:0:0:0:
448,192,87140,1,8,0:0:0:0:
192,192,87220,1,8,0:0:0:0:
320,192,87301,1,8,0:0:0:0:
448,192,87301,1,8,0:0:0:0:
192,192,87381,1,8,0:0:0:0:
448,192,87461,1,4,0:0:0:0:
64,192,87461,1,0,0:0:0:0:
320,192,87461,128,4,88342:0:0:0:0:
192,192,87701,1,0,0:0:0:0:
448,192,87782,1,0,0:0:0:0:
64,192,87782,1,0,0:0:0:0:
192,192,87862,1,0,0:0:0:0:
64,192,87942,1,0,0:0:0:0:
448,192,88022,1,0,0:0:0:0:
64,192,88102,1,0,0:0:0:0:
192,192,88102,1,0,0:0:0:0:
448,192,88182,1,0,0:0:0:0:
192,192,88262,1,0,0:0:0:0:
64,192,88262,1,0,0:0:0:0:
448,192,88342,1,0,0:0:0:0:
192,192,88422,1,0,0:0:0:0:
320,192,88502,1,4,0:0:0:0:
448,192,88502,1,0,0:0:0:0:
64,192,88502,1,4,0:0:0:0:
192,192,88662,1,4,0:0:0:0:
448,192,88662,128,4,89624:0:0:0:0:
192,192,88903,1,0,0:0:0:0:
320,192,88983,1,0,0:0:0:0:
192,192,89063,1,0,0:0:0:0:
64,192,89063,1,0,0:0:0:0:
320,192,89143,1,0,0:0:0:0:
64,192,89224,1,0,0:0:0:0:
192,192,89304,1,0,0:0:0:0:
320,192,89384,1,0,0:0:0:0:
64,192,89384,128,2,89624:0:0:0:0:
192,192,89464,1,0,0:0:0:0:
320,192,89544,1,0,0:0:0:0:
192,192,89624,1,0,0:0:0:0:
320,192,89705,1,0,0:0:0:0:
64,192,89785,1,4,0:0:0:0:
192,192,89785,1,4,0:0:0:0:
448,192,89785,1,0,0:0:0:0:
192,192,89945,128,4,90666:0:0:0:0:
64,192,89945,1,4,0:0:0:0:
448,192,90185,1,0,0:0:0:0:
320,192,90265,1,0,0:0:0:0:
64,192,90345,1,0,0:0:0:0:
448,192,90345,1,0,0:0:0:0:
320,192,90425,1,0,0:0:0:0:
64,192,90505,1,0,0:0:0:0:
320,192,90666,1,4,0:0:0:0:
448,192,90666,128,4,91227:0:0:0:0:
64,192,90746,1,0,0:0:0:0:
192,192,90826,1,0,0:0:0:0:
320,192,90906,1,0,0:0:0:0:
192,192,90986,1,0,0:0:0:0:
320,192,91066,1,0,0:0:0:0:
192,192,91147,1,0,0:0:0:0:
320,192,91227,1,0,0:0:0:0:
64,192,91227,128,12,92749:0:0:0:0:
192,192,91387,1,0,0:0:0:0:
320,192,91467,1,0,0:0:0:0:
448,192,91467,128,0,91788:0:0:0:0:
192,192,91547,1,0,0:0:0:0:
320,192,91628,1,0,0:0:0:0:
192,192,91708,1,0,0:0:0:0:
320,192,91788,1,0,0:0:0:0:
192,192,91868,1,0,0:0:0:0:
320,192,91948,1,0,0:0:0:0:
448,192,91948,1,0,0:0:0:0:
192,192,92028,1,0,0:0:0:0:
448,192,92108,1,0,0:0:0:0:
192,192,92188,1,0,0:0:0:0:
448,192,92268,1,0,0:0:0:0:
320,192,92268,1,0,0:0:0:0:
192,192,92348,1,0,0:0:0:0:
320,192,92428,1,0,0:0:0:0:
192,192,92508,1,0,0:0:0:0:
448,192,92589,1,0,0:0:0:0:
320,192,92629,1,0,0:0:0:0:
192,192,92669,1,0,0:0:0:0:
