osu file format v14

[General]
AudioFilename: TAG - Alstroemeria 1.2.mp3
AudioLeadIn: 0
PreviewTime: -1
Countdown: 0
SampleSet: None
StackLeniency: 0.7
Mode: 3
LetterboxInBreaks: 0
SpecialStyle: 0
WidescreenStoryboard: 0

[Editor]
DistanceSpacing: 0.5
BeatDivisor: 4
GridSize: 32
TimelineZoom: 1

[Metadata]
Title:Alstroemeria
TitleUnicode:アルストロメリア
Artist:TAG
ArtistUnicode:TAG
Creator:IControl
Version:Another 1.2x
Source:jubeat copius
Tags:
BeatmapID:2852516
BeatmapSetID:956118

[Difficulty]
HPDrainRate:9
CircleSize:4
OverallDifficulty:9
ApproachRate:5
SliderMultiplier:1.4
SliderTickRate:1

[Events]
//Background and Video events
0,0,"alstroemeria-bouquet-closeup.jpg",0,0
//Break Periods
//Storyboard Layer 0 (Background)
//Storyboard Layer 1 (Fail)
//Storyboard Layer 2 (Pass)
//Storyboard Layer 3 (Foreground)
//Storyboard Layer 4 (Overlay)
//Storyboard Sound Samples

[TimingPoints]
305,347.222222222222,4,2,1,25,1,0

[HitObjects]
448,192,305,5,4,0:0:0:0:
64,192,305,1,0,0:0:0:0:
320,192,305,1,4,0:0:0:0:
320,192,565,1,0,0:0:0:0:
64,192,565,1,0,0:0:0:0:
192,192,652,1,0,0:0:0:0:
64,192,738,1,0,0:0:0:0:
192,192,826,1,0,0:0:0:0:
320,192,912,1,0,0:0:0:0:
448,192,999,1,0,0:0:0:0:
192,192,999,1,0,0:0:0:0:
320,192,1086,1,0,0:0:0:0:
192,192,1172,1,0,0:0:0:0:
64,192,1172,1,0,0:0:0:0:
320,192,1259,1,0,0:0:0:0:
448,192,1347,1,0,0:0:0:0:
320,192,1433,1,4,0:0:0:0:
192,192,1433,1,4,0:0:0:0:
64,192,1433,1,0,0:0:0:0:
448,192,1607,1,4,0:0:0:0:
320,192,1607,1,4,0:0:0:0:
320,192,1867,1,0,0:0:0:0:
448,192,1954,1,0,0:0:0:0:
64,192,2041,1,0,0:0:0:0:
192,192,2041,1,0,0:0:0:0:
320,192,2127,1,0,0:0:0:0:
192,192,2214,1,0,0:0:0:0:
64,192,2301,1,0,0:0:0:0:
192,192,2388,1,0,0:0:0:0:
320,192,2388,1,0,0:0:0:0:
448,192,2475,1,0,0:0:0:0:
320,192,2562,1,0,0:0:0:0:
192,192,2648,1,0,0:0:0:0:
448,192,2735,1,0,0:0:0:0:
320,192,2822,1,4,0:0:0:0:
64,192,2822,1,0,0:0:0:0:
192,192,2822,1,4,0:0:0:0:
448,192,2996,1,4,0:0:0:0:
320,192,2996,1,4,0:0:0:0:
64,192,3256,1,0,0:0:0:0:
448,192,3256,1,0,0:0:0:0:
192,192,3342,1,0,0:0:0:0:
320,192,3430,1,0,0:0:0:0:
448,192,3517,1,0,0:0:0:0:
320,192,3603,1,0,0:0:0:0:
192,192,3690,1,0,0:0:0:0:
64,192,3777,1,0,0:0:0:0:
320,192,3777,1,4,0:0:0:0:
448,192,3777,1,4,0:0:0:0:
192,192,3863,1,0,0:0:0:0:
64,192,3951,1,0,0:0:0:0:
320,192,4037,1,0,0:0:0:0:
448,192,4124,1,0,0:0:0:0:
192,192,4211,1,0,0:0:0:0:
64,192,4297,1,0,0:0:0:0:
192,192,4384,1,4,0:0:0:0:
320,192,4384,1,4,0:0:0:0:
448,192,4384,1,0,0:0:0:0:
320,192,4558,1,8,0:0:0:0:
192,192,4645,1,12,0:0:0:0:
64,192,4645,1,0,0:0:0:0:
448,192,4732,1,8,0:0:0:0:
64,192,4818,1,8,0:0:0:0:
192,192,4905,1,4,0:0:0:0:
448,192,4905,1,8,0:0:0:0:
320,192,4992,1,8,0:0:0:0:
64,192,4992,1,0,0:0:0:0:
448,192,5079,1,8,0:0:0:0:
320,192,5166,1,0,0:0:0:0:
192,192,5166,1,4,0:0:0:0:
64,192,5166,1,4,0:0:0:0:
448,192,5252,1,8,0:0:0:0:
192,192,5339,1,0,0:0:0:0:
64,192,5426,1,8,0:0:0:0:
320,192,5513,1,4,0:0:0:0:
448,192,5513,1,4,0:0:0:0:
192,192,5513,1,0,0:0:0:0:
64,192,5600,1,8,0:0:0:0:
448,192,5687,1,8,0:0:0:0:
320,192,5773,1,8,0:0:0:0:
64,192,5860,1,4,0:0:0:0:
192,192,5860,1,4,0:0:0:0:
448,192,5860,1,0,0:0:0:0:
320,192,6121,1,0,0:0:0:0:
192,192,6121,1,0,0:0:0:0:
448,192,6207,1,0,0:0:0:0:
320,192,6294,1,0,0:0:0:0:
192,192,6381,1,0,0:0:0:0:
320,192,6467,1,0,0:0:0:0:
64,192,6555,1,0,0:0:0:0:
448,192,6555,1,0,0:0:0:0:
192,192,6642,1,0,0:0:0:0:
320,192,6728,1,0,0:0:0:0:
64,192,6728,1,0,0:0:0:0:
448,192,6815,1,0,0:0:0:0:
320,192,6902,1,0,0:0:0:0:
64,192,6988,1,4,0:0:0:0:
192,192,6988,1,4,0:0:0:0:
448,192,6988,1,0,0:0:0:0:
320,192,7162,1,4,0:0:0:0:
192,192,7162,1,4,0:0:0:0:
320,192,7422,1,0,0:0:0:0:
448,192,7509,1,0,0:0:0:0:
320,192,7597,1,0,0:0:0:0:
192,192,7597,1,0,0:0:0:0:
448,192,7683,1,0,0:0:0:0:
64,192,7770,1,0,0:0:0:0:
192,192,7857,1,0,0:0:0:0:
448,192,7943,1,2,0:0:0:0:
320,192,7943,1,2,0:0:0:0:
64,192,7943,1,0,0:0:0:0:
192,192,8030,1,0,0:0:0:0:
320,192,8117,1,0,0:0:0:0:
448,192,8117,1,0,0:0:0:0:
192,192,8204,1,0,0:0:0:0:
320,192,8291,1,0,0:0:0:0:
448,192,8377,1,0,0:0:0:0:
192,192,8377,1,4,0:0:0:0:
64,192,8377,1,4,0:0:0:0:
448,192,8551,1,4,0:0:0:0:
320,192,8551,1,4,0:0:0:0:
64,192,8812,1,0,0:0:0:0:
320,192,8812,1,0,0:0:0:0:
448,192,8898,1,0,0:0:0:0:
320,192,8985,1,0,0:0:0:0:
192,192,8985,1,0,0:0:0:0:
448,192,9072,1,0,0:0:0:0:
192,192,9159,1,0,0:0:0:0:
64,192,9246,1,0,0:0:0:0:
448,192,9332,1,4,0:0:0:0:
320,192,9332,1,0,0:0:0:0:
192,192,9332,1,0,0:0:0:0:
64,192,9419,1,0,0:0:0:0:
192,192,9506,1,0,0:0:0:0:
320,192,9506,1,0,0:0:0:0:
64,192,9592,1,0,0:0:0:0:
320,192,9680,1,0,0:0:0:0:
448,192,9680,1,0,0:0:0:0:
192,192,9767,1,0,0:0:0:0:
448,192,9853,1,8,0:0:0:0:
192,192,9940,1,12,0:0:0:0:
64,192,9940,1,12,0:0:0:0:
320,192,9940,1,8,0:0:0:0:
448,192,10113,1,8,0:0:0:0:
64,192,10201,1,8,0:0:0:0:
192,192,10201,1,8,0:0:0:0:
320,192,10201,1,8,0:0:0:0:
448,192,10287,1,8,0:0:0:0:
320,192,10374,1,8,0:0:0:0:
64,192,10374,1,8,0:0:0:0:
192,192,10374,1,8,0:0:0:0:
448,192,10461,1,8,0:0:0:0:
64,192,10547,1,8,0:0:0:0:
192,192,10634,1,8,0:0:0:0:
320,192,10722,1,8,0:0:0:0:
64,192,10722,1,4,0:0:0:0:
448,192,10808,1,8,0:0:0:0:
320,192,10895,1,8,0:0:0:0:
448,192,10982,1,8,0:0:0:0:
192,192,11068,1,4,0:0:0:0:
64,192,11068,1,8,0:0:0:0:
320,192,11155,1,8,0:0:0:0:
192,192,11242,1,8,0:0:0:0:
64,192,11329,1,8,0:0:0:0:
192,192,11416,1,0,0:0:0:0:
320,192,11416,1,4,0:0:0:0:
448,192,11416,1,2,0:0:0:0:
64,192,11589,1,0,0:0:0:0:
448,192,11676,1,0,0:0:0:0:
320,192,11676,1,0,0:0:0:0:
192,192,11676,1,0,0:0:0:0:
192,192,11850,1,0,0:0:0:0:
64,192,11937,1,0,0:0:0:0:
448,192,11937,1,0,0:0:0:0:
320,192,11937,1,0,0:0:0:0:
448,192,12110,1,0,0:0:0:0:
64,192,12284,1,0,0:0:0:0:
448,192,12457,1,0,0:0:0:0:
64,192,12544,1,0,0:0:0:0:
192,192,12544,1,4,0:0:0:0:
320,192,12544,1,4,0:0:0:0:
448,192,12717,1,4,0:0:0:0:
320,192,12717,1,4,0:0:0:0:
192,192,12978,1,0,0:0:0:0:
64,192,12978,1,0,0:0:0:0:
448,192,12978,1,0,0:0:0:0:
320,192,13152,1,0,0:0:0:0:
64,192,13238,1,0,0:0:0:0:
192,192,13238,1,0,0:0:0:0:
448,192,13238,1,0,0:0:0:0:
320,192,13412,1,0,0:0:0:0:
192,192,13499,1,0,0:0:0:0:
64,192,13499,1,0,0:0:0:0:
448,192,13499,1,0,0:0:0:0:
64,192,13672,1,0,0:0:0:0:
448,192,13759,1,0,0:0:0:0:
320,192,13759,1,0,0:0:0:0:
64,192,13933,1,0,0:0:0:0:
320,192,13933,1,4,0:0:0:0:
448,192,13933,1,4,0:0:0:0:
192,192,14020,1,0,0:0:0:0:
448,192,14107,1,4,0:0:0:0:
320,192,14107,1,4,0:0:0:0:
64,192,14193,1,4,0:0:0:0:
192,192,14193,1,4,0:0:0:0:
320,192,14193,1,0,0:0:0:0:
64,192,14454,1,0,0:0:0:0:
192,192,14454,1,0,0:0:0:0:
320,192,14454,1,0,0:0:0:0:
64,192,14714,1,0,0:0:0:0:
192,192,14714,1,0,0:0:0:0:
448,192,14714,1,0,0:0:0:0:
448,192,14888,1,4,0:0:0:0:
320,192,14888,1,4,0:0:0:0:
64,192,14888,1,0,0:0:0:0:
64,192,15062,1,0,0:0:0:0:
448,192,15235,1,0,0:0:0:0:
320,192,15322,1,0,0:0:0:0:
64,192,15322,1,0,0:0:0:0:
320,192,15496,1,4,0:0:0:0:
192,192,15496,1,2,0:0:0:0:
448,192,15496,1,4,0:0:0:0:
64,192,15756,1,4,0:0:0:0:
192,192,15756,1,4,0:0:0:0:
448,192,15756,1,8,0:0:0:0:
320,192,15930,1,8,0:0:0:0:
192,192,16017,1,4,0:0:0:0:
448,192,16017,1,8,0:0:0:0:
64,192,16017,1,4,0:0:0:0:
320,192,16190,1,8,0:0:0:0:
192,192,16277,1,4,0:0:0:0:
64,192,16277,1,4,0:0:0:0:
448,192,16363,1,8,0:0:0:0:
320,192,16363,1,8,0:0:0:0:
192,192,16451,1,8,0:0:0:0:
64,192,16537,1,8,0:0:0:0:
320,192,16537,1,4,0:0:0:0:
448,192,16537,1,4,0:0:0:0:
192,192,16624,128,2,16797:0:0:0:0:
64,192,16797,1,8,0:0:0:0:
320,192,16884,1,8,0:0:0:0:
64,192,16972,1,4,0:0:0:0:
448,192,16972,1,0,0:0:0:0:
192,192,16972,1,4,0:0:0:0:
320,192,17145,1,0,0:0:0:0:
448,192,17232,1,0,0:0:0:0:
64,192,17232,1,0,0:0:0:0:
192,192,17232,1,0,0:0:0:0:
64,192,17405,1,0,0:0:0:0:
448,192,17492,1,0,0:0:0:0:
320,192,17492,1,0,0:0:0:0:
192,192,17492,1,0,0:0:0:0:
64,192,17839,1,0,0:0:0:0:
192,192,18013,1,0,0:0:0:0:
320,192,18013,1,0,0:0:0:0:
192,192,18100,1,4,0:0:0:0:
320,192,18187,1,4,0:0:0:0:
448,192,18360,1,0,0:0:0:0:
448,192,18534,1,0,0:0:0:0:
320,192,18621,1,0,0:0:0:0:
448,192,18794,1,0,0:0:0:0:
64,192,18794,1,0,0:0:0:0:
192,192,18967,1,0,0:0:0:0:
320,192,18967,1,0,0:0:0:0:
448,192,18967,1,0,0:0:0:0:
64,192,19576,1,0,0:0:0:0:
192,192,19662,1,0,0:0:0:0:
64,192,19749,1,4,0:0:0:0:
448,192,20009,1,0,0:0:0:0:
320,192,20009,1,0,0:0:0:0:
192,192,20270,1,0,0:0:0:0:
192,192,20443,1,4,0:0:0:0:
448,192,20443,1,0,0:0:0:0:
64,192,20443,1,4,0:0:0:0:
320,192,20704,1,0,0:0:0:0:
192,192,21051,1,4,0:0:0:0:
64,192,21051,1,0,0:0:0:0:
448,192,21051,1,4,0:0:0:0:
320,192,21312,1,12,0:0:0:0:
448,192,21312,1,12,0:0:0:0:
64,192,21312,1,8,0:0:0:0:
192,192,21485,1,8,0:0:0:0:
64,192,21572,1,8,0:0:0:0:
320,192,21572,1,12,0:0:0:0:
448,192,21572,1,12,0:0:0:0:
320,192,21746,1,8,0:0:0:0:
64,192,21832,1,12,0:0:0:0:
192,192,21919,1,8,0:0:0:0:
448,192,22006,1,8,0:0:0:0:
320,192,22092,1,8,0:0:0:0:
192,192,22180,1,8,0:0:0:0:
448,192,22353,1,8,0:0:0:0:
192,192,22440,1,8,0:0:0:0:
448,192,22527,1,4,0:0:0:0:
64,192,22527,1,0,0:0:0:0:
320,192,22527,1,4,0:0:0:0:
64,192,22787,1,0,0:0:0:0:
192,192,22787,1,0,0:0:0:0:
192,192,23047,1,0,0:0:0:0:
320,192,23047,1,0,0:0:0:0:
64,192,23655,1,4,0:0:0:0:
192,192,23742,1,0,0:0:0:0:
448,192,23829,1,4,0:0:0:0:
64,192,23829,1,0,0:0:0:0:
320,192,23829,1,4,0:0:0:0:
320,192,24437,1,0,0:0:0:0:
64,192,24610,1,0,0:0:0:0:
320,192,24610,1,0,0:0:0:0:
192,192,24784,1,0,0:0:0:0:
448,192,24784,1,0,0:0:0:0:
448,192,24957,1,4,0:0:0:0:
320,192,24957,1,4,0:0:0:0:
64,192,24957,1,0,0:0:0:0:
448,192,25131,1,0,0:0:0:0:
192,192,25131,1,0,0:0:0:0:
320,192,25305,1,4,0:0:0:0:
192,192,25305,1,4,0:0:0:0:
64,192,25305,1,0,0:0:0:0:
192,192,25565,1,0,0:0:0:0:
320,192,25565,1,0,0:0:0:0:
64,192,25826,1,0,0:0:0:0:
192,192,25826,1,0,0:0:0:0:
448,192,25826,1,0,0:0:0:0:
320,192,25999,1,4,0:0:0:0:
448,192,25999,1,0,0:0:0:0:
192,192,25999,1,4,0:0:0:0:
192,192,26520,1,0,0:0:0:0:
320,192,26607,1,0,0:0:0:0:
192,192,26693,1,4,0:0:0:0:
64,192,26693,1,4,0:0:0:0:
448,192,26867,1,0,0:0:0:0:
320,192,26867,1,4,0:0:0:0:
192,192,26867,1,4,0:0:0:0:
64,192,27041,1,0,0:0:0:0:
192,192,27127,1,4,0:0:0:0:
448,192,27127,1,0,0:0:0:0:
320,192,27127,1,4,0:0:0:0:
320,192,27301,1,0,0:0:0:0:
192,192,27388,1,0,0:0:0:0:
64,192,27475,1,0,0:0:0:0:
320,192,27562,128,2,27735:0:0:0:0:
192,192,27562,1,0,0:0:0:0:
64,192,27648,1,0,0:0:0:0:
448,192,27735,128,2,27909:0:0:0:0:
192,192,27735,1,0,0:0:0:0:
192,192,27909,128,2,28082:0:0:0:0:
320,192,27909,1,0,0:0:0:0:
448,192,28082,1,2,0:0:0:0:
64,192,28082,1,2,0:0:0:0:
320,192,28082,1,4,0:0:0:0:
320,192,28342,1,0,0:0:0:0:
448,192,28430,1,0,0:0:0:0:
192,192,28430,1,0,0:0:0:0:
64,192,28430,1,0,0:0:0:0:
64,192,28603,1,0,0:0:0:0:
320,192,28603,1,2,2:2:0:0:
320,192,28690,1,2,2:2:0:0:
64,192,28777,1,0,0:0:0:0:
192,192,28777,1,0,0:0:0:0:
320,192,28951,1,0,0:0:0:0:
192,192,28951,1,0,0:0:0:0:
448,192,29124,1,0,0:0:0:0:
320,192,29124,1,0,0:0:0:0:
64,192,29124,1,0,0:0:0:0:
192,192,29297,1,0,0:0:0:0:
320,192,29297,1,2,0:0:0:0:
64,192,29297,128,2,29645:0:0:0:0:
448,192,29645,1,2,0:0:0:0:
448,192,29732,1,2,0:0:0:0:
192,192,29732,1,2,0:0:0:0:
320,192,29992,1,2,0:0:0:0:
320,192,30079,1,2,0:0:0:0:
64,192,30079,1,2,0:0:0:0:
320,192,30339,1,2,0:0:0:0:
64,192,30339,1,2,0:0:0:0:
320,192,30513,1,2,0:0:0:0:
448,192,30600,1,2,0:0:0:0:
192,192,30600,1,2,0:0:0:0:
448,192,30773,1,4,0:0:0:0:
64,192,30773,1,0,0:0:0:0:
192,192,30773,1,6,0:0:0:0:
320,192,31034,1,2,0:0:0:0:
448,192,31034,128,2,31381:0:0:0:0:
192,192,31207,1,2,0:0:0:0:
64,192,31207,128,2,31381:0:0:0:0:
320,192,31381,1,2,0:0:0:0:
320,192,31467,1,2,0:0:0:0:
448,192,31555,1,2,0:0:0:0:
192,192,31555,128,2,31902:0:0:0:0:
64,192,31728,1,2,0:0:0:0:
448,192,31902,1,2,0:0:0:0:
320,192,31902,1,2,0:0:0:0:
192,192,32076,1,2,0:0:0:0:
192,192,32249,1,2,0:0:0:0:
64,192,32249,1,2,0:0:0:0:
448,192,32422,1,2,0:0:0:0:
192,192,32509,1,2,0:0:0:0:
64,192,32509,1,2,0:0:0:0:
448,192,32509,1,2,0:0:0:0:
320,192,32683,1,2,0:0:0:0:
64,192,32770,1,2,0:0:0:0:
320,192,32770,1,2,0:0:0:0:
448,192,32857,1,2,0:0:0:0:
192,192,32943,1,4,0:0:0:0:
64,192,32943,128,2,33638:0:0:0:0:
448,192,33117,1,2,0:0:0:0:
320,192,33117,1,4,0:0:0:0:
192,192,33291,1,10,0:0:0:0:
448,192,33291,128,2,33638:0:0:0:0:
320,192,33464,1,0,0:0:0:0:
192,192,33638,1,4,0:0:0:0:
192,192,34159,1,0,0:0:0:0:
64,192,34159,128,0,34853:0:0:0:0:
192,192,34332,1,0,0:0:0:0:
192,192,34506,1,0,0:0:0:0:
320,192,34680,1,0,0:0:0:0:
448,192,34853,1,0,0:0:0:0:
64,192,35201,1,2,0:0:0:0:
320,192,35287,1,2,0:0:0:0:
64,192,35287,1,2,0:0:0:0:
192,192,35547,1,2,0:0:0:0:
448,192,35634,1,2,0:0:0:0:
192,192,35634,1,2,0:0:0:0:
448,192,35895,1,2,0:0:0:0:
192,192,35895,1,2,0:0:0:0:
192,192,36068,1,2,0:0:0:0:
64,192,36155,1,2,0:0:0:0:
320,192,36155,1,2,0:0:0:0:
64,192,36329,1,2,0:0:0:0:
320,192,36329,1,6,0:0:0:0:
448,192,36329,1,2,0:0:0:0:
448,192,36589,128,2,36937:0:0:0:0:
320,192,36589,1,2,0:0:0:0:
192,192,36763,1,2,0:0:0:0:
64,192,36763,128,2,36937:0:0:0:0:
320,192,36937,1,2,0:0:0:0:
192,192,37023,1,2,0:0:0:0:
192,192,37110,1,2,0:0:0:0:
320,192,37110,128,6,37631:0:0:0:0:
64,192,37284,1,2,0:0:0:0:
192,192,37457,1,2,0:0:0:0:
448,192,37457,128,2,37631:0:0:0:0:
64,192,37631,1,2,0:0:0:0:
64,192,37805,1,0,0:0:0:0:
192,192,37805,1,0,0:0:0:0:
448,192,37805,1,0,0:0:0:0:
64,192,38065,1,0,0:0:0:0:
192,192,38065,1,0,0:0:0:0:
448,192,38065,1,0,0:0:0:0:
64,192,38326,1,0,0:0:0:0:
192,192,38412,1,0,0:0:0:0:
320,192,38499,1,2,0:0:0:0:
320,192,38586,1,2,0:0:0:0:
64,192,38672,1,0,0:0:0:0:
448,192,38847,1,0,0:0:0:0:
320,192,38847,1,4,0:0:0:0:
192,192,38847,1,4,0:0:0:0:
64,192,39020,1,0,0:0:0:0:
192,192,39107,1,0,0:0:0:0:
448,192,39193,1,0,0:0:0:0:
64,192,39193,128,4,39454:0:0:0:0:
448,192,39454,1,0,0:0:0:0:
448,192,39714,1,0,0:0:0:0:
64,192,39714,1,0,0:0:0:0:
320,192,39801,1,0,0:0:0:0:
192,192,39801,1,0,0:0:0:0:
448,192,39888,1,0,0:0:0:0:
448,192,39975,1,0,0:0:0:0:
64,192,39975,1,0,0:0:0:0:
192,192,40062,1,0,0:0:0:0:
448,192,40235,1,0,0:0:0:0:
192,192,40235,1,0,0:0:0:0:
320,192,40322,1,0,0:0:0:0:
192,192,40409,1,0,0:0:0:0:
64,192,40496,1,4,0:0:0:0:
448,192,40496,1,12,0:0:0:0:
448,192,40669,1,8,0:0:0:0:
320,192,40669,1,8,0:0:0:0:
192,192,40756,1,8,0:0:0:0:
64,192,40842,1,8,0:0:0:0:
448,192,40930,1,8,0:0:0:0:
192,192,40930,1,8,0:0:0:0:
320,192,41017,1,8,0:0:0:0:
192,192,41103,1,8,0:0:0:0:
64,192,41190,1,8,0:0:0:0:
320,192,41190,1,8,0:0:0:0:
448,192,41190,128,10,41624:0:0:0:0:
192,192,41277,1,8,0:0:0:0:
320,192,41363,1,8,0:0:0:0:
192,192,41451,1,8,0:0:0:0:
64,192,41537,1,8,0:0:0:0:
320,192,41624,1,8,0:0:0:0:
192,192,41624,128,12,41972:0:0:0:0:
320,192,41797,1,8,0:0:0:0:
64,192,41884,1,8,0:0:0:0:
448,192,41972,1,4,0:0:0:0:
320,192,42058,1,0,0:0:0:0:
448,192,42145,1,0,0:0:0:0:
192,192,42232,1,0,0:0:0:0:
320,192,42318,1,4,0:0:0:0:
448,192,42318,1,0,0:0:0:0:
64,192,42405,1,0,0:0:0:0:
320,192,42492,1,0,0:0:0:0:
192,192,42492,1,0,0:0:0:0:
448,192,42579,1,0,0:0:0:0:
64,192,42666,1,0,0:0:0:0:
320,192,42666,1,8,0:0:0:0:
192,192,42752,1,0,0:0:0:0:
448,192,42752,1,0,0:0:0:0:
320,192,42839,1,0,0:0:0:0:
64,192,42839,1,0,0:0:0:0:
192,192,42926,1,0,0:0:0:0:
64,192,43013,1,0,0:0:0:0:
320,192,43013,1,8,0:0:0:0:
448,192,43013,1,0,0:0:0:0:
192,192,43100,1,0,0:0:0:0:
320,192,43187,1,0,0:0:0:0:
64,192,43187,1,0,0:0:0:0:
448,192,43273,1,0,0:0:0:0:
320,192,43360,1,2,0:0:0:0:
192,192,43360,1,0,0:0:0:0:
64,192,43360,1,0,0:0:0:0:
448,192,43447,1,0,0:0:0:0:
320,192,43534,1,0,0:0:0:0:
192,192,43534,1,0,0:0:0:0:
64,192,43621,1,0,0:0:0:0:
448,192,43621,1,0,0:0:0:0:
192,192,43707,1,0,0:0:0:0:
320,192,43707,1,4,0:0:0:0:
64,192,43794,1,0,0:0:0:0:
192,192,43881,1,0,0:0:0:0:
448,192,43881,1,0,0:0:0:0:
64,192,43967,1,0,0:0:0:0:
192,192,44055,1,8,0:0:0:0:
320,192,44142,1,0,0:0:0:0:
448,192,44142,1,0,0:0:0:0:
192,192,44228,1,0,0:0:0:0:
64,192,44228,1,0,0:0:0:0:
320,192,44315,1,0,0:0:0:0:
64,192,44402,1,0,0:0:0:0:
448,192,44402,1,0,0:0:0:0:
192,192,44402,1,8,0:0:0:0:
320,192,44488,1,0,0:0:0:0:
192,192,44576,1,0,0:0:0:0:
448,192,44576,1,0,0:0:0:0:
64,192,44662,1,0,0:0:0:0:
320,192,44749,1,8,0:0:0:0:
192,192,44749,1,0,0:0:0:0:
448,192,44749,1,0,0:0:0:0:
64,192,44836,1,0,0:0:0:0:
320,192,44922,1,0,0:0:0:0:
192,192,45009,1,0,0:0:0:0:
448,192,45097,1,0,0:0:0:0:
320,192,45097,1,4,0:0:0:0:
192,192,45183,1,0,0:0:0:0:
448,192,45270,1,0,0:0:0:0:
64,192,45270,1,0,0:0:0:0:
192,192,45357,1,0,0:0:0:0:
448,192,45443,1,0,0:0:0:0:
320,192,45443,1,8,0:0:0:0:
64,192,45530,1,0,0:0:0:0:
192,192,45530,1,0,0:0:0:0:
448,192,45617,1,0,0:0:0:0:
320,192,45617,1,0,0:0:0:0:
192,192,45704,1,0,0:0:0:0:
448,192,45791,1,0,0:0:0:0:
64,192,45791,1,0,0:0:0:0:
320,192,45791,1,8,0:0:0:0:
192,192,45877,1,0,0:0:0:0:
320,192,45964,1,0,0:0:0:0:
64,192,46051,1,0,0:0:0:0:
320,192,46138,1,0,0:0:0:0:
192,192,46138,1,0,0:0:0:0:
448,192,46138,128,0,46659:0:0:0:0:
192,192,46398,1,0,0:0:0:0:
64,192,46659,128,0,47527:0:0:0:0:
320,192,46659,1,0,0:0:0:0:
192,192,46832,1,8,0:0:0:0:
320,192,46919,1,0,0:0:0:0:
448,192,46919,1,0,0:0:0:0:
192,192,47006,1,0,0:0:0:0:
320,192,47092,1,0,0:0:0:0:
192,192,47180,1,10,0:0:0:0:
448,192,47180,1,8,0:0:0:0:
320,192,47353,1,8,0:0:0:0:
448,192,47353,1,8,0:0:0:0:
192,192,47440,1,8,0:0:0:0:
448,192,47527,1,2,0:0:0:0:
320,192,47527,1,2,0:0:0:0:
192,192,47613,1,0,0:0:0:0:
64,192,47701,1,0,0:0:0:0:
448,192,47701,1,0,0:0:0:0:
320,192,47787,1,0,0:0:0:0:
192,192,47787,1,0,0:0:0:0:
64,192,47874,1,4,0:0:0:0:
448,192,47961,1,0,0:0:0:0:
320,192,48047,1,0,0:0:0:0:
192,192,48047,1,0,0:0:0:0:
64,192,48134,1,0,0:0:0:0:
448,192,48222,1,0,0:0:0:0:
320,192,48222,1,8,0:0:0:0:
64,192,48308,1,0,0:0:0:0:
192,192,48308,1,0,0:0:0:0:
320,192,48395,1,0,0:0:0:0:
192,192,48482,1,0,0:0:0:0:
448,192,48568,1,4,0:0:0:0:
64,192,48568,1,0,0:0:0:0:
320,192,48568,1,8,0:0:0:0:
192,192,48655,1,0,0:0:0:0:
448,192,48742,1,0,0:0:0:0:
64,192,48742,1,0,0:0:0:0:
320,192,48829,1,0,0:0:0:0:
448,192,48916,1,0,0:0:0:0:
192,192,48916,1,8,0:0:0:0:
64,192,48916,1,0,0:0:0:0:
320,192,49002,1,0,0:0:0:0:
448,192,49089,1,0,0:0:0:0:
320,192,49176,1,0,0:0:0:0:
64,192,49176,1,0,0:0:0:0:
192,192,49263,1,0,0:0:0:0:
448,192,49263,1,8,0:0:0:0:
64,192,49350,1,0,0:0:0:0:
192,192,49437,1,0,0:0:0:0:
320,192,49437,1,0,0:0:0:0:
448,192,49523,1,0,0:0:0:0:
192,192,49610,1,8,0:0:0:0:
320,192,49610,1,0,0:0:0:0:
64,192,49697,1,0,0:0:0:0:
448,192,49697,1,0,0:0:0:0:
192,192,49784,1,0,0:0:0:0:
320,192,49871,1,0,0:0:0:0:
448,192,49957,1,4,0:0:0:0:
64,192,49957,1,0,0:0:0:0:
192,192,49957,1,4,0:0:0:0:
320,192,50044,1,0,0:0:0:0:
448,192,50131,1,0,0:0:0:0:
192,192,50131,1,0,0:0:0:0:
320,192,50217,1,0,0:0:0:0:
192,192,50305,1,2,0:0:0:0:
64,192,50305,1,0,0:0:0:0:
448,192,50305,1,0,0:0:0:0:
320,192,50392,1,0,0:0:0:0:
192,192,50478,1,0,0:0:0:0:
320,192,50565,1,0,0:0:0:0:
448,192,50565,1,0,0:0:0:0:
64,192,50652,1,0,0:0:0:0:
192,192,50652,1,4,0:0:0:0:
448,192,50738,1,0,0:0:0:0:
192,192,50826,1,0,0:0:0:0:
320,192,50826,1,0,0:0:0:0:
64,192,50912,1,0,0:0:0:0:
320,192,50999,1,8,0:0:0:0:
448,192,50999,1,0,0:0:0:0:
192,192,51086,1,0,0:0:0:0:
64,192,51086,1,0,0:0:0:0:
320,192,51172,1,0,0:0:0:0:
448,192,51172,1,0,0:0:0:0:
192,192,51259,1,0,0:0:0:0:
64,192,51347,1,0,0:0:0:0:
320,192,51347,1,12,0:0:0:0:
448,192,51347,1,4,0:0:0:0:
192,192,51433,1,0,0:0:0:0:
448,192,51520,1,0,0:0:0:0:
320,192,51607,1,0,0:0:0:0:
192,192,51693,1,0,0:0:0:0:
64,192,51693,1,4,0:0:0:0:
448,192,51693,1,4,0:0:0:0:
320,192,51780,1,0,0:0:0:0:
64,192,51867,1,0,0:0:0:0:
448,192,51954,1,4,0:0:0:0:
320,192,51954,1,4,0:0:0:0:
192,192,51954,1,0,0:0:0:0:
64,192,52041,1,0,0:0:0:0:
448,192,52127,1,0,0:0:0:0:
192,192,52214,1,4,0:0:0:0:
64,192,52214,1,0,0:0:0:0:
320,192,52214,1,0,0:0:0:0:
448,192,52301,1,0,0:0:0:0:
192,192,52388,1,0,0:0:0:0:
64,192,52388,1,0,0:0:0:0:
448,192,52475,1,4,0:0:0:0:
320,192,52475,1,4,0:0:0:0:
192,192,52562,1,0,0:0:0:0:
448,192,52648,1,0,0:0:0:0:
64,192,52735,1,4,0:0:0:0:
192,192,52735,1,4,0:0:0:0:
320,192,52735,1,0,0:0:0:0:
320,192,52909,1,2,0:0:0:0:
192,192,52909,1,0,0:0:0:0:
448,192,52909,1,0,0:0:0:0:
64,192,52996,1,0,0:0:0:0:
320,192,53082,1,0,0:0:0:0:
448,192,53082,1,0,0:0:0:0:
192,192,53082,128,4,53256:0:0:0:0:
64,192,53342,1,0,0:0:0:0:
448,192,53342,128,0,53517:0:0:0:0:
320,192,53603,1,0,0:0:0:0:
192,192,53603,1,0,0:0:0:0:
64,192,53777,1,0,0:0:0:0:
320,192,53777,1,0,0:0:0:0:
192,192,53777,1,0,0:0:0:0:
64,192,53951,128,0,54037:0:0:0:0:
448,192,54037,1,0,0:0:0:0:
320,192,54037,128,0,54211:0:0:0:0:
448,192,54297,128,0,54472:0:0:0:0:
192,192,54297,1,0,0:0:0:0:
64,192,54297,1,0,0:0:0:0:
320,192,54384,1,0,0:0:0:0:
64,192,54472,1,4,0:0:0:0:
192,192,54472,128,0,54732:0:0:0:0:
448,192,54732,1,0,0:0:0:0:
320,192,54732,128,0,54992:0:0:0:0:
64,192,54905,1,0,0:0:0:0:
448,192,54992,128,0,55166:0:0:0:0:
192,192,54992,1,0,0:0:0:0:
192,192,55166,1,0,0:0:0:0:
64,192,55166,128,0,55426:0:0:0:0:
320,192,55426,1,0,0:0:0:0:
448,192,55426,1,0,0:0:0:0:
192,192,55426,1,0,0:0:0:0:
448,192,55687,1,0,0:0:0:0:
320,192,55687,1,0,0:0:0:0:
64,192,55773,1,0,0:0:0:0:
320,192,55860,1,0,0:0:0:0:
192,192,55860,1,0,0:0:0:0:
448,192,55860,128,0,56034:0:0:0:0:
192,192,56121,128,0,56294:0:0:0:0:
64,192,56121,1,0,0:0:0:0:
448,192,56381,128,0,56555:0:0:0:0:
320,192,56381,1,0,0:0:0:0:
64,192,56555,1,0,0:0:0:0:
192,192,56555,128,4,56815:0:0:0:0:
448,192,56815,128,0,56988:0:0:0:0:
320,192,56988,1,0,0:0:0:0:
64,192,57076,128,0,57162:0:0:0:0:
192,192,57162,1,0,0:0:0:0:
320,192,57162,1,0,0:0:0:0:
448,192,57249,1,8,0:0:0:0:
64,192,57422,1,8,0:0:0:0:
448,192,57422,1,8,0:0:0:0:
192,192,57422,1,8,0:0:0:0:
320,192,57509,128,8,57770:0:0:0:0:
64,192,57683,1,8,0:0:0:0:
192,192,57770,1,8,0:0:0:0:
448,192,57770,1,8,0:0:0:0:
64,192,57943,128,8,58204:0:0:0:0:
192,192,57943,1,8,0:0:0:0:
448,192,57943,1,8,0:0:0:0:
320,192,58030,1,8,0:0:0:0:
448,192,58117,1,8,0:0:0:0:
320,192,58204,1,8,0:0:0:0:
192,192,58291,1,0,0:0:0:0:
448,192,58291,128,0,58464:0:0:0:0:
320,192,58464,1,8,0:0:0:0:
192,192,58551,1,8,0:0:0:0:
320,192,58638,1,0,0:0:0:0:
448,192,58638,1,0,0:0:0:0:
64,192,58638,128,4,58812:0:0:0:0:
448,192,58898,1,0,0:0:0:0:
192,192,58898,128,0,59072:0:0:0:0:
448,192,59159,1,0,0:0:0:0:
320,192,59159,1,0,0:0:0:0:
64,192,59332,1,0,0:0:0:0:
448,192,59332,1,0,0:0:0:0:
192,192,59332,1,0,0:0:0:0:
448,192,59506,128,0,59592:0:0:0:0:
320,192,59592,1,0,0:0:0:0:
64,192,59592,128,0,59767:0:0:0:0:
448,192,59853,128,0,60027:0:0:0:0:
320,192,59853,1,0,0:0:0:0:
192,192,59853,1,0,0:0:0:0:
64,192,59940,1,0,0:0:0:0:
320,192,60027,1,0,0:0:0:0:
192,192,60027,128,0,60287:0:0:0:0:
448,192,60287,1,0,0:0:0:0:
320,192,60287,128,0,60547:0:0:0:0:
64,192,60461,1,0,0:0:0:0:
192,192,60547,128,0,60722:0:0:0:0:
448,192,60547,1,0,0:0:0:0:
448,192,60722,1,0,0:0:0:0:
64,192,60722,128,0,60982:0:0:0:0:
320,192,60982,1,0,0:0:0:0:
448,192,60982,1,0,0:0:0:0:
192,192,60982,1,0,0:0:0:0:
320,192,61242,1,0,0:0:0:0:
192,192,61242,1,0,0:0:0:0:
448,192,61329,1,0,0:0:0:0:
64,192,61416,1,2,0:0:0:0:
192,192,61416,1,2,0:0:0:0:
320,192,61416,128,2,61589:0:0:0:0:
64,192,61589,128,2,61763:0:0:0:0:
320,192,61676,1,2,0:0:0:0:
192,192,61763,128,2,61850:0:0:0:0:
448,192,61850,128,2,62023:0:0:0:0:
64,192,62023,128,2,62197:0:0:0:0:
320,192,62023,1,2,0:0:0:0:
320,192,62110,128,4,62284:0:0:0:0:
192,192,62284,128,2,62457:0:0:0:0:
448,192,62284,1,2,0:0:0:0:
64,192,62371,1,2,0:0:0:0:
448,192,62457,128,2,62544:0:0:0:0:
64,192,62457,1,2,0:0:0:0:
320,192,62544,128,2,62717:0:0:0:0:
64,192,62717,1,4,0:0:0:0:
448,192,62717,1,2,0:0:0:0:
192,192,62805,1,2,0:0:0:0:
448,192,62805,1,2,0:0:0:0:
320,192,62978,1,2,0:0:0:0:
448,192,63065,1,2,0:0:0:0:
192,192,63065,1,2,0:0:0:0:
64,192,63065,1,6,0:0:0:0:
448,192,63152,1,2,0:0:0:0:
64,192,63238,1,2,0:0:0:0:
192,192,63326,1,2,0:0:0:0:
320,192,63326,1,2,0:0:0:0:
64,192,63499,1,10,0:0:0:0:
320,192,63499,1,10,0:0:0:0:
448,192,63499,1,10,0:0:0:0:
64,192,63672,1,10,0:0:0:0:
448,192,63759,1,10,0:0:0:0:
320,192,63759,1,10,0:0:0:0:
192,192,63759,1,10,0:0:0:0:
448,192,63933,1,10,0:0:0:0:
320,192,64020,1,10,0:0:0:0:
192,192,64020,1,10,0:0:0:0:
64,192,64020,1,10,0:0:0:0:
192,192,64193,1,0,0:0:0:0:
448,192,64193,1,0,0:0:0:0:
64,192,64193,128,4,65322:0:0:0:0:
320,192,64367,1,0,0:0:0:0:
192,192,64454,1,0,0:0:0:0:
448,192,64454,1,0,0:0:0:0:
320,192,64627,1,0,0:0:0:0:
192,192,64714,1,0,0:0:0:0:
448,192,64714,1,0,0:0:0:0:
320,192,64801,1,0,0:0:0:0:
192,192,64888,1,0,0:0:0:0:
448,192,64888,1,0,0:0:0:0:
320,192,64888,1,0,0:0:0:0:
448,192,65062,1,0,0:0:0:0:
192,192,65062,1,0,0:0:0:0:
320,192,65235,1,0,0:0:0:0:
448,192,65322,1,0,0:0:0:0:
192,192,65322,1,4,0:0:0:0:
64,192,65496,1,0,0:0:0:0:
320,192,65496,1,4,0:0:0:0:
448,192,65496,1,4,0:0:0:0:
64,192,65756,128,8,66277:0:0:0:0:
192,192,65756,1,0,0:0:0:0:
448,192,65756,1,0,0:0:0:0:
320,192,65842,1,8,0:0:0:0:
192,192,65930,1,8,0:0:0:0:
320,192,66017,1,8,0:0:0:0:
448,192,66017,1,8,0:0:0:0:
192,192,66103,1,8,0:0:0:0:
320,192,66190,1,8,0:0:0:0:
192,192,66277,1,8,0:0:0:0:
448,192,66277,1,8,0:0:0:0:
64,192,66392,1,8,0:0:0:0:
320,192,66392,1,8,0:0:0:0:
448,192,66392,1,8,0:0:0:0:
320,192,66508,1,8,0:0:0:0:
192,192,66508,1,8,0:0:0:0:
448,192,66624,1,8,0:0:0:0:
64,192,66624,1,8,0:0:0:0:
320,192,66624,1,8,0:0:0:0:
64,192,66740,1,8,0:0:0:0:
192,192,66740,1,8,0:0:0:0:
448,192,66740,1,8,0:0:0:0:
448,192,66856,1,8,0:0:0:0:
320,192,66856,1,8,0:0:0:0:
192,192,66856,1,8,0:0:0:0:
64,192,66972,1,4,0:0:0:0:
192,192,66972,1,4,0:0:0:0:
320,192,67058,1,0,0:0:0:0:
448,192,67145,1,0,0:0:0:0:
192,192,67232,1,0,0:0:0:0:
320,192,67318,1,8,0:0:0:0:
64,192,67318,1,0,0:0:0:0:
448,192,67318,1,0,0:0:0:0:
192,192,67405,1,0,0:0:0:0:
320,192,67492,1,0,0:0:0:0:
448,192,67492,1,0,0:0:0:0:
64,192,67579,1,0,0:0:0:0:
192,192,67666,1,0,0:0:0:0:
64,192,67752,1,0,0:0:0:0:
320,192,67752,1,0,0:0:0:0:
448,192,67839,1,0,0:0:0:0:
320,192,67926,1,0,0:0:0:0:
192,192,68013,1,0,0:0:0:0:
64,192,68013,1,0,0:0:0:0:
448,192,68013,1,8,0:0:0:0:
320,192,68100,1,0,0:0:0:0:
64,192,68187,1,0,0:0:0:0:
448,192,68187,1,0,0:0:0:0:
320,192,68273,1,0,0:0:0:0:
192,192,68360,1,0,0:0:0:0:
448,192,68447,1,0,0:0:0:0:
64,192,68534,1,0,0:0:0:0:
192,192,68621,1,0,0:0:0:0:
448,192,68707,1,8,0:0:0:0:
64,192,68707,1,0,0:0:0:0:
320,192,68707,1,0,0:0:0:0:
192,192,68794,1,0,0:0:0:0:
448,192,68881,1,0,0:0:0:0:
64,192,68881,1,0,0:0:0:0:
320,192,68967,1,0,0:0:0:0:
192,192,69055,1,0,0:0:0:0:
448,192,69142,1,0,0:0:0:0:
320,192,69142,1,0,0:0:0:0:
64,192,69228,1,0,0:0:0:0:
448,192,69315,1,0,0:0:0:0:
64,192,69402,1,0,0:0:0:0:
320,192,69402,1,0,0:0:0:0:
192,192,69402,1,8,0:0:0:0:
448,192,69488,1,0,0:0:0:0:
192,192,69576,1,0,0:0:0:0:
64,192,69576,1,0,0:0:0:0:
320,192,69662,1,0,0:0:0:0:
64,192,69749,1,0,0:0:0:0:
192,192,69749,1,0,0:0:0:0:
448,192,69836,1,0,0:0:0:0:
320,192,69922,1,0,0:0:0:0:
448,192,70009,1,0,0:0:0:0:
192,192,70097,1,0,0:0:0:0:
320,192,70097,1,8,0:0:0:0:
64,192,70097,1,0,0:0:0:0:
448,192,70183,1,0,0:0:0:0:
192,192,70270,1,0,0:0:0:0:
320,192,70357,1,0,0:0:0:0:
64,192,70443,1,0,0:0:0:0:
192,192,70443,1,0,0:0:0:0:
448,192,70530,1,0,0:0:0:0:
64,192,70617,1,0,0:0:0:0:
448,192,70704,1,0,0:0:0:0:
320,192,70791,1,0,0:0:0:0:
192,192,70791,1,8,0:0:0:0:
64,192,70791,1,0,0:0:0:0:
448,192,70877,1,0,0:0:0:0:
192,192,70964,1,0,0:0:0:0:
320,192,70964,1,0,0:0:0:0:
448,192,71051,1,0,0:0:0:0:
192,192,71138,1,8,0:0:0:0:
64,192,71138,1,0,0:0:0:0:
448,192,71659,1,0,0:0:0:0:
448,192,72180,1,8,0:0:0:0:
192,192,72180,1,12,0:0:0:0:
192,192,72353,1,0,0:0:0:0:
64,192,72440,1,0,0:0:0:0:
320,192,72527,1,4,0:0:0:0:
448,192,72527,1,4,0:0:0:0:
64,192,72613,1,0,0:0:0:0:
192,192,72701,1,0,0:0:0:0:
320,192,72787,1,0,0:0:0:0:
448,192,72874,1,8,0:0:0:0:
64,192,72874,1,0,0:0:0:0:
320,192,72961,1,0,0:0:0:0:
448,192,73047,1,0,0:0:0:0:
192,192,73047,1,0,0:0:0:0:
64,192,73134,1,0,0:0:0:0:
192,192,73222,1,0,0:0:0:0:
320,192,73222,1,4,0:0:0:0:
448,192,73308,1,0,0:0:0:0:
192,192,73395,1,0,0:0:0:0:
64,192,73395,1,0,0:0:0:0:
320,192,73482,1,0,0:0:0:0:
448,192,73568,1,4,0:0:0:0:
192,192,73568,1,8,0:0:0:0:
64,192,73655,1,0,0:0:0:0:
192,192,73742,1,0,0:0:0:0:
64,192,73829,1,0,0:0:0:0:
320,192,73916,1,12,0:0:0:0:
448,192,73916,1,0,0:0:0:0:
192,192,74002,1,0,0:0:0:0:
448,192,74089,1,0,0:0:0:0:
192,192,74176,1,0,0:0:0:0:
64,192,74263,1,0,0:0:0:0:
320,192,74263,1,8,0:0:0:0:
448,192,74263,1,8,0:0:0:0:
192,192,74350,1,0,0:0:0:0:
320,192,74437,1,0,0:0:0:0:
64,192,74523,1,0,0:0:0:0:
448,192,74610,1,4,0:0:0:0:
320,192,74610,1,4,0:0:0:0:
64,192,74697,1,0,0:0:0:0:
192,192,74784,1,8,0:0:0:0:
320,192,74784,1,0,0:0:0:0:
64,192,74871,1,0,0:0:0:0:
320,192,74957,1,8,0:0:0:0:
192,192,74957,1,0,0:0:0:0:
448,192,74957,1,12,0:0:0:0:
64,192,75044,1,0,0:0:0:0:
320,192,75131,1,0,0:0:0:0:
192,192,75217,1,0,0:0:0:0:
64,192,75305,1,8,0:0:0:0:
320,192,75305,1,4,0:0:0:0:
192,192,75392,1,0,0:0:0:0:
320,192,75478,1,0,0:0:0:0:
64,192,75565,1,0,0:0:0:0:
320,192,75652,1,4,0:0:0:0:
448,192,75652,1,4,0:0:0:0:
192,192,75652,1,8,0:0:0:0:
64,192,75738,1,0,0:0:0:0:
448,192,75826,1,0,0:0:0:0:
320,192,75826,1,0,0:0:0:0:
192,192,75912,1,0,0:0:0:0:
320,192,75999,1,0,0:0:0:0:
448,192,75999,1,0,0:0:0:0:
64,192,75999,1,0,0:0:0:0:
192,192,76086,1,0,0:0:0:0:
320,192,76172,1,0,0:0:0:0:
64,192,76259,1,0,0:0:0:0:
448,192,76347,1,4,0:0:0:0:
320,192,76347,1,4,0:0:0:0:
320,192,76433,1,0,0:0:0:0:
64,192,76520,1,0,0:0:0:0:
192,192,76520,1,0,0:0:0:0:
192,192,76607,1,0,0:0:0:0:
448,192,76693,1,8,0:0:0:0:
320,192,76693,1,8,0:0:0:0:
64,192,76693,1,8,0:0:0:0:
192,192,76780,1,0,0:0:0:0:
320,192,76867,1,0,0:0:0:0:
192,192,76954,1,8,0:0:0:0:
64,192,76954,1,8,0:0:0:0:
448,192,76954,1,8,0:0:0:0:
320,192,77041,1,0,0:0:0:0:
192,192,77127,1,0,0:0:0:0:
320,192,77214,1,12,0:0:0:0:
448,192,77214,1,8,0:0:0:0:
448,192,77301,1,0,0:0:0:0:
64,192,77388,1,8,0:0:0:0:
192,192,77388,1,8,0:0:0:0:
320,192,77388,1,4,0:0:0:0:
448,192,77475,1,0,0:0:0:0:
320,192,77562,1,0,0:0:0:0:
64,192,77648,1,0,0:0:0:0:
320,192,77735,1,0,0:0:0:0:
192,192,77735,128,2,77909:0:0:0:0:
448,192,77735,1,0,0:0:0:0:
64,192,77822,1,0,0:0:0:0:
320,192,77909,1,0,0:0:0:0:
448,192,77909,128,2,78082:0:0:0:0:
64,192,77996,1,0,0:0:0:0:
192,192,78082,1,4,0:0:0:0:
320,192,78082,1,4,0:0:0:0:
64,192,78169,1,0,0:0:0:0:
448,192,78256,1,0,0:0:0:0:
320,192,78342,1,0,0:0:0:0:
192,192,78342,1,0,0:0:0:0:
64,192,78430,1,4,0:0:0:0:
192,192,78517,1,0,0:0:0:0:
64,192,78603,1,0,0:0:0:0:
448,192,78603,1,0,0:0:0:0:
320,192,78603,1,0,0:0:0:0:
192,192,78690,1,0,0:0:0:0:
320,192,78777,1,8,0:0:0:0:
192,192,78863,1,0,0:0:0:0:
448,192,78863,1,0,0:0:0:0:
64,192,78863,1,0,0:0:0:0:
320,192,78951,1,0,0:0:0:0:
448,192,79037,1,0,0:0:0:0:
320,192,79124,1,0,0:0:0:0:
192,192,79124,1,0,0:0:0:0:
64,192,79124,1,0,0:0:0:0:
448,192,79211,1,0,0:0:0:0:
320,192,79297,1,0,0:0:0:0:
192,192,79297,1,0,0:0:0:0:
64,192,79384,1,0,0:0:0:0:
192,192,79472,1,4,0:0:0:0:
320,192,79472,1,0,0:0:0:0:
448,192,79472,1,0,0:0:0:0:
64,192,79558,1,0,0:0:0:0:
192,192,79645,1,0,0:0:0:0:
64,192,79732,1,0,0:0:0:0:
320,192,79732,1,0,0:0:0:0:
448,192,79732,1,0,0:0:0:0:
192,192,79818,1,4,0:0:0:0:
320,192,79905,1,0,0:0:0:0:
448,192,79992,1,0,0:0:0:0:
192,192,79992,1,0,0:0:0:0:
320,192,80079,1,0,0:0:0:0:
192,192,80166,1,8,0:0:0:0:
320,192,80252,1,0,0:0:0:0:
448,192,80252,1,0,0:0:0:0:
64,192,80252,1,0,0:0:0:0:
192,192,80339,1,0,0:0:0:0:
320,192,80426,1,0,0:0:0:0:
448,192,80513,1,4,0:0:0:0:
192,192,80513,1,0,0:0:0:0:
64,192,80513,1,0,0:0:0:0:
320,192,80600,1,0,0:0:0:0:
448,192,80687,1,0,0:0:0:0:
64,192,80687,1,0,0:0:0:0:
192,192,80773,1,0,0:0:0:0:
320,192,80860,1,4,0:0:0:0:
64,192,80860,1,0,0:0:0:0:
448,192,80860,1,0,0:0:0:0:
192,192,80947,1,0,0:0:0:0:
320,192,81034,1,0,0:0:0:0:
192,192,81121,1,0,0:0:0:0:
64,192,81121,1,0,0:0:0:0:
320,192,81207,1,8,0:0:0:0:
448,192,81294,1,0,0:0:0:0:
192,192,81381,1,0,0:0:0:0:
64,192,81381,1,0,0:0:0:0:
320,192,81381,1,0,0:0:0:0:
448,192,81467,1,0,0:0:0:0:
320,192,81555,1,8,0:0:0:0:
192,192,81642,1,0,0:0:0:0:
64,192,81642,1,0,0:0:0:0:
448,192,81642,1,0,0:0:0:0:
320,192,81728,1,0,0:0:0:0:
64,192,81815,1,0,0:0:0:0:
448,192,81902,1,4,0:0:0:0:
320,192,81902,1,0,0:0:0:0:
192,192,81902,1,0,0:0:0:0:
64,192,81988,1,0,0:0:0:0:
192,192,82076,1,0,0:0:0:0:
320,192,82076,1,0,0:0:0:0:
448,192,82162,1,0,0:0:0:0:
320,192,82249,1,0,0:0:0:0:
192,192,82249,1,0,0:0:0:0:
64,192,82249,128,12,82770:0:0:0:0:
448,192,82336,1,0,0:0:0:0:
192,192,82422,1,0,0:0:0:0:
448,192,82509,1,0,0:0:0:0:
192,192,82597,1,0,0:0:0:0:
320,192,82597,1,0,0:0:0:0:
448,192,82683,1,0,0:0:0:0:
320,192,82770,128,12,83291:0:0:0:0:
192,192,82770,1,0,0:0:0:0:
448,192,82857,1,0,0:0:0:0:
192,192,82943,1,0,0:0:0:0:
64,192,83030,1,0,0:0:0:0:
448,192,83030,1,0,0:0:0:0:
192,192,83117,1,0,0:0:0:0:
64,192,83204,1,0,0:0:0:0:
448,192,83291,1,8,0:0:0:0:
192,192,83291,1,8,0:0:0:0:
64,192,83377,1,8,0:0:0:0:
192,192,83464,1,8,0:0:0:0:
448,192,83464,1,8,0:0:0:0:
320,192,83551,1,8,0:0:0:0:
64,192,83638,1,4,0:0:0:0:
192,192,83638,1,4,0:0:0:0:
448,192,83638,1,0,0:0:0:0:
320,192,83725,1,0,0:0:0:0:
64,192,83812,1,0,0:0:0:0:
448,192,83898,1,0,0:0:0:0:
320,192,83985,1,0,0:0:0:0:
64,192,84072,1,0,0:0:0:0:
192,192,84159,1,0,0:0:0:0:
320,192,84159,1,4,0:0:0:0:
448,192,84159,1,4,0:0:0:0:
64,192,84246,1,0,0:0:0:0:
320,192,84332,1,0,0:0:0:0:
448,192,84419,1,0,0:0:0:0:
64,192,84419,1,0,0:0:0:0:
192,192,84419,1,0,0:0:0:0:
320,192,84506,1,0,0:0:0:0:
64,192,84592,1,0,0:0:0:0:
320,192,84680,1,0,0:0:0:0:
448,192,84680,1,0,0:0:0:0:
64,192,84767,1,0,0:0:0:0:
192,192,84853,1,0,0:0:0:0:
320,192,84853,1,0,0:0:0:0:
448,192,84853,1,0,0:0:0:0:
64,192,84940,1,0,0:0:0:0:
192,192,85027,1,0,0:0:0:0:
320,192,85027,1,0,0:0:0:0:
448,192,85027,1,0,0:0:0:0:
64,192,85113,1,2,0:0:0:0:
192,192,85201,1,2,0:0:0:0:
192,192,85287,1,2,0:0:0:0:
448,192,85287,1,2,0:0:0:0:
320,192,85374,1,2,0:0:0:0:
320,192,85461,1,2,0:0:0:0:
192,192,85547,1,12,0:0:0:0:
64,192,85547,1,12,0:0:0:0:
448,192,85547,1,8,0:0:0:0:
320,192,85634,1,0,0:0:0:0:
64,192,85722,1,0,0:0:0:0:
320,192,85808,1,0,0:0:0:0:
448,192,85808,1,0,0:0:0:0:
192,192,85808,1,0,0:0:0:0:
64,192,85895,1,0,0:0:0:0:
192,192,85982,1,0,0:0:0:0:
64,192,86068,1,8,0:0:0:0:
320,192,86068,1,8,0:0:0:0:
448,192,86068,1,8,0:0:0:0:
192,192,86155,1,0,0:0:0:0:
448,192,86242,1,0,0:0:0:0:
320,192,86329,1,0,0:0:0:0:
192,192,86416,1,4,0:0:0:0:
64,192,86416,1,4,0:0:0:0:
448,192,86416,1,8,0:0:0:0:
320,192,86502,1,0,0:0:0:0:
192,192,86589,1,0,0:0:0:0:
448,192,86676,1,0,0:0:0:0:
320,192,86763,1,0,0:0:0:0:
192,192,86763,1,0,0:0:0:0:
64,192,86850,1,0,0:0:0:0:
320,192,86937,1,0,0:0:0:0:
448,192,86937,1,0,0:0:0:0:
192,192,86937,1,8,0:0:0:0:
64,192,87023,1,0,0:0:0:0:
320,192,87110,1,0,0:0:0:0:
192,192,87197,1,0,0:0:0:0:
64,192,87197,1,0,0:0:0:0:
448,192,87197,1,0,0:0:0:0:
320,192,87284,1,0,0:0:0:0:
192,192,87371,1,0,0:0:0:0:
64,192,87457,1,12,0:0:0:0:
448,192,87457,1,12,0:0:0:0:
192,192,87544,1,0,0:0:0:0:
64,192,87631,1,0,0:0:0:0:
320,192,87631,1,0,0:0:0:0:
448,192,87631,1,0,0:0:0:0:
192,192,87717,1,0,0:0:0:0:
448,192,87805,1,4,0:0:0:0:
320,192,87805,1,8,0:0:0:0:
192,192,87892,1,0,0:0:0:0:
64,192,87978,1,0,0:0:0:0:
320,192,87978,1,0,0:0:0:0:
192,192,88065,1,8,0:0:0:0:
448,192,88065,1,0,0:0:0:0:
320,192,88152,1,0,0:0:0:0:
64,192,88238,1,0,0:0:0:0:
192,192,88238,1,8,0:0:0:0:
448,192,88326,1,0,0:0:0:0:
320,192,88326,1,0,0:0:0:0:
192,192,88412,1,0,0:0:0:0:
64,192,88499,1,12,0:0:0:0:
320,192,88499,1,12,0:0:0:0:
448,192,88499,1,12,0:0:0:0:
448,192,88672,1,0,0:0:0:0:
192,192,88847,1,0,0:0:0:0:
64,192,88904,1,0,0:0:0:0:
192,192,88962,1,0,0:0:0:0:
320,192,89020,1,0,0:0:0:0:
448,192,89077,1,0,0:0:0:0:
64,192,89077,1,0,0:0:0:0:
320,192,89136,1,0,0:0:0:0:
192,192,89193,1,0,0:0:0:0:
64,192,89193,1,0,0:0:0:0:
448,192,89193,128,4,90148:0:0:0:0:
320,192,89454,1,0,0:0:0:0:
192,192,89454,1,0,0:0:0:0:
64,192,89541,1,0,0:0:0:0:
320,192,89627,1,0,0:0:0:0:
192,192,89714,1,0,0:0:0:0:
64,192,89801,1,0,0:0:0:0:
192,192,89888,1,0,0:0:0:0:
320,192,89888,1,0,0:0:0:0:
64,192,89975,1,0,0:0:0:0:
192,192,90062,1,0,0:0:0:0:
320,192,90062,1,0,0:0:0:0:
64,192,90148,1,0,0:0:0:0:
192,192,90235,1,0,0:0:0:0:
320,192,90322,1,4,0:0:0:0:
448,192,90322,1,4,0:0:0:0:
64,192,90322,1,0,0:0:0:0:
192,192,90496,128,4,91537:0:0:0:0:
64,192,90496,1,4,0:0:0:0:
320,192,90756,1,0,0:0:0:0:
64,192,90842,1,0,0:0:0:0:
320,192,90930,1,0,0:0:0:0:
448,192,90930,1,0,0:0:0:0:
64,192,91017,1,0,0:0:0:0:
320,192,91103,1,0,0:0:0:0:
448,192,91190,1,0,0:0:0:0:
320,192,91277,1,0,0:0:0:0:
64,192,91277,1,0,0:0:0:0:
448,192,91363,1,0,0:0:0:0:
320,192,91451,1,0,0:0:0:0:
64,192,91451,1,0,0:0:0:0:
448,192,91537,1,0,0:0:0:0:
64,192,91624,1,0,0:0:0:0:
192,192,91711,1,4,0:0:0:0:
320,192,91711,1,4,0:0:0:0:
448,192,91711,1,0,0:0:0:0:
448,192,91884,1,4,0:0:0:0:
64,192,91884,128,4,92492:0:0:0:0:
320,192,92145,1,0,0:0:0:0:
192,192,92232,1,0,0:0:0:0:
320,192,92318,1,0,0:0:0:0:
448,192,92318,1,0,0:0:0:0:
192,192,92405,1,0,0:0:0:0:
320,192,92492,1,0,0:0:0:0:
448,192,92579,1,0,0:0:0:0:
192,192,92666,1,4,0:0:0:0:
320,192,92666,1,0,0:0:0:0:
64,192,92666,1,4,0:0:0:0:
448,192,92752,1,0,0:0:0:0:
192,192,92839,1,0,0:0:0:0:
64,192,92839,1,0,0:0:0:0:
320,192,92926,1,0,0:0:0:0:
448,192,93013,1,0,0:0:0:0:
192,192,93013,1,0,0:0:0:0:
320,192,93100,1,0,0:0:0:0:
448,192,93187,1,0,0:0:0:0:
320,192,93273,1,4,0:0:0:0:
192,192,93273,128,4,93881:0:0:0:0:
448,192,93447,1,8,0:0:0:0:
320,192,93534,1,8,0:0:0:0:
64,192,93534,1,8,0:0:0:0:
448,192,93621,1,8,0:0:0:0:
320,192,93707,1,8,0:0:0:0:
64,192,93707,1,8,0:0:0:0:
448,192,93794,1,8,0:0:0:0:
320,192,93881,1,8,0:0:0:0:
448,192,93967,1,8,0:0:0:0:
320,192,94055,1,8,0:0:0:0:
192,192,94055,1,12,0:0:0:0:
64,192,94055,1,8,0:0:0:0:
448,192,94142,1,8,0:0:0:0:
320,192,94228,1,8,0:0:0:0:
192,192,94315,1,8,0:0:0:0:
320,192,94402,1,12,0:0:0:0:
64,192,94402,1,8,0:0:0:0:
448,192,94402,1,8,0:0:0:0:
192,192,94488,1,8,0:0:0:0:
320,192,94576,1,8,0:0:0:0:
448,192,94576,1,8,0:0:0:0:
192,192,94662,1,8,0:0:0:0:
448,192,94749,1,4,0:0:0:0:
64,192,94749,1,0,0:0:0:0:
320,192,94749,128,4,95704:0:0:0:0:
192,192,95009,1,0,0:0:0:0:
448,192,95097,1,0,0:0:0:0:
64,192,95097,1,0,0:0:0:0:
192,192,95183,1,0,0:0:0:0:
64,192,95270,1,0,0:0:0:0:
448,192,95357,1,0,0:0:0:0:
64,192,95443,1,0,0:0:0:0:
192,192,95443,1,0,0:0:0:0:
448,192,95530,1,0,0:0:0:0:
192,192,95617,1,0,0:0:0:0:
64,192,95617,1,0,0:0:0:0:
448,192,95704,1,0,0:0:0:0:
192,192,95791,1,0,0:0:0:0:
320,192,95877,1,4,0:0:0:0:
448,192,95877,1,0,0:0:0:0:
64,192,95877,1,4,0:0:0:0:
192,192,96051,1,4,0:0:0:0:
448,192,96051,128,4,97092:0:0:0:0:
192,192,96312,1,0,0:0:0:0:
320,192,96398,1,0,0:0:0:0:
192,192,96485,1,0,0:0:0:0:
64,192,96485,1,0,0:0:0:0:
320,192,96572,1,0,0:0:0:0:
64,192,96659,1,0,0:0:0:0:
192,192,96746,1,0,0:0:0:0:
320,192,96832,1,0,0:0:0:0:
64,192,96832,128,2,97092:0:0:0:0:
192,192,96919,1,0,0:0:0:0:
320,192,97006,1,0,0:0:0:0:
192,192,97092,1,0,0:0:0:0:
320,192,97180,1,0,0:0:0:0:
64,192,97267,1,4,0:0:0:0:
192,192,97267,1,4,0:0:0:0:
448,192,97267,1,0,0:0:0:0:
192,192,97440,128,4,98222:0:0:0:0:
64,192,97440,1,4,0:0:0:0:
448,192,97701,1,0,0:0:0:0:
320,192,97787,1,0,0:0:0:0:
64,192,97874,1,0,0:0:0:0:
448,192,97874,1,0,0:0:0:0:
320,192,97961,1,0,0:0:0:0:
64,192,98047,1,0,0:0:0:0:
320,192,98222,1,4,0:0:0:0:
448,192,98222,128,4,98829:0:0:0:0:
64,192,98308,1,0,0:0:0:0:
192,192,98395,1,0,0:0:0:0:
320,192,98482,1,0,0:0:0:0:
192,192,98568,1,0,0:0:0:0:
320,192,98655,1,0,0:0:0:0:
192,192,98742,1,0,0:0:0:0:
320,192,98829,1,0,0:0:0:0:
64,192,98829,128,12,100478:0:0:0:0:
192,192,99002,1,0,0:0:0:0:
320,192,99089,1,0,0:0:0:0:
448,192,99089,128,0,99437:0:0:0:0:
192,192,99176,1,0,0:0:0:0:
320,192,99263,1,0,0:0:0:0:
192,192,99350,1,0,0:0:0:0:
320,192,99437,1,0,0:0:0:0:
192,192,99523,1,0,0:0:0:0:
320,192,99610,1,0,0:0:0:0:
448,192,99610,1,0,0:0:0:0:
192,192,99697,1,0,0:0:0:0:
448,192,99784,1,0,0:0:0:0:
192,192,99871,1,0,0:0:0:0:
448,192,99957,1,0,0:0:0:0:
320,192,99957,1,0,0:0:0:0:
192,192,100044,1,0,0:0:0:0:
320,192,100131,1,0,0:0:0:0:
192,192,100217,1,0,0:0:0:0:
448,192,100305,1,0,0:0:0:0:
320,192,100348,1,0,0:0:0:0:
192,192,100392,1,0,0:0:0:0:
