osu file format v14

[General]
AudioFilename: TAG - Alstroemeria 1.1.mp3
AudioLeadIn: 0
PreviewTime: -1
Countdown: 0
SampleSet: Soft
StackLeniency: 0.7
Mode: 3
LetterboxInBreaks: 0
SpecialStyle: 0
WidescreenStoryboard: 0

[Editor]
DistanceSpacing: 0.5
BeatDivisor: 4
GridSize: 32
TimelineZoom: 1

[Metadata]
Title:Alstroemeria
TitleUnicode:アルストロメリア
Artist:TAG
ArtistUnicode:TAG
Creator:IControl
Version:Another 1.1x
Source:jubeat copius
Tags:
BeatmapID:1997274
BeatmapSetID:956118

[Difficulty]
HPDrainRate:9
CircleSize:4
OverallDifficulty:9
ApproachRate:5
SliderMultiplier:1.4
SliderTickRate:1

[Events]
//Background and Video events
0,0,"alstroemeria-bouquet-closeup.jpg",0,0
//Break Periods
//Storyboard Layer 0 (Background)
//Storyboard Layer 1 (Fail)
//Storyboard Layer 2 (Pass)
//Storyboard Layer 3 (Foreground)
//Storyboard Layer 4 (Overlay)
//Storyboard Sound Samples

[TimingPoints]
333,378.787878787879,4,2,1,25,1,0

[HitObjects]
448,192,333,5,4,0:0:0:0:
64,192,333,1,0,0:0:0:0:
320,192,333,1,4,0:0:0:0:
320,192,616,1,0,0:0:0:0:
64,192,616,1,0,0:0:0:0:
192,192,711,1,0,0:0:0:0:
64,192,805,1,0,0:0:0:0:
192,192,901,1,0,0:0:0:0:
320,192,995,1,0,0:0:0:0:
448,192,1090,1,0,0:0:0:0:
192,192,1090,1,0,0:0:0:0:
320,192,1185,1,0,0:0:0:0:
192,192,1279,1,0,0:0:0:0:
64,192,1279,1,0,0:0:0:0:
320,192,1374,1,0,0:0:0:0:
448,192,1469,1,0,0:0:0:0:
320,192,1564,1,4,0:0:0:0:
192,192,1564,1,4,0:0:0:0:
64,192,1564,1,0,0:0:0:0:
448,192,1753,1,4,0:0:0:0:
320,192,1753,1,4,0:0:0:0:
320,192,2037,1,0,0:0:0:0:
448,192,2132,1,0,0:0:0:0:
64,192,2226,1,0,0:0:0:0:
192,192,2226,1,0,0:0:0:0:
320,192,2321,1,0,0:0:0:0:
192,192,2415,1,0,0:0:0:0:
64,192,2510,1,0,0:0:0:0:
192,192,2605,1,0,0:0:0:0:
320,192,2605,1,0,0:0:0:0:
448,192,2700,1,0,0:0:0:0:
320,192,2795,1,0,0:0:0:0:
192,192,2889,1,0,0:0:0:0:
448,192,2984,1,0,0:0:0:0:
320,192,3078,1,4,0:0:0:0:
64,192,3078,1,0,0:0:0:0:
192,192,3078,1,4,0:0:0:0:
448,192,3268,1,4,0:0:0:0:
320,192,3268,1,4,0:0:0:0:
64,192,3552,1,0,0:0:0:0:
448,192,3552,1,0,0:0:0:0:
192,192,3646,1,0,0:0:0:0:
320,192,3742,1,0,0:0:0:0:
448,192,3836,1,0,0:0:0:0:
320,192,3931,1,0,0:0:0:0:
192,192,4025,1,0,0:0:0:0:
64,192,4120,1,0,0:0:0:0:
320,192,4120,1,4,0:0:0:0:
448,192,4120,1,4,0:0:0:0:
192,192,4215,1,0,0:0:0:0:
64,192,4310,1,0,0:0:0:0:
320,192,4405,1,0,0:0:0:0:
448,192,4499,1,0,0:0:0:0:
192,192,4594,1,0,0:0:0:0:
64,192,4688,1,0,0:0:0:0:
192,192,4783,1,4,0:0:0:0:
320,192,4783,1,4,0:0:0:0:
448,192,4783,1,0,0:0:0:0:
320,192,4973,1,8,0:0:0:0:
192,192,5067,1,12,0:0:0:0:
64,192,5067,1,0,0:0:0:0:
448,192,5162,1,8,0:0:0:0:
64,192,5256,1,8,0:0:0:0:
192,192,5351,1,4,0:0:0:0:
448,192,5351,1,8,0:0:0:0:
320,192,5446,1,8,0:0:0:0:
64,192,5446,1,0,0:0:0:0:
448,192,5541,1,8,0:0:0:0:
320,192,5635,1,0,0:0:0:0:
192,192,5635,1,4,0:0:0:0:
64,192,5635,1,4,0:0:0:0:
448,192,5730,1,8,0:0:0:0:
192,192,5825,1,0,0:0:0:0:
64,192,5919,1,8,0:0:0:0:
320,192,6015,1,4,0:0:0:0:
448,192,6015,1,4,0:0:0:0:
192,192,6015,1,0,0:0:0:0:
64,192,6109,1,8,0:0:0:0:
448,192,6204,1,8,0:0:0:0:
320,192,6298,1,8,0:0:0:0:
64,192,6393,1,4,0:0:0:0:
192,192,6393,1,4,0:0:0:0:
448,192,6393,1,0,0:0:0:0:
320,192,6677,1,0,0:0:0:0:
192,192,6677,1,0,0:0:0:0:
448,192,6772,1,0,0:0:0:0:
320,192,6866,1,0,0:0:0:0:
192,192,6961,1,0,0:0:0:0:
320,192,7055,1,0,0:0:0:0:
64,192,7151,1,0,0:0:0:0:
448,192,7151,1,0,0:0:0:0:
192,192,7245,1,0,0:0:0:0:
320,192,7340,1,0,0:0:0:0:
64,192,7340,1,0,0:0:0:0:
448,192,7435,1,0,0:0:0:0:
320,192,7529,1,0,0:0:0:0:
64,192,7624,1,4,0:0:0:0:
192,192,7624,1,4,0:0:0:0:
448,192,7624,1,0,0:0:0:0:
320,192,7814,1,4,0:0:0:0:
192,192,7814,1,4,0:0:0:0:
320,192,8097,1,0,0:0:0:0:
448,192,8192,1,0,0:0:0:0:
320,192,8287,1,0,0:0:0:0:
192,192,8287,1,0,0:0:0:0:
448,192,8382,1,0,0:0:0:0:
64,192,8476,1,0,0:0:0:0:
192,192,8571,1,0,0:0:0:0:
448,192,8665,1,2,0:0:0:0:
320,192,8665,1,2,0:0:0:0:
64,192,8665,1,0,0:0:0:0:
192,192,8760,1,0,0:0:0:0:
320,192,8855,1,0,0:0:0:0:
448,192,8855,1,0,0:0:0:0:
192,192,8950,1,0,0:0:0:0:
320,192,9045,1,0,0:0:0:0:
448,192,9139,1,0,0:0:0:0:
192,192,9139,1,4,0:0:0:0:
64,192,9139,1,4,0:0:0:0:
448,192,9328,1,4,0:0:0:0:
320,192,9328,1,4,0:0:0:0:
64,192,9613,1,0,0:0:0:0:
320,192,9613,1,0,0:0:0:0:
448,192,9707,1,0,0:0:0:0:
320,192,9802,1,0,0:0:0:0:
192,192,9802,1,0,0:0:0:0:
448,192,9896,1,0,0:0:0:0:
192,192,9992,1,0,0:0:0:0:
64,192,10086,1,0,0:0:0:0:
448,192,10181,1,4,0:0:0:0:
320,192,10181,1,0,0:0:0:0:
192,192,10181,1,0,0:0:0:0:
64,192,10275,1,0,0:0:0:0:
192,192,10370,1,0,0:0:0:0:
320,192,10370,1,0,0:0:0:0:
64,192,10465,1,0,0:0:0:0:
320,192,10560,1,0,0:0:0:0:
448,192,10560,1,0,0:0:0:0:
192,192,10655,1,0,0:0:0:0:
448,192,10749,1,8,0:0:0:0:
192,192,10844,1,12,0:0:0:0:
64,192,10844,1,12,0:0:0:0:
320,192,10844,1,8,0:0:0:0:
448,192,11033,1,8,0:0:0:0:
64,192,11128,1,8,0:0:0:0:
192,192,11128,1,8,0:0:0:0:
320,192,11128,1,8,0:0:0:0:
448,192,11223,1,8,0:0:0:0:
320,192,11317,1,8,0:0:0:0:
64,192,11317,1,8,0:0:0:0:
192,192,11317,1,8,0:0:0:0:
448,192,11412,1,8,0:0:0:0:
64,192,11506,1,8,0:0:0:0:
192,192,11601,1,8,0:0:0:0:
320,192,11696,1,8,0:0:0:0:
64,192,11696,1,4,0:0:0:0:
448,192,11791,1,8,0:0:0:0:
320,192,11885,1,8,0:0:0:0:
448,192,11980,1,8,0:0:0:0:
192,192,12075,1,4,0:0:0:0:
64,192,12075,1,8,0:0:0:0:
320,192,12169,1,8,0:0:0:0:
192,192,12265,1,8,0:0:0:0:
64,192,12359,1,8,0:0:0:0:
192,192,12454,1,0,0:0:0:0:
320,192,12454,1,4,0:0:0:0:
448,192,12454,1,2,0:0:0:0:
64,192,12643,1,0,0:0:0:0:
448,192,12737,1,0,0:0:0:0:
320,192,12737,1,0,0:0:0:0:
192,192,12737,1,0,0:0:0:0:
192,192,12927,1,0,0:0:0:0:
64,192,13022,1,0,0:0:0:0:
448,192,13022,1,0,0:0:0:0:
320,192,13022,1,0,0:0:0:0:
448,192,13211,1,0,0:0:0:0:
64,192,13401,1,0,0:0:0:0:
448,192,13590,1,0,0:0:0:0:
64,192,13685,1,0,0:0:0:0:
192,192,13685,1,4,0:0:0:0:
320,192,13685,1,4,0:0:0:0:
448,192,13874,1,4,0:0:0:0:
320,192,13874,1,4,0:0:0:0:
192,192,14158,1,0,0:0:0:0:
64,192,14158,1,0,0:0:0:0:
448,192,14158,1,0,0:0:0:0:
320,192,14347,1,0,0:0:0:0:
64,192,14442,1,0,0:0:0:0:
192,192,14442,1,0,0:0:0:0:
448,192,14442,1,0,0:0:0:0:
320,192,14632,1,0,0:0:0:0:
192,192,14726,1,0,0:0:0:0:
64,192,14726,1,0,0:0:0:0:
448,192,14726,1,0,0:0:0:0:
64,192,14915,1,0,0:0:0:0:
448,192,15010,1,0,0:0:0:0:
320,192,15010,1,0,0:0:0:0:
64,192,15200,1,0,0:0:0:0:
320,192,15200,1,4,0:0:0:0:
448,192,15200,1,4,0:0:0:0:
192,192,15295,1,0,0:0:0:0:
448,192,15389,1,4,0:0:0:0:
320,192,15389,1,4,0:0:0:0:
64,192,15484,1,4,0:0:0:0:
192,192,15484,1,4,0:0:0:0:
320,192,15484,1,0,0:0:0:0:
64,192,15768,1,0,0:0:0:0:
192,192,15768,1,0,0:0:0:0:
320,192,15768,1,0,0:0:0:0:
64,192,16052,1,0,0:0:0:0:
192,192,16052,1,0,0:0:0:0:
448,192,16052,1,0,0:0:0:0:
448,192,16242,1,4,0:0:0:0:
320,192,16242,1,4,0:0:0:0:
64,192,16242,1,0,0:0:0:0:
64,192,16431,1,0,0:0:0:0:
448,192,16620,1,0,0:0:0:0:
320,192,16715,1,0,0:0:0:0:
64,192,16715,1,0,0:0:0:0:
320,192,16905,1,4,0:0:0:0:
192,192,16905,1,2,0:0:0:0:
448,192,16905,1,4,0:0:0:0:
64,192,17188,1,4,0:0:0:0:
192,192,17188,1,4,0:0:0:0:
448,192,17188,1,8,0:0:0:0:
320,192,17378,1,8,0:0:0:0:
192,192,17473,1,4,0:0:0:0:
448,192,17473,1,8,0:0:0:0:
64,192,17473,1,4,0:0:0:0:
320,192,17662,1,8,0:0:0:0:
192,192,17756,1,4,0:0:0:0:
64,192,17756,1,4,0:0:0:0:
448,192,17851,1,8,0:0:0:0:
320,192,17851,1,8,0:0:0:0:
192,192,17946,1,8,0:0:0:0:
64,192,18041,1,8,0:0:0:0:
320,192,18041,1,4,0:0:0:0:
448,192,18041,1,4,0:0:0:0:
192,192,18135,128,2,18325:0:0:0:0:
64,192,18325,1,8,0:0:0:0:
320,192,18419,1,8,0:0:0:0:
64,192,18515,1,4,0:0:0:0:
448,192,18515,1,0,0:0:0:0:
192,192,18515,1,4,0:0:0:0:
320,192,18704,1,0,0:0:0:0:
448,192,18798,1,0,0:0:0:0:
64,192,18798,1,0,0:0:0:0:
192,192,18798,1,0,0:0:0:0:
64,192,18987,1,0,0:0:0:0:
448,192,19083,1,0,0:0:0:0:
320,192,19083,1,0,0:0:0:0:
192,192,19083,1,0,0:0:0:0:
64,192,19461,1,0,0:0:0:0:
192,192,19651,1,0,0:0:0:0:
320,192,19651,1,0,0:0:0:0:
192,192,19745,1,4,0:0:0:0:
320,192,19840,1,4,0:0:0:0:
448,192,20029,1,0,0:0:0:0:
448,192,20219,1,0,0:0:0:0:
320,192,20314,1,0,0:0:0:0:
448,192,20503,1,0,0:0:0:0:
64,192,20503,1,0,0:0:0:0:
192,192,20692,1,0,0:0:0:0:
320,192,20692,1,0,0:0:0:0:
448,192,20692,1,0,0:0:0:0:
64,192,21355,1,0,0:0:0:0:
192,192,21450,1,0,0:0:0:0:
64,192,21545,1,4,0:0:0:0:
448,192,21828,1,0,0:0:0:0:
320,192,21828,1,0,0:0:0:0:
192,192,22113,1,0,0:0:0:0:
192,192,22302,1,4,0:0:0:0:
448,192,22302,1,0,0:0:0:0:
64,192,22302,1,4,0:0:0:0:
320,192,22586,1,0,0:0:0:0:
192,192,22965,1,4,0:0:0:0:
64,192,22965,1,0,0:0:0:0:
448,192,22965,1,4,0:0:0:0:
320,192,23249,1,12,0:0:0:0:
448,192,23249,1,12,0:0:0:0:
64,192,23249,1,8,0:0:0:0:
192,192,23438,1,8,0:0:0:0:
64,192,23533,1,8,0:0:0:0:
320,192,23533,1,12,0:0:0:0:
448,192,23533,1,12,0:0:0:0:
320,192,23723,1,8,0:0:0:0:
64,192,23817,1,12,0:0:0:0:
192,192,23912,1,8,0:0:0:0:
448,192,24006,1,8,0:0:0:0:
320,192,24101,1,8,0:0:0:0:
192,192,24196,1,8,0:0:0:0:
448,192,24385,1,8,0:0:0:0:
192,192,24480,1,8,0:0:0:0:
448,192,24575,1,4,0:0:0:0:
64,192,24575,1,0,0:0:0:0:
320,192,24575,1,4,0:0:0:0:
64,192,24859,1,0,0:0:0:0:
192,192,24859,1,0,0:0:0:0:
192,192,25143,1,0,0:0:0:0:
320,192,25143,1,0,0:0:0:0:
64,192,25805,1,4,0:0:0:0:
192,192,25901,1,0,0:0:0:0:
448,192,25995,1,4,0:0:0:0:
64,192,25995,1,0,0:0:0:0:
320,192,25995,1,4,0:0:0:0:
320,192,26658,1,0,0:0:0:0:
64,192,26847,1,0,0:0:0:0:
320,192,26847,1,0,0:0:0:0:
192,192,27037,1,0,0:0:0:0:
448,192,27037,1,0,0:0:0:0:
448,192,27226,1,4,0:0:0:0:
320,192,27226,1,4,0:0:0:0:
64,192,27226,1,0,0:0:0:0:
448,192,27415,1,0,0:0:0:0:
192,192,27415,1,0,0:0:0:0:
320,192,27605,1,4,0:0:0:0:
192,192,27605,1,4,0:0:0:0:
64,192,27605,1,0,0:0:0:0:
192,192,27889,1,0,0:0:0:0:
320,192,27889,1,0,0:0:0:0:
64,192,28174,1,0,0:0:0:0:
192,192,28174,1,0,0:0:0:0:
448,192,28174,1,0,0:0:0:0:
320,192,28363,1,4,0:0:0:0:
448,192,28363,1,0,0:0:0:0:
192,192,28363,1,4,0:0:0:0:
192,192,28931,1,0,0:0:0:0:
320,192,29025,1,0,0:0:0:0:
192,192,29120,1,4,0:0:0:0:
64,192,29120,1,4,0:0:0:0:
448,192,29310,1,0,0:0:0:0:
320,192,29310,1,4,0:0:0:0:
192,192,29310,1,4,0:0:0:0:
64,192,29499,1,0,0:0:0:0:
192,192,29594,1,4,0:0:0:0:
448,192,29594,1,0,0:0:0:0:
320,192,29594,1,4,0:0:0:0:
320,192,29783,1,0,0:0:0:0:
192,192,29878,1,0,0:0:0:0:
64,192,29973,1,0,0:0:0:0:
320,192,30067,128,2,30256:0:0:0:0:
192,192,30067,1,0,0:0:0:0:
64,192,30162,1,0,0:0:0:0:
448,192,30256,128,2,30446:0:0:0:0:
192,192,30256,1,0,0:0:0:0:
192,192,30446,128,2,30635:0:0:0:0:
320,192,30446,1,0,0:0:0:0:
448,192,30635,1,2,0:0:0:0:
64,192,30635,1,2,0:0:0:0:
320,192,30635,1,4,0:0:0:0:
320,192,30919,1,0,0:0:0:0:
448,192,31015,1,0,0:0:0:0:
192,192,31015,1,0,0:0:0:0:
64,192,31015,1,0,0:0:0:0:
64,192,31204,1,0,0:0:0:0:
320,192,31204,1,2,2:2:0:0:
320,192,31298,1,2,2:2:0:0:
64,192,31393,1,0,0:0:0:0:
192,192,31393,1,0,0:0:0:0:
320,192,31583,1,0,0:0:0:0:
192,192,31583,1,0,0:0:0:0:
448,192,31772,1,0,0:0:0:0:
320,192,31772,1,0,0:0:0:0:
64,192,31772,1,0,0:0:0:0:
192,192,31961,1,0,0:0:0:0:
320,192,31961,1,2,0:0:0:0:
64,192,31961,128,2,32340:0:0:0:0:
448,192,32340,1,2,0:0:0:0:
448,192,32435,1,2,0:0:0:0:
192,192,32435,1,2,0:0:0:0:
320,192,32719,1,2,0:0:0:0:
320,192,32814,1,2,0:0:0:0:
64,192,32814,1,2,0:0:0:0:
320,192,33097,1,2,0:0:0:0:
64,192,33097,1,2,0:0:0:0:
320,192,33287,1,2,0:0:0:0:
448,192,33382,1,2,0:0:0:0:
192,192,33382,1,2,0:0:0:0:
448,192,33571,1,4,0:0:0:0:
64,192,33571,1,0,0:0:0:0:
192,192,33571,1,6,0:0:0:0:
320,192,33855,1,2,0:0:0:0:
448,192,33855,128,2,34234:0:0:0:0:
192,192,34045,1,2,0:0:0:0:
64,192,34045,128,2,34234:0:0:0:0:
320,192,34234,1,2,0:0:0:0:
320,192,34328,1,2,0:0:0:0:
448,192,34424,1,2,0:0:0:0:
192,192,34424,128,2,34802:0:0:0:0:
64,192,34613,1,2,0:0:0:0:
448,192,34802,1,2,0:0:0:0:
320,192,34802,1,2,0:0:0:0:
192,192,34992,1,2,0:0:0:0:
192,192,35181,1,2,0:0:0:0:
64,192,35181,1,2,0:0:0:0:
448,192,35370,1,2,0:0:0:0:
192,192,35465,1,2,0:0:0:0:
64,192,35465,1,2,0:0:0:0:
448,192,35465,1,2,0:0:0:0:
320,192,35655,1,2,0:0:0:0:
64,192,35749,1,2,0:0:0:0:
320,192,35749,1,2,0:0:0:0:
448,192,35844,1,2,0:0:0:0:
192,192,35938,1,4,0:0:0:0:
64,192,35938,128,2,36696:0:0:0:0:
448,192,36128,1,2,0:0:0:0:
320,192,36128,1,4,0:0:0:0:
192,192,36317,1,10,0:0:0:0:
448,192,36317,128,2,36696:0:0:0:0:
320,192,36506,1,0,0:0:0:0:
192,192,36696,1,4,0:0:0:0:
192,192,37265,1,0,0:0:0:0:
64,192,37265,128,0,38022:0:0:0:0:
192,192,37454,1,0,0:0:0:0:
192,192,37643,1,0,0:0:0:0:
320,192,37833,1,0,0:0:0:0:
448,192,38022,1,0,0:0:0:0:
64,192,38401,1,2,0:0:0:0:
320,192,38495,1,2,0:0:0:0:
64,192,38495,1,2,0:0:0:0:
192,192,38779,1,2,0:0:0:0:
448,192,38874,1,2,0:0:0:0:
192,192,38874,1,2,0:0:0:0:
448,192,39158,1,2,0:0:0:0:
192,192,39158,1,2,0:0:0:0:
192,192,39347,1,2,0:0:0:0:
64,192,39442,1,2,0:0:0:0:
320,192,39442,1,2,0:0:0:0:
64,192,39632,1,2,0:0:0:0:
320,192,39632,1,6,0:0:0:0:
448,192,39632,1,2,0:0:0:0:
448,192,39915,128,2,40295:0:0:0:0:
320,192,39915,1,2,0:0:0:0:
192,192,40105,1,2,0:0:0:0:
64,192,40105,128,2,40295:0:0:0:0:
320,192,40295,1,2,0:0:0:0:
192,192,40389,1,2,0:0:0:0:
192,192,40484,1,2,0:0:0:0:
320,192,40484,128,6,41052:0:0:0:0:
64,192,40674,1,2,0:0:0:0:
192,192,40863,1,2,0:0:0:0:
448,192,40863,128,2,41052:0:0:0:0:
64,192,41052,1,2,0:0:0:0:
64,192,41242,1,0,0:0:0:0:
192,192,41242,1,0,0:0:0:0:
448,192,41242,1,0,0:0:0:0:
64,192,41525,1,0,0:0:0:0:
192,192,41525,1,0,0:0:0:0:
448,192,41525,1,0,0:0:0:0:
64,192,41810,1,0,0:0:0:0:
192,192,41905,1,0,0:0:0:0:
320,192,41999,1,2,0:0:0:0:
320,192,42094,1,2,0:0:0:0:
64,192,42188,1,0,0:0:0:0:
448,192,42378,1,0,0:0:0:0:
320,192,42378,1,4,0:0:0:0:
192,192,42378,1,4,0:0:0:0:
64,192,42567,1,0,0:0:0:0:
192,192,42662,1,0,0:0:0:0:
448,192,42756,1,0,0:0:0:0:
64,192,42756,128,4,43041:0:0:0:0:
448,192,43041,1,0,0:0:0:0:
448,192,43325,1,0,0:0:0:0:
64,192,43325,1,0,0:0:0:0:
320,192,43419,1,0,0:0:0:0:
192,192,43419,1,0,0:0:0:0:
448,192,43515,1,0,0:0:0:0:
448,192,43609,1,0,0:0:0:0:
64,192,43609,1,0,0:0:0:0:
192,192,43704,1,0,0:0:0:0:
448,192,43893,1,0,0:0:0:0:
192,192,43893,1,0,0:0:0:0:
320,192,43987,1,0,0:0:0:0:
192,192,44083,1,0,0:0:0:0:
64,192,44177,1,4,0:0:0:0:
448,192,44177,1,12,0:0:0:0:
448,192,44366,1,8,0:0:0:0:
320,192,44366,1,8,0:0:0:0:
192,192,44461,1,8,0:0:0:0:
64,192,44555,1,8,0:0:0:0:
448,192,44651,1,8,0:0:0:0:
192,192,44651,1,8,0:0:0:0:
320,192,44745,1,8,0:0:0:0:
192,192,44840,1,8,0:0:0:0:
64,192,44935,1,8,0:0:0:0:
320,192,44935,1,8,0:0:0:0:
448,192,44935,128,10,45408:0:0:0:0:
192,192,45029,1,8,0:0:0:0:
320,192,45124,1,8,0:0:0:0:
192,192,45219,1,8,0:0:0:0:
64,192,45314,1,8,0:0:0:0:
320,192,45408,1,8,0:0:0:0:
192,192,45408,128,12,45787:0:0:0:0:
320,192,45597,1,8,0:0:0:0:
64,192,45692,1,8,0:0:0:0:
448,192,45787,1,4,0:0:0:0:
320,192,45882,1,0,0:0:0:0:
448,192,45976,1,0,0:0:0:0:
192,192,46071,1,0,0:0:0:0:
320,192,46165,1,4,0:0:0:0:
448,192,46165,1,0,0:0:0:0:
64,192,46260,1,0,0:0:0:0:
320,192,46355,1,0,0:0:0:0:
192,192,46355,1,0,0:0:0:0:
448,192,46450,1,0,0:0:0:0:
64,192,46545,1,0,0:0:0:0:
320,192,46545,1,8,0:0:0:0:
192,192,46639,1,0,0:0:0:0:
448,192,46639,1,0,0:0:0:0:
320,192,46734,1,0,0:0:0:0:
64,192,46734,1,0,0:0:0:0:
192,192,46828,1,0,0:0:0:0:
64,192,46924,1,0,0:0:0:0:
320,192,46924,1,8,0:0:0:0:
448,192,46924,1,0,0:0:0:0:
192,192,47018,1,0,0:0:0:0:
320,192,47113,1,0,0:0:0:0:
64,192,47113,1,0,0:0:0:0:
448,192,47207,1,0,0:0:0:0:
320,192,47302,1,2,0:0:0:0:
192,192,47302,1,0,0:0:0:0:
64,192,47302,1,0,0:0:0:0:
448,192,47396,1,0,0:0:0:0:
320,192,47492,1,0,0:0:0:0:
192,192,47492,1,0,0:0:0:0:
64,192,47586,1,0,0:0:0:0:
448,192,47586,1,0,0:0:0:0:
192,192,47681,1,0,0:0:0:0:
320,192,47681,1,4,0:0:0:0:
64,192,47775,1,0,0:0:0:0:
192,192,47870,1,0,0:0:0:0:
448,192,47870,1,0,0:0:0:0:
64,192,47965,1,0,0:0:0:0:
192,192,48060,1,8,0:0:0:0:
320,192,48155,1,0,0:0:0:0:
448,192,48155,1,0,0:0:0:0:
192,192,48249,1,0,0:0:0:0:
64,192,48249,1,0,0:0:0:0:
320,192,48344,1,0,0:0:0:0:
64,192,48438,1,0,0:0:0:0:
448,192,48438,1,0,0:0:0:0:
192,192,48438,1,8,0:0:0:0:
320,192,48533,1,0,0:0:0:0:
192,192,48628,1,0,0:0:0:0:
448,192,48628,1,0,0:0:0:0:
64,192,48723,1,0,0:0:0:0:
320,192,48817,1,8,0:0:0:0:
192,192,48817,1,0,0:0:0:0:
448,192,48817,1,0,0:0:0:0:
64,192,48912,1,0,0:0:0:0:
320,192,49006,1,0,0:0:0:0:
192,192,49101,1,0,0:0:0:0:
448,192,49196,1,0,0:0:0:0:
320,192,49196,1,4,0:0:0:0:
192,192,49291,1,0,0:0:0:0:
448,192,49385,1,0,0:0:0:0:
64,192,49385,1,0,0:0:0:0:
192,192,49480,1,0,0:0:0:0:
448,192,49575,1,0,0:0:0:0:
320,192,49575,1,8,0:0:0:0:
64,192,49669,1,0,0:0:0:0:
192,192,49669,1,0,0:0:0:0:
448,192,49765,1,0,0:0:0:0:
320,192,49765,1,0,0:0:0:0:
192,192,49859,1,0,0:0:0:0:
448,192,49954,1,0,0:0:0:0:
64,192,49954,1,0,0:0:0:0:
320,192,49954,1,8,0:0:0:0:
192,192,50048,1,0,0:0:0:0:
320,192,50143,1,0,0:0:0:0:
64,192,50237,1,0,0:0:0:0:
320,192,50333,1,0,0:0:0:0:
192,192,50333,1,0,0:0:0:0:
448,192,50333,128,0,50901:0:0:0:0:
192,192,50616,1,0,0:0:0:0:
64,192,50901,128,0,51847:0:0:0:0:
320,192,50901,1,0,0:0:0:0:
192,192,51090,1,8,0:0:0:0:
320,192,51185,1,0,0:0:0:0:
448,192,51185,1,0,0:0:0:0:
192,192,51279,1,0,0:0:0:0:
320,192,51374,1,0,0:0:0:0:
192,192,51469,1,10,0:0:0:0:
448,192,51469,1,8,0:0:0:0:
320,192,51658,1,8,0:0:0:0:
448,192,51658,1,8,0:0:0:0:
192,192,51753,1,8,0:0:0:0:
448,192,51847,1,2,0:0:0:0:
320,192,51847,1,2,0:0:0:0:
192,192,51942,1,0,0:0:0:0:
64,192,52037,1,0,0:0:0:0:
448,192,52037,1,0,0:0:0:0:
320,192,52132,1,0,0:0:0:0:
192,192,52132,1,0,0:0:0:0:
64,192,52226,1,4,0:0:0:0:
448,192,52321,1,0,0:0:0:0:
320,192,52415,1,0,0:0:0:0:
192,192,52415,1,0,0:0:0:0:
64,192,52510,1,0,0:0:0:0:
448,192,52605,1,0,0:0:0:0:
320,192,52605,1,8,0:0:0:0:
64,192,52700,1,0,0:0:0:0:
192,192,52700,1,0,0:0:0:0:
320,192,52795,1,0,0:0:0:0:
192,192,52889,1,0,0:0:0:0:
448,192,52984,1,4,0:0:0:0:
64,192,52984,1,0,0:0:0:0:
320,192,52984,1,8,0:0:0:0:
192,192,53078,1,0,0:0:0:0:
448,192,53174,1,0,0:0:0:0:
64,192,53174,1,0,0:0:0:0:
320,192,53268,1,0,0:0:0:0:
448,192,53363,1,0,0:0:0:0:
192,192,53363,1,8,0:0:0:0:
64,192,53363,1,0,0:0:0:0:
320,192,53457,1,0,0:0:0:0:
448,192,53552,1,0,0:0:0:0:
320,192,53646,1,0,0:0:0:0:
64,192,53646,1,0,0:0:0:0:
192,192,53742,1,0,0:0:0:0:
448,192,53742,1,8,0:0:0:0:
64,192,53836,1,0,0:0:0:0:
192,192,53931,1,0,0:0:0:0:
320,192,53931,1,0,0:0:0:0:
448,192,54025,1,0,0:0:0:0:
192,192,54120,1,8,0:0:0:0:
320,192,54120,1,0,0:0:0:0:
64,192,54215,1,0,0:0:0:0:
448,192,54215,1,0,0:0:0:0:
192,192,54310,1,0,0:0:0:0:
320,192,54405,1,0,0:0:0:0:
448,192,54499,1,4,0:0:0:0:
64,192,54499,1,0,0:0:0:0:
192,192,54499,1,4,0:0:0:0:
320,192,54594,1,0,0:0:0:0:
448,192,54688,1,0,0:0:0:0:
192,192,54688,1,0,0:0:0:0:
320,192,54783,1,0,0:0:0:0:
192,192,54878,1,2,0:0:0:0:
64,192,54878,1,0,0:0:0:0:
448,192,54878,1,0,0:0:0:0:
320,192,54973,1,0,0:0:0:0:
192,192,55067,1,0,0:0:0:0:
320,192,55162,1,0,0:0:0:0:
448,192,55162,1,0,0:0:0:0:
64,192,55256,1,0,0:0:0:0:
192,192,55256,1,4,0:0:0:0:
448,192,55351,1,0,0:0:0:0:
192,192,55446,1,0,0:0:0:0:
320,192,55446,1,0,0:0:0:0:
64,192,55541,1,0,0:0:0:0:
320,192,55635,1,8,0:0:0:0:
448,192,55635,1,0,0:0:0:0:
192,192,55730,1,0,0:0:0:0:
64,192,55730,1,0,0:0:0:0:
320,192,55825,1,0,0:0:0:0:
448,192,55825,1,0,0:0:0:0:
192,192,55919,1,0,0:0:0:0:
64,192,56015,1,0,0:0:0:0:
320,192,56015,1,12,0:0:0:0:
448,192,56015,1,4,0:0:0:0:
192,192,56109,1,0,0:0:0:0:
448,192,56204,1,0,0:0:0:0:
320,192,56298,1,0,0:0:0:0:
192,192,56393,1,0,0:0:0:0:
64,192,56393,1,4,0:0:0:0:
448,192,56393,1,4,0:0:0:0:
320,192,56487,1,0,0:0:0:0:
64,192,56583,1,0,0:0:0:0:
448,192,56677,1,4,0:0:0:0:
320,192,56677,1,4,0:0:0:0:
192,192,56677,1,0,0:0:0:0:
64,192,56772,1,0,0:0:0:0:
448,192,56866,1,0,0:0:0:0:
192,192,56961,1,4,0:0:0:0:
64,192,56961,1,0,0:0:0:0:
320,192,56961,1,0,0:0:0:0:
448,192,57055,1,0,0:0:0:0:
192,192,57151,1,0,0:0:0:0:
64,192,57151,1,0,0:0:0:0:
448,192,57245,1,4,0:0:0:0:
320,192,57245,1,4,0:0:0:0:
192,192,57340,1,0,0:0:0:0:
448,192,57435,1,0,0:0:0:0:
64,192,57529,1,4,0:0:0:0:
192,192,57529,1,4,0:0:0:0:
320,192,57529,1,0,0:0:0:0:
320,192,57719,1,2,0:0:0:0:
192,192,57719,1,0,0:0:0:0:
448,192,57719,1,0,0:0:0:0:
64,192,57814,1,0,0:0:0:0:
320,192,57908,1,0,0:0:0:0:
448,192,57908,1,0,0:0:0:0:
192,192,57908,128,4,58097:0:0:0:0:
64,192,58192,1,0,0:0:0:0:
448,192,58192,128,0,58382:0:0:0:0:
320,192,58476,1,0,0:0:0:0:
192,192,58476,1,0,0:0:0:0:
64,192,58665,1,0,0:0:0:0:
320,192,58665,1,0,0:0:0:0:
192,192,58665,1,0,0:0:0:0:
64,192,58855,128,0,58950:0:0:0:0:
448,192,58950,1,0,0:0:0:0:
320,192,58950,128,0,59139:0:0:0:0:
448,192,59234,128,0,59424:0:0:0:0:
192,192,59234,1,0,0:0:0:0:
64,192,59234,1,0,0:0:0:0:
320,192,59328,1,0,0:0:0:0:
64,192,59424,1,4,0:0:0:0:
192,192,59424,128,0,59707:0:0:0:0:
448,192,59707,1,0,0:0:0:0:
320,192,59707,128,0,59992:0:0:0:0:
64,192,59896,1,0,0:0:0:0:
448,192,59992,128,0,60181:0:0:0:0:
192,192,59992,1,0,0:0:0:0:
192,192,60181,1,0,0:0:0:0:
64,192,60181,128,0,60465:0:0:0:0:
320,192,60465,1,0,0:0:0:0:
448,192,60465,1,0,0:0:0:0:
192,192,60465,1,0,0:0:0:0:
448,192,60749,1,0,0:0:0:0:
320,192,60749,1,0,0:0:0:0:
64,192,60844,1,0,0:0:0:0:
320,192,60938,1,0,0:0:0:0:
192,192,60938,1,0,0:0:0:0:
448,192,60938,128,0,61128:0:0:0:0:
192,192,61223,128,0,61412:0:0:0:0:
64,192,61223,1,0,0:0:0:0:
448,192,61506,128,0,61696:0:0:0:0:
320,192,61506,1,0,0:0:0:0:
64,192,61696,1,0,0:0:0:0:
192,192,61696,128,4,61980:0:0:0:0:
448,192,61980,128,0,62169:0:0:0:0:
320,192,62169,1,0,0:0:0:0:
64,192,62265,128,0,62359:0:0:0:0:
192,192,62359,1,0,0:0:0:0:
320,192,62359,1,0,0:0:0:0:
448,192,62454,1,8,0:0:0:0:
64,192,62643,1,8,0:0:0:0:
448,192,62643,1,8,0:0:0:0:
192,192,62643,1,8,0:0:0:0:
320,192,62737,128,8,63022:0:0:0:0:
64,192,62927,1,8,0:0:0:0:
192,192,63022,1,8,0:0:0:0:
448,192,63022,1,8,0:0:0:0:
64,192,63211,128,8,63495:0:0:0:0:
192,192,63211,1,8,0:0:0:0:
448,192,63211,1,8,0:0:0:0:
320,192,63305,1,8,0:0:0:0:
448,192,63401,1,8,0:0:0:0:
320,192,63495,1,8,0:0:0:0:
192,192,63590,1,0,0:0:0:0:
448,192,63590,128,0,63779:0:0:0:0:
320,192,63779,1,8,0:0:0:0:
192,192,63874,1,8,0:0:0:0:
320,192,63969,1,0,0:0:0:0:
448,192,63969,1,0,0:0:0:0:
64,192,63969,128,4,64158:0:0:0:0:
448,192,64253,1,0,0:0:0:0:
192,192,64253,128,0,64442:0:0:0:0:
448,192,64537,1,0,0:0:0:0:
320,192,64537,1,0,0:0:0:0:
64,192,64726,1,0,0:0:0:0:
448,192,64726,1,0,0:0:0:0:
192,192,64726,1,0,0:0:0:0:
448,192,64915,128,0,65010:0:0:0:0:
320,192,65010,1,0,0:0:0:0:
64,192,65010,128,0,65200:0:0:0:0:
448,192,65295,128,0,65484:0:0:0:0:
320,192,65295,1,0,0:0:0:0:
192,192,65295,1,0,0:0:0:0:
64,192,65389,1,0,0:0:0:0:
320,192,65484,1,0,0:0:0:0:
192,192,65484,128,0,65768:0:0:0:0:
448,192,65768,1,0,0:0:0:0:
320,192,65768,128,0,66052:0:0:0:0:
64,192,65957,1,0,0:0:0:0:
192,192,66052,128,0,66242:0:0:0:0:
448,192,66052,1,0,0:0:0:0:
448,192,66242,1,0,0:0:0:0:
64,192,66242,128,0,66525:0:0:0:0:
320,192,66525,1,0,0:0:0:0:
448,192,66525,1,0,0:0:0:0:
192,192,66525,1,0,0:0:0:0:
320,192,66810,1,0,0:0:0:0:
192,192,66810,1,0,0:0:0:0:
448,192,66905,1,0,0:0:0:0:
64,192,66999,1,2,0:0:0:0:
192,192,66999,1,2,0:0:0:0:
320,192,66999,128,2,67188:0:0:0:0:
64,192,67188,128,2,67378:0:0:0:0:
320,192,67283,1,2,0:0:0:0:
192,192,67378,128,2,67473:0:0:0:0:
448,192,67473,128,2,67662:0:0:0:0:
64,192,67662,128,2,67851:0:0:0:0:
320,192,67662,1,2,0:0:0:0:
320,192,67756,128,4,67946:0:0:0:0:
192,192,67946,128,2,68135:0:0:0:0:
448,192,67946,1,2,0:0:0:0:
64,192,68041,1,2,0:0:0:0:
448,192,68135,128,2,68230:0:0:0:0:
64,192,68135,1,2,0:0:0:0:
320,192,68230,128,2,68419:0:0:0:0:
64,192,68419,1,4,0:0:0:0:
448,192,68419,1,2,0:0:0:0:
192,192,68515,1,2,0:0:0:0:
448,192,68515,1,2,0:0:0:0:
320,192,68704,1,2,0:0:0:0:
448,192,68798,1,2,0:0:0:0:
192,192,68798,1,2,0:0:0:0:
64,192,68798,1,6,0:0:0:0:
448,192,68893,1,2,0:0:0:0:
64,192,68987,1,2,0:0:0:0:
192,192,69083,1,2,0:0:0:0:
320,192,69083,1,2,0:0:0:0:
64,192,69272,1,10,0:0:0:0:
320,192,69272,1,10,0:0:0:0:
448,192,69272,1,10,0:0:0:0:
64,192,69461,1,10,0:0:0:0:
448,192,69555,1,10,0:0:0:0:
320,192,69555,1,10,0:0:0:0:
192,192,69555,1,10,0:0:0:0:
448,192,69745,1,10,0:0:0:0:
320,192,69840,1,10,0:0:0:0:
192,192,69840,1,10,0:0:0:0:
64,192,69840,1,10,0:0:0:0:
192,192,70029,1,0,0:0:0:0:
448,192,70029,1,0,0:0:0:0:
64,192,70029,128,4,71260:0:0:0:0:
320,192,70219,1,0,0:0:0:0:
192,192,70314,1,0,0:0:0:0:
448,192,70314,1,0,0:0:0:0:
320,192,70503,1,0,0:0:0:0:
192,192,70597,1,0,0:0:0:0:
448,192,70597,1,0,0:0:0:0:
320,192,70692,1,0,0:0:0:0:
192,192,70787,1,0,0:0:0:0:
448,192,70787,1,0,0:0:0:0:
320,192,70787,1,0,0:0:0:0:
448,192,70976,1,0,0:0:0:0:
192,192,70976,1,0,0:0:0:0:
320,192,71165,1,0,0:0:0:0:
448,192,71260,1,0,0:0:0:0:
192,192,71260,1,4,0:0:0:0:
64,192,71450,1,0,0:0:0:0:
320,192,71450,1,4,0:0:0:0:
448,192,71450,1,4,0:0:0:0:
64,192,71734,128,8,72302:0:0:0:0:
192,192,71734,1,0,0:0:0:0:
448,192,71734,1,0,0:0:0:0:
320,192,71828,1,8,0:0:0:0:
192,192,71924,1,8,0:0:0:0:
320,192,72018,1,8,0:0:0:0:
448,192,72018,1,8,0:0:0:0:
192,192,72113,1,8,0:0:0:0:
320,192,72207,1,8,0:0:0:0:
192,192,72302,1,8,0:0:0:0:
448,192,72302,1,8,0:0:0:0:
64,192,72428,1,8,0:0:0:0:
320,192,72428,1,8,0:0:0:0:
448,192,72428,1,8,0:0:0:0:
320,192,72555,1,8,0:0:0:0:
192,192,72555,1,8,0:0:0:0:
448,192,72681,1,8,0:0:0:0:
64,192,72681,1,8,0:0:0:0:
320,192,72681,1,8,0:0:0:0:
64,192,72807,1,8,0:0:0:0:
192,192,72807,1,8,0:0:0:0:
448,192,72807,1,8,0:0:0:0:
448,192,72934,1,8,0:0:0:0:
320,192,72934,1,8,0:0:0:0:
192,192,72934,1,8,0:0:0:0:
64,192,73060,1,4,0:0:0:0:
192,192,73060,1,4,0:0:0:0:
320,192,73155,1,0,0:0:0:0:
448,192,73249,1,0,0:0:0:0:
192,192,73344,1,0,0:0:0:0:
320,192,73438,1,8,0:0:0:0:
64,192,73438,1,0,0:0:0:0:
448,192,73438,1,0,0:0:0:0:
192,192,73533,1,0,0:0:0:0:
320,192,73628,1,0,0:0:0:0:
448,192,73628,1,0,0:0:0:0:
64,192,73723,1,0,0:0:0:0:
192,192,73817,1,0,0:0:0:0:
64,192,73912,1,0,0:0:0:0:
320,192,73912,1,0,0:0:0:0:
448,192,74006,1,0,0:0:0:0:
320,192,74101,1,0,0:0:0:0:
192,192,74196,1,0,0:0:0:0:
64,192,74196,1,0,0:0:0:0:
448,192,74196,1,8,0:0:0:0:
320,192,74291,1,0,0:0:0:0:
64,192,74385,1,0,0:0:0:0:
448,192,74385,1,0,0:0:0:0:
320,192,74480,1,0,0:0:0:0:
192,192,74575,1,0,0:0:0:0:
448,192,74669,1,0,0:0:0:0:
64,192,74765,1,0,0:0:0:0:
192,192,74859,1,0,0:0:0:0:
448,192,74954,1,8,0:0:0:0:
64,192,74954,1,0,0:0:0:0:
320,192,74954,1,0,0:0:0:0:
192,192,75048,1,0,0:0:0:0:
448,192,75143,1,0,0:0:0:0:
64,192,75143,1,0,0:0:0:0:
320,192,75237,1,0,0:0:0:0:
192,192,75333,1,0,0:0:0:0:
448,192,75427,1,0,0:0:0:0:
320,192,75427,1,0,0:0:0:0:
64,192,75522,1,0,0:0:0:0:
448,192,75616,1,0,0:0:0:0:
64,192,75711,1,0,0:0:0:0:
320,192,75711,1,0,0:0:0:0:
192,192,75711,1,8,0:0:0:0:
448,192,75805,1,0,0:0:0:0:
192,192,75901,1,0,0:0:0:0:
64,192,75901,1,0,0:0:0:0:
320,192,75995,1,0,0:0:0:0:
64,192,76090,1,0,0:0:0:0:
192,192,76090,1,0,0:0:0:0:
448,192,76185,1,0,0:0:0:0:
320,192,76279,1,0,0:0:0:0:
448,192,76374,1,0,0:0:0:0:
192,192,76469,1,0,0:0:0:0:
320,192,76469,1,8,0:0:0:0:
64,192,76469,1,0,0:0:0:0:
448,192,76564,1,0,0:0:0:0:
192,192,76658,1,0,0:0:0:0:
320,192,76753,1,0,0:0:0:0:
64,192,76847,1,0,0:0:0:0:
192,192,76847,1,0,0:0:0:0:
448,192,76942,1,0,0:0:0:0:
64,192,77037,1,0,0:0:0:0:
448,192,77132,1,0,0:0:0:0:
320,192,77226,1,0,0:0:0:0:
192,192,77226,1,8,0:0:0:0:
64,192,77226,1,0,0:0:0:0:
448,192,77321,1,0,0:0:0:0:
192,192,77415,1,0,0:0:0:0:
320,192,77415,1,0,0:0:0:0:
448,192,77510,1,0,0:0:0:0:
192,192,77605,1,8,0:0:0:0:
64,192,77605,1,0,0:0:0:0:
448,192,78174,1,0,0:0:0:0:
448,192,78742,1,8,0:0:0:0:
192,192,78742,1,12,0:0:0:0:
192,192,78931,1,0,0:0:0:0:
64,192,79025,1,0,0:0:0:0:
320,192,79120,1,4,0:0:0:0:
448,192,79120,1,4,0:0:0:0:
64,192,79215,1,0,0:0:0:0:
192,192,79310,1,0,0:0:0:0:
320,192,79405,1,0,0:0:0:0:
448,192,79499,1,8,0:0:0:0:
64,192,79499,1,0,0:0:0:0:
320,192,79594,1,0,0:0:0:0:
448,192,79688,1,0,0:0:0:0:
192,192,79688,1,0,0:0:0:0:
64,192,79783,1,0,0:0:0:0:
192,192,79878,1,0,0:0:0:0:
320,192,79878,1,4,0:0:0:0:
448,192,79973,1,0,0:0:0:0:
192,192,80067,1,0,0:0:0:0:
64,192,80067,1,0,0:0:0:0:
320,192,80162,1,0,0:0:0:0:
448,192,80256,1,4,0:0:0:0:
192,192,80256,1,8,0:0:0:0:
64,192,80351,1,0,0:0:0:0:
192,192,80446,1,0,0:0:0:0:
64,192,80541,1,0,0:0:0:0:
320,192,80635,1,12,0:0:0:0:
448,192,80635,1,0,0:0:0:0:
192,192,80730,1,0,0:0:0:0:
448,192,80825,1,0,0:0:0:0:
192,192,80919,1,0,0:0:0:0:
64,192,81015,1,0,0:0:0:0:
320,192,81015,1,8,0:0:0:0:
448,192,81015,1,8,0:0:0:0:
192,192,81109,1,0,0:0:0:0:
320,192,81204,1,0,0:0:0:0:
64,192,81298,1,0,0:0:0:0:
448,192,81393,1,4,0:0:0:0:
320,192,81393,1,4,0:0:0:0:
64,192,81487,1,0,0:0:0:0:
192,192,81583,1,8,0:0:0:0:
320,192,81583,1,0,0:0:0:0:
64,192,81677,1,0,0:0:0:0:
320,192,81772,1,8,0:0:0:0:
192,192,81772,1,0,0:0:0:0:
448,192,81772,1,12,0:0:0:0:
64,192,81866,1,0,0:0:0:0:
320,192,81961,1,0,0:0:0:0:
192,192,82055,1,0,0:0:0:0:
64,192,82151,1,8,0:0:0:0:
320,192,82151,1,4,0:0:0:0:
192,192,82245,1,0,0:0:0:0:
320,192,82340,1,0,0:0:0:0:
64,192,82435,1,0,0:0:0:0:
320,192,82529,1,4,0:0:0:0:
448,192,82529,1,4,0:0:0:0:
192,192,82529,1,8,0:0:0:0:
64,192,82624,1,0,0:0:0:0:
448,192,82719,1,0,0:0:0:0:
320,192,82719,1,0,0:0:0:0:
192,192,82814,1,0,0:0:0:0:
320,192,82908,1,0,0:0:0:0:
448,192,82908,1,0,0:0:0:0:
64,192,82908,1,0,0:0:0:0:
192,192,83003,1,0,0:0:0:0:
320,192,83097,1,0,0:0:0:0:
64,192,83192,1,0,0:0:0:0:
448,192,83287,1,4,0:0:0:0:
320,192,83287,1,4,0:0:0:0:
320,192,83382,1,0,0:0:0:0:
64,192,83476,1,0,0:0:0:0:
192,192,83476,1,0,0:0:0:0:
192,192,83571,1,0,0:0:0:0:
448,192,83665,1,8,0:0:0:0:
320,192,83665,1,8,0:0:0:0:
64,192,83665,1,8,0:0:0:0:
192,192,83760,1,0,0:0:0:0:
320,192,83855,1,0,0:0:0:0:
192,192,83950,1,8,0:0:0:0:
64,192,83950,1,8,0:0:0:0:
448,192,83950,1,8,0:0:0:0:
320,192,84045,1,0,0:0:0:0:
192,192,84139,1,0,0:0:0:0:
320,192,84234,1,12,0:0:0:0:
448,192,84234,1,8,0:0:0:0:
448,192,84328,1,0,0:0:0:0:
64,192,84424,1,8,0:0:0:0:
192,192,84424,1,8,0:0:0:0:
320,192,84424,1,4,0:0:0:0:
448,192,84518,1,0,0:0:0:0:
320,192,84613,1,0,0:0:0:0:
64,192,84707,1,0,0:0:0:0:
320,192,84802,1,0,0:0:0:0:
192,192,84802,128,2,84992:0:0:0:0:
448,192,84802,1,0,0:0:0:0:
64,192,84896,1,0,0:0:0:0:
320,192,84992,1,0,0:0:0:0:
448,192,84992,128,2,85181:0:0:0:0:
64,192,85086,1,0,0:0:0:0:
192,192,85181,1,4,0:0:0:0:
320,192,85181,1,4,0:0:0:0:
64,192,85275,1,0,0:0:0:0:
448,192,85370,1,0,0:0:0:0:
320,192,85465,1,0,0:0:0:0:
192,192,85465,1,0,0:0:0:0:
64,192,85560,1,4,0:0:0:0:
192,192,85655,1,0,0:0:0:0:
64,192,85749,1,0,0:0:0:0:
448,192,85749,1,0,0:0:0:0:
320,192,85749,1,0,0:0:0:0:
192,192,85844,1,0,0:0:0:0:
320,192,85938,1,8,0:0:0:0:
192,192,86033,1,0,0:0:0:0:
448,192,86033,1,0,0:0:0:0:
64,192,86033,1,0,0:0:0:0:
320,192,86128,1,0,0:0:0:0:
448,192,86223,1,0,0:0:0:0:
320,192,86317,1,0,0:0:0:0:
192,192,86317,1,0,0:0:0:0:
64,192,86317,1,0,0:0:0:0:
448,192,86412,1,0,0:0:0:0:
320,192,86506,1,0,0:0:0:0:
192,192,86506,1,0,0:0:0:0:
64,192,86601,1,0,0:0:0:0:
192,192,86696,1,4,0:0:0:0:
320,192,86696,1,0,0:0:0:0:
448,192,86696,1,0,0:0:0:0:
64,192,86791,1,0,0:0:0:0:
192,192,86885,1,0,0:0:0:0:
64,192,86980,1,0,0:0:0:0:
320,192,86980,1,0,0:0:0:0:
448,192,86980,1,0,0:0:0:0:
192,192,87075,1,4,0:0:0:0:
320,192,87169,1,0,0:0:0:0:
448,192,87265,1,0,0:0:0:0:
192,192,87265,1,0,0:0:0:0:
320,192,87359,1,0,0:0:0:0:
192,192,87454,1,8,0:0:0:0:
320,192,87548,1,0,0:0:0:0:
448,192,87548,1,0,0:0:0:0:
64,192,87548,1,0,0:0:0:0:
192,192,87643,1,0,0:0:0:0:
320,192,87737,1,0,0:0:0:0:
448,192,87833,1,4,0:0:0:0:
192,192,87833,1,0,0:0:0:0:
64,192,87833,1,0,0:0:0:0:
320,192,87927,1,0,0:0:0:0:
448,192,88022,1,0,0:0:0:0:
64,192,88022,1,0,0:0:0:0:
192,192,88116,1,0,0:0:0:0:
320,192,88211,1,4,0:0:0:0:
64,192,88211,1,0,0:0:0:0:
448,192,88211,1,0,0:0:0:0:
192,192,88305,1,0,0:0:0:0:
320,192,88401,1,0,0:0:0:0:
192,192,88495,1,0,0:0:0:0:
64,192,88495,1,0,0:0:0:0:
320,192,88590,1,8,0:0:0:0:
448,192,88685,1,0,0:0:0:0:
192,192,88779,1,0,0:0:0:0:
64,192,88779,1,0,0:0:0:0:
320,192,88779,1,0,0:0:0:0:
448,192,88874,1,0,0:0:0:0:
320,192,88969,1,8,0:0:0:0:
192,192,89064,1,0,0:0:0:0:
64,192,89064,1,0,0:0:0:0:
448,192,89064,1,0,0:0:0:0:
320,192,89158,1,0,0:0:0:0:
64,192,89253,1,0,0:0:0:0:
448,192,89347,1,4,0:0:0:0:
320,192,89347,1,0,0:0:0:0:
192,192,89347,1,0,0:0:0:0:
64,192,89442,1,0,0:0:0:0:
192,192,89537,1,0,0:0:0:0:
320,192,89537,1,0,0:0:0:0:
448,192,89632,1,0,0:0:0:0:
320,192,89726,1,0,0:0:0:0:
192,192,89726,1,0,0:0:0:0:
64,192,89726,128,12,90295:0:0:0:0:
448,192,89821,1,0,0:0:0:0:
192,192,89915,1,0,0:0:0:0:
448,192,90010,1,0,0:0:0:0:
192,192,90105,1,0,0:0:0:0:
320,192,90105,1,0,0:0:0:0:
448,192,90200,1,0,0:0:0:0:
320,192,90295,128,12,90863:0:0:0:0:
192,192,90295,1,0,0:0:0:0:
448,192,90389,1,0,0:0:0:0:
192,192,90484,1,0,0:0:0:0:
64,192,90578,1,0,0:0:0:0:
448,192,90578,1,0,0:0:0:0:
192,192,90674,1,0,0:0:0:0:
64,192,90768,1,0,0:0:0:0:
448,192,90863,1,8,0:0:0:0:
192,192,90863,1,8,0:0:0:0:
64,192,90957,1,8,0:0:0:0:
192,192,91052,1,8,0:0:0:0:
448,192,91052,1,8,0:0:0:0:
320,192,91146,1,8,0:0:0:0:
64,192,91242,1,4,0:0:0:0:
192,192,91242,1,4,0:0:0:0:
448,192,91242,1,0,0:0:0:0:
320,192,91336,1,0,0:0:0:0:
64,192,91431,1,0,0:0:0:0:
448,192,91525,1,0,0:0:0:0:
320,192,91620,1,0,0:0:0:0:
64,192,91715,1,0,0:0:0:0:
192,192,91810,1,0,0:0:0:0:
320,192,91810,1,4,0:0:0:0:
448,192,91810,1,4,0:0:0:0:
64,192,91905,1,0,0:0:0:0:
320,192,91999,1,0,0:0:0:0:
448,192,92094,1,0,0:0:0:0:
64,192,92094,1,0,0:0:0:0:
192,192,92094,1,0,0:0:0:0:
320,192,92188,1,0,0:0:0:0:
64,192,92283,1,0,0:0:0:0:
320,192,92378,1,0,0:0:0:0:
448,192,92378,1,0,0:0:0:0:
64,192,92473,1,0,0:0:0:0:
192,192,92567,1,0,0:0:0:0:
320,192,92567,1,0,0:0:0:0:
448,192,92567,1,0,0:0:0:0:
64,192,92662,1,0,0:0:0:0:
192,192,92756,1,0,0:0:0:0:
320,192,92756,1,0,0:0:0:0:
448,192,92756,1,0,0:0:0:0:
64,192,92851,1,2,0:0:0:0:
192,192,92946,1,2,0:0:0:0:
192,192,93041,1,2,0:0:0:0:
448,192,93041,1,2,0:0:0:0:
320,192,93135,1,2,0:0:0:0:
320,192,93230,1,2,0:0:0:0:
192,192,93325,1,12,0:0:0:0:
64,192,93325,1,12,0:0:0:0:
448,192,93325,1,8,0:0:0:0:
320,192,93419,1,0,0:0:0:0:
64,192,93515,1,0,0:0:0:0:
320,192,93609,1,0,0:0:0:0:
448,192,93609,1,0,0:0:0:0:
192,192,93609,1,0,0:0:0:0:
64,192,93704,1,0,0:0:0:0:
192,192,93798,1,0,0:0:0:0:
64,192,93893,1,8,0:0:0:0:
320,192,93893,1,8,0:0:0:0:
448,192,93893,1,8,0:0:0:0:
192,192,93987,1,0,0:0:0:0:
448,192,94083,1,0,0:0:0:0:
320,192,94177,1,0,0:0:0:0:
192,192,94272,1,4,0:0:0:0:
64,192,94272,1,4,0:0:0:0:
448,192,94272,1,8,0:0:0:0:
320,192,94366,1,0,0:0:0:0:
192,192,94461,1,0,0:0:0:0:
448,192,94555,1,0,0:0:0:0:
320,192,94651,1,0,0:0:0:0:
192,192,94651,1,0,0:0:0:0:
64,192,94745,1,0,0:0:0:0:
320,192,94840,1,0,0:0:0:0:
448,192,94840,1,0,0:0:0:0:
192,192,94840,1,8,0:0:0:0:
64,192,94935,1,0,0:0:0:0:
320,192,95029,1,0,0:0:0:0:
192,192,95124,1,0,0:0:0:0:
64,192,95124,1,0,0:0:0:0:
448,192,95124,1,0,0:0:0:0:
320,192,95219,1,0,0:0:0:0:
192,192,95314,1,0,0:0:0:0:
64,192,95408,1,12,0:0:0:0:
448,192,95408,1,12,0:0:0:0:
192,192,95503,1,0,0:0:0:0:
64,192,95597,1,0,0:0:0:0:
320,192,95597,1,0,0:0:0:0:
448,192,95597,1,0,0:0:0:0:
192,192,95692,1,0,0:0:0:0:
448,192,95787,1,4,0:0:0:0:
320,192,95787,1,8,0:0:0:0:
192,192,95882,1,0,0:0:0:0:
64,192,95976,1,0,0:0:0:0:
320,192,95976,1,0,0:0:0:0:
192,192,96071,1,8,0:0:0:0:
448,192,96071,1,0,0:0:0:0:
320,192,96165,1,0,0:0:0:0:
64,192,96260,1,0,0:0:0:0:
192,192,96260,1,8,0:0:0:0:
448,192,96355,1,0,0:0:0:0:
320,192,96355,1,0,0:0:0:0:
192,192,96450,1,0,0:0:0:0:
64,192,96545,1,12,0:0:0:0:
320,192,96545,1,12,0:0:0:0:
448,192,96545,1,12,0:0:0:0:
448,192,96734,1,0,0:0:0:0:
192,192,96924,1,0,0:0:0:0:
64,192,96986,1,0,0:0:0:0:
192,192,97049,1,0,0:0:0:0:
320,192,97113,1,0,0:0:0:0:
448,192,97175,1,0,0:0:0:0:
64,192,97175,1,0,0:0:0:0:
320,192,97239,1,0,0:0:0:0:
192,192,97302,1,0,0:0:0:0:
64,192,97302,1,0,0:0:0:0:
448,192,97302,128,4,98344:0:0:0:0:
320,192,97586,1,0,0:0:0:0:
192,192,97586,1,0,0:0:0:0:
64,192,97681,1,0,0:0:0:0:
320,192,97775,1,0,0:0:0:0:
192,192,97870,1,0,0:0:0:0:
64,192,97965,1,0,0:0:0:0:
192,192,98060,1,0,0:0:0:0:
320,192,98060,1,0,0:0:0:0:
64,192,98155,1,0,0:0:0:0:
192,192,98249,1,0,0:0:0:0:
320,192,98249,1,0,0:0:0:0:
64,192,98344,1,0,0:0:0:0:
192,192,98438,1,0,0:0:0:0:
320,192,98533,1,4,0:0:0:0:
448,192,98533,1,4,0:0:0:0:
64,192,98533,1,0,0:0:0:0:
192,192,98723,128,4,99859:0:0:0:0:
64,192,98723,1,4,0:0:0:0:
320,192,99006,1,0,0:0:0:0:
64,192,99101,1,0,0:0:0:0:
320,192,99196,1,0,0:0:0:0:
448,192,99196,1,0,0:0:0:0:
64,192,99291,1,0,0:0:0:0:
320,192,99385,1,0,0:0:0:0:
448,192,99480,1,0,0:0:0:0:
320,192,99575,1,0,0:0:0:0:
64,192,99575,1,0,0:0:0:0:
448,192,99669,1,0,0:0:0:0:
320,192,99765,1,0,0:0:0:0:
64,192,99765,1,0,0:0:0:0:
448,192,99859,1,0,0:0:0:0:
64,192,99954,1,0,0:0:0:0:
192,192,100048,1,4,0:0:0:0:
320,192,100048,1,4,0:0:0:0:
448,192,100048,1,0,0:0:0:0:
448,192,100237,1,4,0:0:0:0:
64,192,100237,128,4,100901:0:0:0:0:
320,192,100522,1,0,0:0:0:0:
192,192,100616,1,0,0:0:0:0:
320,192,100711,1,0,0:0:0:0:
448,192,100711,1,0,0:0:0:0:
192,192,100805,1,0,0:0:0:0:
320,192,100901,1,0,0:0:0:0:
448,192,100995,1,0,0:0:0:0:
192,192,101090,1,4,0:0:0:0:
320,192,101090,1,0,0:0:0:0:
64,192,101090,1,4,0:0:0:0:
448,192,101185,1,0,0:0:0:0:
192,192,101279,1,0,0:0:0:0:
64,192,101279,1,0,0:0:0:0:
320,192,101374,1,0,0:0:0:0:
448,192,101469,1,0,0:0:0:0:
192,192,101469,1,0,0:0:0:0:
320,192,101564,1,0,0:0:0:0:
448,192,101658,1,0,0:0:0:0:
320,192,101753,1,4,0:0:0:0:
192,192,101753,128,4,102415:0:0:0:0:
448,192,101942,1,8,0:0:0:0:
320,192,102037,1,8,0:0:0:0:
64,192,102037,1,8,0:0:0:0:
448,192,102132,1,8,0:0:0:0:
320,192,102226,1,8,0:0:0:0:
64,192,102226,1,8,0:0:0:0:
448,192,102321,1,8,0:0:0:0:
320,192,102415,1,8,0:0:0:0:
448,192,102510,1,8,0:0:0:0:
320,192,102605,1,8,0:0:0:0:
192,192,102605,1,12,0:0:0:0:
64,192,102605,1,8,0:0:0:0:
448,192,102700,1,8,0:0:0:0:
320,192,102795,1,8,0:0:0:0:
192,192,102889,1,8,0:0:0:0:
320,192,102984,1,12,0:0:0:0:
64,192,102984,1,8,0:0:0:0:
448,192,102984,1,8,0:0:0:0:
192,192,103078,1,8,0:0:0:0:
320,192,103174,1,8,0:0:0:0:
448,192,103174,1,8,0:0:0:0:
192,192,103268,1,8,0:0:0:0:
448,192,103363,1,4,0:0:0:0:
64,192,103363,1,0,0:0:0:0:
320,192,103363,128,4,104405:0:0:0:0:
192,192,103646,1,0,0:0:0:0:
448,192,103742,1,0,0:0:0:0:
64,192,103742,1,0,0:0:0:0:
192,192,103836,1,0,0:0:0:0:
64,192,103931,1,0,0:0:0:0:
448,192,104025,1,0,0:0:0:0:
64,192,104120,1,0,0:0:0:0:
192,192,104120,1,0,0:0:0:0:
448,192,104215,1,0,0:0:0:0:
192,192,104310,1,0,0:0:0:0:
64,192,104310,1,0,0:0:0:0:
448,192,104405,1,0,0:0:0:0:
192,192,104499,1,0,0:0:0:0:
320,192,104594,1,4,0:0:0:0:
448,192,104594,1,0,0:0:0:0:
64,192,104594,1,4,0:0:0:0:
192,192,104783,1,4,0:0:0:0:
448,192,104783,128,4,105919:0:0:0:0:
192,192,105067,1,0,0:0:0:0:
320,192,105162,1,0,0:0:0:0:
192,192,105256,1,0,0:0:0:0:
64,192,105256,1,0,0:0:0:0:
320,192,105351,1,0,0:0:0:0:
64,192,105446,1,0,0:0:0:0:
192,192,105541,1,0,0:0:0:0:
320,192,105635,1,0,0:0:0:0:
64,192,105635,128,2,105919:0:0:0:0:
192,192,105730,1,0,0:0:0:0:
320,192,105825,1,0,0:0:0:0:
192,192,105919,1,0,0:0:0:0:
320,192,106015,1,0,0:0:0:0:
64,192,106109,1,4,0:0:0:0:
192,192,106109,1,4,0:0:0:0:
448,192,106109,1,0,0:0:0:0:
192,192,106298,128,4,107151:0:0:0:0:
64,192,106298,1,4,0:0:0:0:
448,192,106583,1,0,0:0:0:0:
320,192,106677,1,0,0:0:0:0:
64,192,106772,1,0,0:0:0:0:
448,192,106772,1,0,0:0:0:0:
320,192,106866,1,0,0:0:0:0:
64,192,106961,1,0,0:0:0:0:
320,192,107151,1,4,0:0:0:0:
448,192,107151,128,4,107814:0:0:0:0:
64,192,107245,1,0,0:0:0:0:
192,192,107340,1,0,0:0:0:0:
320,192,107435,1,0,0:0:0:0:
192,192,107529,1,0,0:0:0:0:
320,192,107624,1,0,0:0:0:0:
192,192,107719,1,0,0:0:0:0:
320,192,107814,1,0,0:0:0:0:
64,192,107814,128,12,109613:0:0:0:0:
192,192,108003,1,0,0:0:0:0:
320,192,108097,1,0,0:0:0:0:
448,192,108097,128,0,108476:0:0:0:0:
192,192,108192,1,0,0:0:0:0:
320,192,108287,1,0,0:0:0:0:
192,192,108382,1,0,0:0:0:0:
320,192,108476,1,0,0:0:0:0:
192,192,108571,1,0,0:0:0:0:
320,192,108665,1,0,0:0:0:0:
448,192,108665,1,0,0:0:0:0:
192,192,108760,1,0,0:0:0:0:
448,192,108855,1,0,0:0:0:0:
192,192,108950,1,0,0:0:0:0:
448,192,109045,1,0,0:0:0:0:
320,192,109045,1,0,0:0:0:0:
192,192,109139,1,0,0:0:0:0:
320,192,109234,1,0,0:0:0:0:
192,192,109328,1,0,0:0:0:0:
448,192,109424,1,0,0:0:0:0:
320,192,109471,1,0,0:0:0:0:
192,192,109518,1,0,0:0:0:0:
