osu file format v14

[General]
AudioFilename: audio.mp3
AudioLeadIn: 0
PreviewTime: 50368
Countdown: 0
SampleSet: Normal
StackLeniency: 0.7
Mode: 1
LetterboxInBreaks: 0
WidescreenStoryboard: 1

[Editor]
DistanceSpacing: 0.9
BeatDivisor: 4
GridSize: 32
TimelineZoom: 3.099999

[Metadata]
Title:Alstroemeria
TitleUnicode:Alstroemeria
Artist:TAG
ArtistUnicode:TAG
Creator:-[ ix Ishida xi ]-
Version:-[ ix Isago xi ]-
Source:
Tags:sand regretless
BeatmapID:1353446
BeatmapSetID:637676

[Difficulty]
HPDrainRate:5
CircleSize:5
OverallDifficulty:5
ApproachRate:5
SliderMultiplier:1.4
SliderTickRate:1

[Events]
//Background and Video events
0,0,"Konachan.com - 221630 sample.jpg",0,50
//Break Periods
//Storyboard Layer 0 (Background)
//Storyboard Layer 1 (Fail)
//Storyboard Layer 2 (Pass)
//Storyboard Layer 3 (Foreground)
//Storyboard Sound Samples

[TimingPoints]
370,416.666666666667,4,1,0,100,1,0
371,-66.6666666666667,4,1,0,100,0,0
50370,-66.6666666666667,4,1,0,100,0,1
63703,-66.6666666666667,4,1,0,100,0,0
93703,-66.6666666666667,4,1,0,100,0,1
107036,-66.6666666666667,4,1,0,100,0,0

[HitObjects]
248,172,371,5,4,0:0:0:0:
256,192,682,1,8,0:0:0:0:
256,192,786,1,0,0:0:0:0:
256,192,995,1,8,0:0:0:0:
256,128,1203,1,0,0:0:0:0:
256,128,1307,1,8,0:0:0:0:
256,128,1515,1,0,0:0:0:0:
256,128,1724,1,12,0:0:0:0:
256,128,1932,1,4,0:0:0:0:
256,128,2349,1,8,0:0:0:0:
256,128,2453,1,0,0:0:0:0:
256,128,2661,1,0,0:0:0:0:
256,128,2870,1,0,0:0:0:0:
256,128,2974,1,8,0:0:0:0:
256,128,3182,1,0,0:0:0:0:
256,128,3390,1,12,0:0:0:0:
256,128,3599,1,4,0:0:0:0:
288,96,4015,1,8,0:0:0:0:
288,96,4120,1,0,0:0:0:0:
288,96,4224,1,0,0:0:0:0:
288,96,4328,1,8,0:0:0:0:
288,96,4432,1,0,0:0:0:0:
288,128,4536,1,12,0:0:0:0:
288,128,4849,1,0,0:0:0:0:
288,128,4953,1,8,0:0:0:0:
288,128,5057,1,8,0:0:0:0:
288,128,5161,1,0,0:0:0:0:
288,128,5265,1,4,0:0:0:0:
288,160,5578,1,8,0:0:0:0:
288,160,5786,1,0,0:0:0:0:
288,160,5890,1,8,0:0:0:0:
288,160,6099,1,0,0:0:0:0:
288,160,6203,1,8,0:0:0:0:
288,96,6272,1,0,0:0:0:0:
288,96,6342,1,0,0:0:0:0:
288,96,6411,1,0,0:0:0:0:
288,160,6515,1,0,0:0:0:0:
288,160,6620,1,8,0:0:0:0:
288,96,6689,1,0,0:0:0:0:
288,96,6758,1,0,0:0:0:0:
288,160,6828,1,8,0:0:0:0:
288,160,6932,1,8,0:0:0:0:
288,160,7036,1,4,0:0:0:0:
256,192,7349,1,8,0:0:0:0:
256,192,7453,1,0,0:0:0:0:
256,192,7557,1,0,0:0:0:0:
256,192,7662,1,8,0:0:0:0:
256,128,7870,1,0,0:0:0:0:
256,128,7974,1,8,0:0:0:0:
256,192,8078,1,8,0:0:0:0:
256,192,8182,1,0,0:0:0:0:
256,128,8391,1,12,0:0:0:0:
256,128,8599,1,4,0:0:0:0:
256,128,9016,1,8,0:0:0:0:
256,128,9120,1,0,0:0:0:0:
256,192,9224,1,8,0:0:0:0:
256,128,9328,1,0,0:0:0:0:
256,128,9536,1,8,0:0:0:0:
256,128,9641,1,8,0:0:0:0:
320,192,9745,1,8,0:0:0:0:
256,128,9849,1,0,0:0:0:0:
256,128,10057,1,12,0:0:0:0:
256,128,10266,1,4,0:0:0:0:
288,96,10682,1,8,0:0:0:0:
288,96,10787,1,0,0:0:0:0:
288,96,10891,1,0,0:0:0:0:
288,96,10995,1,8,0:0:0:0:
288,96,11099,1,0,0:0:0:0:
288,128,11203,1,12,0:0:0:0:
288,128,11516,1,0,0:0:0:0:
288,128,11620,1,8,0:0:0:0:
288,128,11724,1,8,0:0:0:0:
288,128,11828,1,0,0:0:0:0:
288,128,11932,1,4,0:0:0:0:
288,160,12245,1,8,0:0:0:0:
288,160,12453,1,0,0:0:0:0:
288,160,12557,1,8,0:0:0:0:
288,160,12766,1,0,0:0:0:0:
288,160,12870,1,8,0:0:0:0:
288,96,12939,1,0,0:0:0:0:
288,96,13009,1,0,0:0:0:0:
288,96,13078,1,0,0:0:0:0:
288,160,13182,1,0,0:0:0:0:
288,160,13287,1,8,0:0:0:0:
288,96,13356,1,0,0:0:0:0:
288,96,13425,1,0,0:0:0:0:
288,160,13495,1,8,0:0:0:0:
288,160,13599,1,8,0:0:0:0:
288,160,13703,1,4,0:0:0:0:
256,64,14015,1,8,0:0:0:0:
256,64,14120,1,0,0:0:0:0:
256,64,14328,1,8,0:0:0:0:
256,64,14745,1,8,0:0:0:0:
256,64,14953,1,0,0:0:0:0:
256,64,15057,1,8,0:0:0:0:
256,64,15161,1,0,0:0:0:0:
256,64,15266,1,8,0:0:0:0:
288,160,15578,1,8,0:0:0:0:
288,160,15786,1,0,0:0:0:0:
288,160,15890,1,8,0:0:0:0:
288,160,16099,1,8,0:0:0:0:
288,160,16203,1,0,0:0:0:0:
288,160,16515,1,8,0:0:0:0:
288,160,16724,1,8,0:0:0:0:
288,128,16828,1,0,0:0:0:0:
288,128,16932,1,8,0:0:0:0:
416,128,17036,1,0,0:0:0:0:
256,64,17349,1,8,0:0:0:0:
256,64,17454,1,0,0:0:0:0:
256,64,17662,1,8,0:0:0:0:
352,192,17870,1,0,0:0:0:0:
256,192,18182,1,8,0:0:0:0:
256,64,18287,1,0,0:0:0:0:
256,64,18495,1,8,0:0:0:0:
288,96,18599,1,0,0:0:0:0:
256,160,18911,1,8,0:0:0:0:
256,160,19015,1,0,0:0:0:0:
256,160,19224,1,8,0:0:0:0:
256,160,19328,1,0,0:0:0:0:
256,160,19536,1,8,0:0:0:0:
256,160,19640,1,0,0:0:0:0:
256,160,19745,1,0,0:0:0:0:
288,160,19849,1,8,0:0:0:0:
256,128,20057,1,0,0:0:0:0:
256,128,20161,1,8,0:0:0:0:
256,128,20265,1,8,0:0:0:0:
256,128,20370,1,0,0:0:0:0:
256,128,20682,1,8,0:0:0:0:
256,128,20786,1,0,0:0:0:0:
256,128,20995,1,8,0:0:0:0:
256,160,21411,1,8,0:0:0:0:
256,160,21620,1,8,0:0:0:0:
256,160,21724,1,0,0:0:0:0:
256,160,21828,1,8,0:0:0:0:
256,160,21932,1,0,0:0:0:0:
224,128,22036,1,8,0:0:0:0:
224,128,22245,1,8,0:0:0:0:
224,128,22349,1,8,0:0:0:0:
224,128,22557,1,8,0:0:0:0:
224,160,22765,1,0,0:0:0:0:
224,160,23390,1,0,0:0:0:0:
224,160,23495,1,8,0:0:0:0:
224,160,23599,1,0,0:0:0:0:
224,160,23703,1,8,0:0:0:0:
224,160,23911,1,8,0:0:0:0:
224,160,24015,1,0,0:0:0:0:
224,160,24329,1,8,0:0:0:0:
224,160,24537,1,0,0:0:0:0:
224,160,24641,1,8,0:0:0:0:
224,160,24850,1,8,0:0:0:0:
224,160,24954,1,0,0:0:0:0:
224,160,25162,1,8,0:0:0:0:
224,160,25265,1,0,0:0:0:0:
192,160,25578,1,8,0:0:0:0:
192,160,25682,1,0,0:0:0:0:
192,160,25786,1,0,0:0:0:0:
192,160,25890,1,8,0:0:0:0:
192,160,25995,1,0,0:0:0:0:
192,160,26099,1,0,0:0:0:0:
192,160,26203,1,8,0:0:0:0:
224,160,26411,1,0,0:0:0:0:
224,160,26515,1,0,0:0:0:0:
224,160,26620,1,8,0:0:0:0:
224,160,26828,1,8,0:0:0:0:
224,160,26932,1,8,0:0:0:0:
224,160,27036,1,0,0:0:0:0:
256,128,27349,1,8,0:0:0:0:
256,128,27453,1,0,0:0:0:0:
256,128,27661,1,8,0:0:0:0:
256,128,28286,1,0,0:0:0:0:
256,128,28390,1,8,0:0:0:0:
224,96,28599,1,8,0:0:0:0:
224,96,29328,1,8,0:0:0:0:
224,96,29536,1,8,0:0:0:0:
224,96,29745,1,0,0:0:0:0:
224,96,29953,1,8,0:0:0:0:
224,96,30057,1,0,0:0:0:0:
224,96,30161,1,8,0:0:0:0:
224,96,30265,1,0,0:0:0:0:
224,96,30370,1,8,0:0:0:0:
224,96,30578,1,8,0:0:0:0:
224,96,30682,1,0,0:0:0:0:
224,96,30995,1,8,0:0:0:0:
224,96,31203,1,0,0:0:0:0:
224,96,31828,1,8,0:0:0:0:
224,96,31932,1,0,0:0:0:0:
224,96,32036,1,8,0:0:0:0:
352,96,32245,1,8,0:0:0:0:
224,96,32349,1,0,0:0:0:0:
224,96,32454,1,0,0:0:0:0:
224,96,32558,1,8,0:0:0:0:
224,96,32662,1,0,0:0:0:0:
224,96,32766,1,0,0:0:0:0:
224,96,32870,1,8,0:0:0:0:
256,96,33078,1,8,0:0:0:0:
256,96,33182,1,8,0:0:0:0:
256,96,33286,1,8,0:0:0:0:
256,96,33495,1,8,0:0:0:0:
256,96,33599,1,8,0:0:0:0:
256,96,33703,1,0,0:0:0:0:
384,160,34015,1,0,0:0:0:0:
384,160,34120,1,8,0:0:0:0:
384,160,34328,1,0,0:0:0:0:
384,160,34432,1,8,0:0:0:0:
384,160,34536,1,0,0:0:0:0:
384,160,34745,1,0,0:0:0:0:
384,160,34953,1,8,0:0:0:0:
384,160,35161,1,8,0:0:0:0:
384,160,35265,1,0,0:0:0:0:
384,160,35578,1,0,0:0:0:0:
384,160,35682,1,0,0:0:0:0:
384,160,35786,1,8,0:0:0:0:
384,160,35995,1,0,0:0:0:0:
384,160,36099,1,0,0:0:0:0:
384,160,36307,1,0,0:0:0:0:
384,160,36411,1,0,0:0:0:0:
384,160,36620,1,8,0:0:0:0:
384,160,36828,1,8,0:0:0:0:
352,160,36932,1,0,0:0:0:0:
384,160,37245,1,0,0:0:0:0:
384,160,37453,1,8,0:0:0:0:
384,160,37661,1,8,0:0:0:0:
384,160,37765,1,0,0:0:0:0:
320,160,37870,1,0,0:0:0:0:
352,128,38078,1,8,0:0:0:0:
352,128,38286,1,8,0:0:0:0:
352,128,38390,1,8,0:0:0:0:
352,160,38495,1,0,0:0:0:0:
352,160,38703,1,8,0:0:0:0:
256,160,38911,1,0,0:0:0:0:
320,128,39015,1,8,0:0:0:0:
288,160,39224,1,0,0:0:0:0:
320,128,39328,1,0,0:0:0:0:
320,128,39432,1,8,0:0:0:0:
320,128,39536,1,8,0:0:0:0:
320,128,39745,1,0,0:0:0:0:
320,128,39953,1,8,0:0:0:0:
320,128,40057,1,8,0:0:0:0:
320,128,40161,1,0,0:0:0:0:
320,128,40265,1,0,0:0:0:0:
320,128,40370,1,0,0:0:0:0:
384,160,40682,1,0,0:0:0:0:
384,160,40787,1,8,0:0:0:0:
384,160,40995,1,0,0:0:0:0:
384,160,41099,1,8,0:0:0:0:
384,160,41203,1,0,0:0:0:0:
384,160,41412,1,8,0:0:0:0:
384,160,41620,1,0,0:0:0:0:
384,160,41828,1,8,0:0:0:0:
384,160,41932,1,0,0:0:0:0:
384,160,42245,1,0,0:0:0:0:
384,160,42349,1,0,0:0:0:0:
384,160,42453,1,8,0:0:0:0:
384,160,42662,1,0,0:0:0:0:
384,160,42766,1,0,0:0:0:0:
384,160,42974,1,0,0:0:0:0:
384,160,43078,1,0,0:0:0:0:
384,160,43287,1,8,0:0:0:0:
384,160,43495,1,8,0:0:0:0:
352,160,43599,1,0,0:0:0:0:
384,160,43912,1,0,0:0:0:0:
384,160,44120,1,8,0:0:0:0:
384,160,44328,1,8,0:0:0:0:
384,160,44432,1,0,0:0:0:0:
320,160,44537,1,0,0:0:0:0:
352,128,44745,1,8,0:0:0:0:
352,128,44953,1,8,0:0:0:0:
352,128,45057,1,8,0:0:0:0:
352,160,45162,1,0,0:0:0:0:
288,128,45265,1,0,0:0:0:0:
352,160,45370,1,8,0:0:0:0:
256,160,45578,1,0,0:0:0:0:
320,128,45682,1,8,0:0:0:0:
288,160,45891,1,0,0:0:0:0:
320,128,45995,1,0,0:0:0:0:
320,128,46099,1,8,0:0:0:0:
320,128,46203,1,8,0:0:0:0:
320,128,46412,1,0,0:0:0:0:
320,128,46620,1,8,0:0:0:0:
320,128,46724,1,8,0:0:0:0:
320,128,46828,1,0,0:0:0:0:
320,128,46932,1,0,0:0:0:0:
288,128,47036,1,8,0:0:0:0:
320,160,47245,1,0,0:0:0:0:
320,160,47349,1,8,0:0:0:0:
320,160,47557,1,0,0:0:0:0:
320,160,47661,1,8,0:0:0:0:
320,160,47765,1,8,0:0:0:0:
320,160,47870,1,8,0:0:0:0:
288,192,48286,1,8,0:0:0:0:
288,192,48390,1,0,0:0:0:0:
288,192,48495,1,0,0:0:0:0:
288,192,48599,1,8,0:0:0:0:
288,192,48807,1,0,0:0:0:0:
288,192,49015,1,0,0:0:0:0:
288,192,49120,1,8,0:0:0:0:
288,192,49328,1,0,0:0:0:0:
288,192,49432,1,8,0:0:0:0:
320,160,49536,1,0,0:0:0:0:
320,160,49606,1,0,0:0:0:0:
320,160,49675,1,0,0:0:0:0:
320,160,49745,1,0,0:0:0:0:
320,160,49814,1,0,0:0:0:0:
320,160,49883,1,0,0:0:0:0:
320,160,49953,1,8,0:0:0:0:
320,160,50370,1,4,0:0:0:0:
288,128,50578,1,8,0:0:0:0:
288,128,50682,1,0,0:0:0:0:
288,128,50890,1,8,0:0:0:0:
288,128,50995,1,0,0:0:0:0:
288,128,51203,1,8,0:0:0:0:
288,128,51307,1,0,0:0:0:0:
288,128,51515,1,8,0:0:0:0:
352,192,51620,1,0,0:0:0:0:
352,192,51828,1,0,0:0:0:0:
352,192,52036,1,0,0:0:0:0:
352,192,52245,1,8,0:0:0:0:
352,192,52349,1,0,0:0:0:0:
352,192,52557,1,8,0:0:0:0:
352,192,52661,1,0,0:0:0:0:
352,192,52870,1,8,0:0:0:0:
352,192,52974,1,0,0:0:0:0:
352,224,53182,1,0,0:0:0:0:
352,224,53286,1,8,0:0:0:0:
352,224,53495,1,0,0:0:0:0:
352,224,53703,1,0,0:0:0:0:
320,160,53911,1,8,0:0:0:0:
320,160,54015,1,0,0:0:0:0:
320,160,54224,1,8,0:0:0:0:
320,160,54328,1,0,0:0:0:0:
320,160,54536,1,8,0:0:0:0:
320,160,54640,1,0,0:0:0:0:
320,160,54849,1,8,0:0:0:0:
320,160,54953,1,0,0:0:0:0:
320,160,55161,1,0,0:0:0:0:
320,160,55370,1,0,0:0:0:0:
320,160,55578,1,8,0:0:0:0:
320,160,55682,1,8,0:0:0:0:
320,160,55786,1,8,0:0:0:0:
320,160,55995,1,0,0:0:0:0:
320,160,56203,1,8,0:0:0:0:
320,160,56307,1,8,0:0:0:0:
320,160,56411,1,0,0:0:0:0:
320,160,56620,1,0,0:0:0:0:
320,160,56828,1,0,0:0:0:0:
320,160,56932,1,0,0:0:0:0:
320,160,57036,1,8,0:0:0:0:
256,160,57245,1,0,0:0:0:0:
256,160,57349,1,8,0:0:0:0:
256,160,57453,1,0,0:0:0:0:
256,160,57557,1,0,0:0:0:0:
256,160,57661,1,8,0:0:0:0:
256,160,57870,1,0,0:0:0:0:
256,160,57974,1,8,0:0:0:0:
256,160,58182,1,0,0:0:0:0:
256,160,58286,1,8,0:0:0:0:
256,160,58390,1,8,0:0:0:0:
256,160,58495,1,0,0:0:0:0:
256,160,58703,1,8,0:0:0:0:
256,160,58807,1,0,0:0:0:0:
256,160,58911,1,0,0:0:0:0:
256,160,59015,1,8,0:0:0:0:
256,160,59120,1,0,0:0:0:0:
256,160,59224,1,0,0:0:0:0:
256,160,59328,1,8,0:0:0:0:
256,160,59536,1,0,0:0:0:0:
256,160,59640,1,8,0:0:0:0:
256,160,59745,1,0,0:0:0:0:
256,160,59953,1,8,0:0:0:0:
256,160,60161,1,0,0:0:0:0:
256,160,60265,1,0,0:0:0:0:
256,160,60370,1,8,0:0:0:0:
256,160,60578,1,0,0:0:0:0:
256,160,60682,1,8,0:0:0:0:
256,160,60786,1,0,0:0:0:0:
256,160,60890,1,0,0:0:0:0:
256,160,60995,1,8,0:0:0:0:
256,160,61203,1,0,0:0:0:0:
256,160,61307,1,8,0:0:0:0:
224,160,61515,1,8,0:0:0:0:
224,160,61620,1,0,0:0:0:0:
224,160,61828,1,8,0:0:0:0:
224,160,62036,1,8,0:0:0:0:
320,128,62106,1,8,0:0:0:0:
320,128,62175,1,0,0:0:0:0:
320,128,62245,1,0,0:0:0:0:
320,128,62349,1,8,0:0:0:0:
320,128,62418,1,8,0:0:0:0:
320,128,62488,1,0,0:0:0:0:
320,128,62557,1,0,0:0:0:0:
320,128,62661,1,8,0:0:0:0:
256,160,62713,1,8,0:0:0:0:
256,160,62765,1,0,0:0:0:0:
256,160,62817,1,0,0:0:0:0:
256,160,62870,1,8,0:0:0:0:
224,160,63078,1,0,0:0:0:0:
224,160,63182,1,8,0:0:0:0:
224,160,63286,1,8,0:0:0:0:
224,160,63495,1,8,0:0:0:0:
224,160,63599,1,8,0:0:0:0:
224,160,63703,1,4,0:0:0:0:
256,64,64015,1,8,0:0:0:0:
256,64,64120,1,0,0:0:0:0:
256,64,64328,1,8,0:0:0:0:
320,160,64536,1,0,0:0:0:0:
256,128,64849,1,8,0:0:0:0:
256,64,64953,1,0,0:0:0:0:
288,128,65057,1,8,0:0:0:0:
256,64,65161,1,0,0:0:0:0:
256,64,65266,1,8,0:0:0:0:
256,160,65370,1,0,0:0:0:0:
256,64,65682,1,8,0:0:0:0:
288,160,65786,1,0,0:0:0:0:
256,96,65995,1,8,0:0:0:0:
288,160,66203,1,0,0:0:0:0:
288,160,66515,1,8,0:0:0:0:
224,64,66620,1,0,0:0:0:0:
224,96,66724,1,8,0:0:0:0:
288,128,66828,1,0,0:0:0:0:
288,128,66932,1,8,0:0:0:0:
416,128,67036,1,0,0:0:0:0:
256,64,67349,1,8,0:0:0:0:
256,64,67454,1,0,0:0:0:0:
256,64,67662,1,8,0:0:0:0:
352,192,67870,1,0,0:0:0:0:
256,192,68182,1,8,0:0:0:0:
256,64,68287,1,0,0:0:0:0:
256,64,68495,1,8,0:0:0:0:
288,96,68599,1,0,0:0:0:0:
288,64,68703,1,0,0:0:0:0:
256,160,68911,1,8,0:0:0:0:
256,160,69015,1,0,0:0:0:0:
256,160,69224,1,8,0:0:0:0:
256,160,69328,1,0,0:0:0:0:
256,160,69536,1,8,0:0:0:0:
256,160,69640,1,0,0:0:0:0:
256,160,69745,1,0,0:0:0:0:
288,160,69849,1,8,0:0:0:0:
256,128,70057,1,0,0:0:0:0:
256,128,70161,1,8,0:0:0:0:
256,128,70265,1,8,0:0:0:0:
256,128,70370,1,0,0:0:0:0:
256,64,70682,1,8,0:0:0:0:
256,64,70787,1,0,0:0:0:0:
256,64,70995,1,8,0:0:0:0:
320,160,71203,1,0,0:0:0:0:
256,128,71516,1,8,0:0:0:0:
256,64,71620,1,0,0:0:0:0:
288,128,71724,1,8,0:0:0:0:
256,64,71828,1,0,0:0:0:0:
256,64,71933,1,8,0:0:0:0:
256,160,72037,1,0,0:0:0:0:
256,64,72349,1,8,0:0:0:0:
288,160,72453,1,0,0:0:0:0:
256,96,72662,1,8,0:0:0:0:
288,160,72870,1,0,0:0:0:0:
288,160,73182,1,8,0:0:0:0:
224,64,73287,1,0,0:0:0:0:
224,96,73391,1,8,0:0:0:0:
288,128,73495,1,0,0:0:0:0:
288,128,73599,1,8,0:0:0:0:
416,128,73703,1,0,0:0:0:0:
256,64,74016,1,8,0:0:0:0:
256,64,74121,1,0,0:0:0:0:
256,64,74329,1,8,0:0:0:0:
224,128,74432,1,8,0:0:0:0:
352,192,74537,1,0,0:0:0:0:
256,160,74640,1,0,0:0:0:0:
256,192,74849,1,0,0:0:0:0:
256,64,74953,1,8,0:0:0:0:
256,64,75162,1,8,0:0:0:0:
288,96,75266,1,0,0:0:0:0:
288,64,75370,1,0,0:0:0:0:
256,160,75578,1,8,0:0:0:0:
256,160,75682,1,0,0:0:0:0:
256,160,75786,1,0,0:0:0:0:
256,160,75891,1,8,0:0:0:0:
256,160,75995,1,0,0:0:0:0:
256,160,76099,1,0,0:0:0:0:
256,160,76203,1,8,0:0:0:0:
256,160,76307,1,8,0:0:0:0:
256,160,76412,1,0,0:0:0:0:
288,160,76516,1,8,0:0:0:0:
192,160,76620,1,8,0:0:0:0:
256,128,76724,1,0,0:0:0:0:
256,128,76828,1,8,0:0:0:0:
256,128,76932,1,8,0:0:0:0:
256,128,77037,1,0,0:0:0:0:
288,160,77245,1,0,0:0:0:0:
288,160,77349,1,8,0:0:0:0:
288,160,77453,1,0,0:0:0:0:
288,160,77557,1,0,0:0:0:0:
288,160,77661,1,8,0:0:0:0:
288,160,77870,1,8,0:0:0:0:
288,160,77974,1,0,0:0:0:0:
288,160,78182,1,8,0:0:0:0:
288,160,78286,1,0,0:0:0:0:
416,96,78356,1,8,0:0:0:0:
288,160,78529,1,8,0:0:0:0:
416,96,78599,1,0,0:0:0:0:
256,128,78911,1,8,0:0:0:0:
256,128,79224,1,8,0:0:0:0:
256,128,79536,1,8,0:0:0:0:
320,128,79675,1,8,0:0:0:0:
320,128,79814,1,8,0:0:0:0:
320,128,79953,1,0,0:0:0:0:
320,128,80092,1,0,0:0:0:0:
320,128,80231,1,0,0:0:0:0:
256,128,80370,1,4,0:0:0:0:
224,192,80578,1,8,0:0:0:0:
224,192,80682,1,0,0:0:0:0:
224,192,80890,1,8,0:0:0:0:
224,192,80995,1,0,0:0:0:0:
256,192,81203,1,0,0:0:0:0:
288,128,81307,1,8,0:0:0:0:
256,192,81515,1,8,0:0:0:0:
256,192,81620,1,0,0:0:0:0:
256,192,81828,1,8,0:0:0:0:
256,192,82036,1,0,0:0:0:0:
256,192,82245,1,8,0:0:0:0:
256,192,82349,1,0,0:0:0:0:
288,192,82557,1,8,0:0:0:0:
288,192,82661,1,0,0:0:0:0:
288,192,82870,1,0,0:0:0:0:
288,192,82974,1,8,0:0:0:0:
288,192,83182,1,8,0:0:0:0:
256,192,83286,1,0,0:0:0:0:
224,192,83495,1,8,0:0:0:0:
224,192,83703,1,0,0:0:0:0:
224,192,83911,1,8,0:0:0:0:
224,192,84015,1,0,0:0:0:0:
224,128,84224,1,8,0:0:0:0:
224,128,84328,1,0,0:0:0:0:
224,128,84536,1,0,0:0:0:0:
224,128,84640,1,8,0:0:0:0:
224,128,84849,1,8,0:0:0:0:
224,192,84953,1,0,0:0:0:0:
224,128,85161,1,8,0:0:0:0:
224,128,85370,1,0,0:0:0:0:
224,128,85995,1,0,0:0:0:0:
160,160,86620,1,8,0:0:0:0:
160,160,86828,1,8,0:0:0:0:
160,160,86932,1,8,0:0:0:0:
160,160,87036,1,0,0:0:0:0:
160,160,87349,1,0,0:0:0:0:
160,160,87453,1,8,0:0:0:0:
160,160,87661,1,0,0:0:0:0:
160,160,87765,1,8,0:0:0:0:
160,160,87870,1,0,0:0:0:0:
160,160,87974,1,0,0:0:0:0:
160,160,88078,1,0,0:0:0:0:
160,160,88182,1,0,0:0:0:0:
160,160,88286,1,8,0:0:0:0:
160,160,88495,1,0,0:0:0:0:
160,160,88599,1,8,0:0:0:0:
160,160,88703,1,0,0:0:0:0:
160,160,88911,1,0,0:0:0:0:
160,160,89015,1,0,0:0:0:0:
160,160,89120,1,8,0:0:0:0:
160,160,89328,1,0,0:0:0:0:
160,160,89432,1,8,0:0:0:0:
160,160,89536,1,0,0:0:0:0:
160,160,89640,1,0,0:0:0:0:
160,160,89745,1,0,0:0:0:0:
160,160,89849,1,0,0:0:0:0:
160,160,89953,1,8,0:0:0:0:
160,160,90161,1,0,0:0:0:0:
160,160,90265,1,8,0:0:0:0:
160,160,90370,1,0,0:0:0:0:
160,160,90578,1,0,0:0:0:0:
160,160,90682,1,0,0:0:0:0:
160,160,90786,1,8,0:0:0:0:
160,160,90995,1,0,0:0:0:0:
160,160,91099,1,8,0:0:0:0:
160,160,91203,1,0,0:0:0:0:
160,160,91307,1,0,0:0:0:0:
160,160,91411,1,8,0:0:0:0:
160,160,91515,1,0,0:0:0:0:
160,160,91620,1,8,0:0:0:0:
160,160,91828,1,8,0:0:0:0:
160,160,91932,1,0,0:0:0:0:
160,160,92036,1,8,0:0:0:0:
160,160,92140,1,0,0:0:0:0:
160,160,92245,1,0,0:0:0:0:
160,160,92349,1,8,0:0:0:0:
160,160,92453,1,0,0:0:0:0:
160,160,92557,1,0,0:0:0:0:
160,160,92661,1,8,0:0:0:0:
160,160,92765,1,0,0:0:0:0:
128,192,92870,1,8,0:0:0:0:
160,160,92974,1,8,0:0:0:0:
160,160,93078,1,0,0:0:0:0:
160,160,93182,1,0,0:0:0:0:
256,128,93286,1,8,0:0:0:0:
256,128,93356,1,8,0:0:0:0:
256,128,93425,1,8,0:0:0:0:
256,128,93495,1,8,0:0:0:0:
256,128,93564,1,8,0:0:0:0:
256,128,93633,1,8,0:0:0:0:
256,128,93703,1,0,0:0:0:0:
160,128,93807,1,8,0:0:0:0:
256,192,93911,1,8,0:0:0:0:
256,192,94015,1,0,0:0:0:0:
160,128,94120,1,8,0:0:0:0:
256,192,94224,1,8,0:0:0:0:
256,192,94328,1,0,0:0:0:0:
160,128,94432,1,8,0:0:0:0:
256,192,94536,1,8,0:0:0:0:
224,192,94640,1,0,0:0:0:0:
160,128,94745,1,8,0:0:0:0:
224,192,94849,1,8,0:0:0:0:
224,192,94953,1,0,0:0:0:0:
160,128,95057,1,8,0:0:0:0:
224,192,95161,1,8,0:0:0:0:
224,192,95265,1,8,0:0:0:0:
224,192,95370,1,0,0:0:0:0:
160,128,95474,1,8,0:0:0:0:
256,192,95578,1,8,0:0:0:0:
256,192,95682,1,0,0:0:0:0:
160,128,95787,1,8,0:0:0:0:
256,192,95891,1,8,0:0:0:0:
256,192,95995,1,0,0:0:0:0:
160,128,96099,1,8,0:0:0:0:
256,192,96203,1,8,0:0:0:0:
224,192,96307,1,0,0:0:0:0:
160,128,96412,1,8,0:0:0:0:
224,192,96516,1,8,0:0:0:0:
224,192,96620,1,0,0:0:0:0:
160,128,96724,1,8,0:0:0:0:
224,192,96828,1,0,0:0:0:0:
224,192,96932,1,8,0:0:0:0:
224,192,97037,1,0,0:0:0:0:
160,128,97140,1,8,0:0:0:0:
256,192,97244,1,8,0:0:0:0:
256,192,97348,1,0,0:0:0:0:
160,128,97453,1,8,0:0:0:0:
256,192,97557,1,8,0:0:0:0:
256,192,97661,1,0,0:0:0:0:
160,128,97765,1,8,0:0:0:0:
256,192,97869,1,8,0:0:0:0:
224,192,97973,1,0,0:0:0:0:
160,128,98078,1,8,0:0:0:0:
224,192,98182,1,8,0:0:0:0:
224,192,98286,1,0,0:0:0:0:
160,128,98390,1,8,0:0:0:0:
224,192,98494,1,8,0:0:0:0:
224,192,98598,1,8,0:0:0:0:
224,192,98703,1,0,0:0:0:0:
256,128,98911,1,0,0:0:0:0:
256,128,99015,1,0,0:0:0:0:
256,128,99120,1,8,0:0:0:0:
256,128,99328,1,0,0:0:0:0:
224,128,99432,1,0,0:0:0:0:
256,128,99640,1,8,0:0:0:0:
256,128,99745,1,0,0:0:0:0:
256,128,99953,1,8,0:0:0:0:
288,128,100161,1,8,0:0:0:0:
288,128,100265,1,8,0:0:0:0:
288,128,100370,1,8,0:0:0:0:
256,160,100474,1,0,0:0:0:0:
288,128,100578,1,8,0:0:0:0:
288,128,100682,1,0,0:0:0:0:
288,128,100890,1,0,0:0:0:0:
320,96,100942,1,0,0:0:0:0:
288,128,100995,1,8,0:0:0:0:
288,96,101203,1,8,0:0:0:0:
288,96,101307,1,0,0:0:0:0:
288,96,101411,1,0,0:0:0:0:
288,96,101515,1,8,0:0:0:0:
224,128,101620,1,0,0:0:0:0:
288,96,101724,1,0,0:0:0:0:
256,128,101828,1,8,0:0:0:0:
320,96,102036,1,8,0:0:0:0:
320,96,102106,1,8,0:0:0:0:
320,96,102175,1,0,0:0:0:0:
320,96,102245,1,0,0:0:0:0:
320,96,102349,1,8,0:0:0:0:
320,96,102418,1,0,0:0:0:0:
320,96,102488,1,0,0:0:0:0:
320,96,102557,1,0,0:0:0:0:
320,96,102661,1,8,0:0:0:0:
288,128,102870,1,0,0:0:0:0:
288,128,102974,1,8,0:0:0:0:
288,96,103078,1,8,0:0:0:0:
288,128,103182,1,8,0:0:0:0:
288,128,103286,1,0,0:0:0:0:
288,128,103495,1,8,0:0:0:0:
288,160,103599,1,8,0:0:0:0:
288,128,103703,1,0,0:0:0:0:
288,96,103911,1,8,0:0:0:0:
288,96,104015,1,0,0:0:0:0:
288,96,104224,1,8,0:0:0:0:
288,96,104328,1,0,0:0:0:0:
256,96,104536,1,0,0:0:0:0:
256,96,104640,1,8,0:0:0:0:
256,96,104745,1,8,0:0:0:0:
256,96,104849,1,0,0:0:0:0:
256,96,104953,1,8,0:0:0:0:
256,96,105057,1,8,0:0:0:0:
256,96,105161,1,0,0:0:0:0:
256,128,105265,1,8,0:0:0:0:
224,128,105370,1,8,0:0:0:0:
320,64,105439,1,8,0:0:0:0:
320,64,105508,1,0,0:0:0:0:
320,64,105578,1,0,0:0:0:0:
224,128,105682,1,8,0:0:0:0:
320,64,105751,1,8,0:0:0:0:
320,64,105820,1,0,0:0:0:0:
320,64,105890,1,0,0:0:0:0:
288,96,105995,1,8,0:0:0:0:
288,96,106047,1,8,0:0:0:0:
288,96,106099,1,0,0:0:0:0:
288,96,106151,1,0,0:0:0:0:
288,96,106203,1,8,0:0:0:0:
320,64,106620,1,8,0:0:0:0:
320,64,106689,1,8,0:0:0:0:
320,64,106758,1,8,0:0:0:0:
320,64,106828,1,8,0:0:0:0:
320,64,106897,1,8,0:0:0:0:
320,64,106967,1,8,0:0:0:0:
320,64,107036,1,4,0:0:0:0:
256,192,107349,1,8,0:0:0:0:
256,192,107453,1,0,0:0:0:0:
256,192,107662,1,8,0:0:0:0:
256,128,107870,1,0,0:0:0:0:
256,128,107974,1,8,0:0:0:0:
256,128,108182,1,0,0:0:0:0:
256,128,108391,1,12,0:0:0:0:
256,128,108599,1,4,0:0:0:0:
256,128,109016,1,8,0:0:0:0:
256,128,109120,1,0,0:0:0:0:
256,128,109328,1,0,0:0:0:0:
256,128,109537,1,0,0:0:0:0:
256,128,109641,1,8,0:0:0:0:
256,128,109849,1,0,0:0:0:0:
256,128,110057,1,12,0:0:0:0:
256,128,110266,1,4,0:0:0:0:
288,96,110682,1,8,0:0:0:0:
288,96,110787,1,0,0:0:0:0:
288,96,110891,1,0,0:0:0:0:
288,96,110995,1,8,0:0:0:0:
288,96,111099,1,0,0:0:0:0:
288,128,111203,1,12,0:0:0:0:
288,128,111516,1,0,0:0:0:0:
288,128,111620,1,8,0:0:0:0:
288,128,111724,1,8,0:0:0:0:
288,128,111828,1,0,0:0:0:0:
288,128,111932,1,4,0:0:0:0:
288,160,112245,1,8,0:0:0:0:
288,160,112453,1,0,0:0:0:0:
288,160,112557,1,8,0:0:0:0:
288,160,112766,1,0,0:0:0:0:
288,160,112870,1,8,0:0:0:0:
288,96,112939,1,0,0:0:0:0:
288,96,113009,1,0,0:0:0:0:
288,96,113078,1,0,0:0:0:0:
288,160,113182,1,0,0:0:0:0:
288,160,113287,1,8,0:0:0:0:
288,96,113356,1,0,0:0:0:0:
288,96,113425,1,0,0:0:0:0:
288,160,113495,1,8,0:0:0:0:
288,160,113599,1,8,0:0:0:0:
288,160,113703,1,4,0:0:0:0:
256,192,114016,1,8,0:0:0:0:
256,192,114120,1,0,0:0:0:0:
256,192,114224,1,0,0:0:0:0:
256,192,114329,1,8,0:0:0:0:
256,128,114537,1,0,0:0:0:0:
256,128,114641,1,8,0:0:0:0:
256,192,114745,1,8,0:0:0:0:
256,192,114849,1,0,0:0:0:0:
256,128,115058,1,12,0:0:0:0:
256,128,115266,1,4,0:0:0:0:
256,128,115683,1,8,0:0:0:0:
256,128,115787,1,0,0:0:0:0:
256,192,115891,1,8,0:0:0:0:
256,128,115995,1,0,0:0:0:0:
256,128,116203,1,8,0:0:0:0:
256,128,116308,1,8,0:0:0:0:
320,192,116412,1,8,0:0:0:0:
256,128,116516,1,0,0:0:0:0:
256,128,116724,1,12,0:0:0:0:
256,128,116933,1,4,0:0:0:0:
288,96,117349,1,8,0:0:0:0:
288,96,117454,1,0,0:0:0:0:
288,96,117558,1,0,0:0:0:0:
288,96,117662,1,8,0:0:0:0:
288,96,117766,1,0,0:0:0:0:
288,128,117870,1,12,0:0:0:0:
288,128,118183,1,0,0:0:0:0:
288,128,118287,1,8,0:0:0:0:
288,128,118391,1,8,0:0:0:0:
288,128,118495,1,0,0:0:0:0:
288,128,118599,1,4,0:0:0:0:
288,160,118912,1,8,0:0:0:0:
288,160,119120,1,0,0:0:0:0:
288,160,119224,1,8,0:0:0:0:
224,160,119432,1,8,0:0:0:0:
256,160,119536,1,0,0:0:0:0:
256,128,119640,1,8,0:0:0:0:
256,160,119745,1,8,0:0:0:0:
256,160,119849,1,8,0:0:0:0:
256,160,119953,1,0,0:0:0:0:
256,160,120057,1,8,0:0:0:0:
256,160,120161,1,8,0:0:0:0:
256,160,120265,1,8,0:0:0:0:
256,160,120370,1,8,0:0:0:0:
320,128,120422,1,8,0:0:0:0:
