osu file format v14

[General]
AudioFilename: audio.mp3
AudioLeadIn: 0
PreviewTime: 50368
Countdown: 1
SampleSet: None
StackLeniency: 0.7
Mode: 1
LetterboxInBreaks: 0
WidescreenStoryboard: 0

[Editor]
DistanceSpacing: 0.9
BeatDivisor: 8
GridSize: 4
TimelineZoom: 1.6

[Metadata]
Title:Alstroemeria
TitleUnicode:Alstroemeria
Artist:TAG
ArtistUnicode:TAG
Creator:-[ ix Ishida xi ]-
Version:-[ ix Blooming xi ]-
Source:
Tags:
BeatmapID:1352741
BeatmapSetID:637676

[Difficulty]
HPDrainRate:5
CircleSize:5
OverallDifficulty:5
ApproachRate:5
SliderMultiplier:1.4
SliderTickRate:1

[Events]
//Background and Video events
0,0,"Konachan.com - 221630 sample.jpg",0,50
//Break Periods
//Storyboard Layer 0 (Background)
//Storyboard Layer 1 (Fail)
//Storyboard Layer 2 (Pass)
//Storyboard Layer 3 (Foreground)
//Storyboard Sound Samples

[TimingPoints]
370,416.666666666667,4,1,0,100,1,0
370,-142.857142857143,4,1,0,100,0,0
371,416.666666666667,4,1,0,100,1,0
371,-25,4,1,0,100,0,0
475,-142.857142857143,4,1,0,10,0,0
631,-133.333333333333,4,1,0,15,0,0
735,-125,4,1,0,20,0,0
839,-117.647058823529,4,1,0,25,0,0
943,-111.111111111111,4,1,0,30,0,0
1048,-105.263157894737,4,1,0,40,0,0
1152,-100,4,1,0,50,0,0
1256,-95.2380952380952,4,1,0,60,0,0
1360,-90.9090909090909,4,1,0,70,0,0
1464,-86.9565217391304,4,1,0,80,0,0
1568,-83.3333333333333,4,1,0,90,0,0
1673,-50,4,1,0,100,0,0
1829,-25,4,1,0,100,0,0
2037,416.666666666667,4,3,0,5,1,8
2141,-142.857142857143,4,1,0,10,0,0
2297,-133.333333333333,4,1,0,15,0,0
2401,-125,4,1,0,20,0,0
2505,-117.647058823529,4,1,0,25,0,0
2609,-111.111111111111,4,1,0,30,0,0
2714,-105.263157894737,4,1,0,40,0,0
2818,-100,4,1,0,50,0,0
2922,-95.2380952380952,4,1,0,60,0,0
3026,-90.9090909090909,4,1,0,70,0,0
3130,-86.9565217391304,4,1,0,80,0,0
3234,-83.3333333333333,4,1,0,90,0,0
3339,-50,4,1,0,100,0,0
3495,-25,4,1,0,100,0,0
3703,416.666666666667,4,3,0,5,1,8
3860,-105.263157894737,4,1,0,40,0,0
3964,-100,4,1,0,50,0,0
4068,-95.2380952380952,4,1,0,60,0,0
4172,-90.9090909090909,4,1,0,70,0,0
4276,-86.9565217391304,4,1,0,80,0,0
4380,-83.3333333333333,4,1,0,90,0,0
4485,-50,4,1,0,100,0,0
4693,-105.263157894737,4,1,0,40,0,0
4797,-100,4,1,0,50,0,0
4901,-95.2380952380952,4,1,0,60,0,0
5005,-90.9090909090909,4,1,0,70,0,0
5109,-86.9565217391304,4,1,0,80,0,0
5213,-83.3333333333333,4,1,0,90,0,0
5318,-50,4,1,0,100,0,0
5369,416.666666666667,4,1,0,5,1,8
5423,-142.857142857143,4,1,0,50,0,0
6152,-52.6315789473684,4,1,0,100,0,0
6256,-62.5,4,1,0,50,0,0
6358,-76.9230769230769,4,1,0,50,0,0
6462,-100,4,1,0,50,0,0
6568,-52.6315789473684,4,1,0,100,0,0
6671,-62.5,4,1,0,50,0,0
6773,-76.9230769230769,4,1,0,50,0,0
6877,-100,4,1,0,50,0,0
6985,-25,4,1,0,100,0,0
7089,-142.857142857143,4,1,0,50,0,0
7141,-142.857142857143,4,1,0,10,0,0
7297,-133.333333333333,4,1,0,15,0,0
7401,-125,4,1,0,20,0,0
7505,-117.647058823529,4,1,0,25,0,0
7609,-111.111111111111,4,1,0,30,0,0
7714,-105.263157894737,4,1,0,40,0,0
7818,-100,4,1,0,50,0,0
7922,-95.2380952380952,4,1,0,60,0,0
8026,-90.9090909090909,4,1,0,70,0,0
8130,-86.9565217391304,4,1,0,80,0,0
8234,-83.3333333333333,4,1,0,90,0,0
8339,-50,4,1,0,100,0,0
8495,-25,4,1,0,100,0,0
8703,416.666666666667,4,3,0,5,1,8
8808,-142.857142857143,4,1,0,10,0,0
8964,-133.333333333333,4,1,0,15,0,0
9068,-125,4,1,0,20,0,0
9172,-117.647058823529,4,1,0,25,0,0
9276,-111.111111111111,4,1,0,30,0,0
9381,-105.263157894737,4,1,0,40,0,0
9485,-100,4,1,0,50,0,0
9589,-95.2380952380952,4,1,0,60,0,0
9693,-90.9090909090909,4,1,0,70,0,0
9797,-86.9565217391304,4,1,0,80,0,0
9901,-83.3333333333333,4,1,0,90,0,0
10006,-50,4,1,0,100,0,0
10162,-25,4,1,0,100,0,0
10370,416.666666666667,4,3,0,5,1,8
10475,-142.857142857143,4,1,0,10,0,0
10631,-133.333333333333,4,1,0,15,0,0
10735,-125,4,1,0,20,0,0
10839,-117.647058823529,4,1,0,25,0,0
10943,-111.111111111111,4,1,0,30,0,0
11048,-105.263157894737,4,1,0,40,0,0
11152,-100,4,1,0,100,0,0
11256,-95.2380952380952,4,1,0,60,0,0
11360,-90.9090909090909,4,1,0,70,0,0
11464,-86.9565217391304,4,1,0,80,0,0
11568,-83.3333333333333,4,1,0,90,0,0
11673,-80,4,1,0,100,0,0
11829,-25,4,1,0,100,0,0
12036,416.666666666667,4,1,0,70,1,8
12088,-50,4,1,0,70,0,0
13702,416.666666666667,4,1,0,100,1,8
13703,-25,4,1,0,100,0,0
13807,-83.3333333333333,4,1,0,70,0,0
33806,-100,4,1,0,70,0,0
45264,-90.9090909090909,4,1,0,70,0,0
45368,-83.3333333333333,4,1,0,70,0,0
46931,-76.9230769230769,4,1,0,70,0,0
47035,-71.4285714285714,4,1,0,70,0,0
48702,416.666666666667,4,1,0,20,1,8
48754,-55.5555555555556,4,1,0,20,0,0
50316,-55.5555555555556,4,1,0,70,0,0
50365,200,4,1,0,70,1,1
50368,208.333333333333,4,1,0,70,1,9
50469,240,4,1,0,70,1,1
50573,300,4,1,0,70,1,1
50577,208.333333333333,4,1,0,70,1,9
50677,200,4,1,0,70,1,1
50681,208.333333333333,4,1,0,70,1,9
50781,240,4,1,0,70,1,1
50885,300,4,1,0,70,1,1
50889,208.333333333333,4,1,0,70,1,9
50989,200,4,1,0,70,1,1
50993,208.333333333333,4,1,0,70,1,9
51093,240,4,1,0,70,1,1
51197,300,4,1,0,70,1,1
51202,208.333333333333,4,1,0,70,1,9
51301,200,4,1,0,70,1,1
51306,208.333333333333,4,1,0,70,1,9
51405,240,4,1,0,70,1,1
51410,208.333333333333,4,1,0,70,1,9
51509,300,4,1,0,70,1,1
51514,208.333333333333,4,1,0,70,1,9
51613,200,4,1,0,70,1,1
51618,208.333333333333,4,1,0,70,1,9
51717,230.769230769231,4,1,0,70,1,1
51821,272.727272727273,4,1,0,70,1,1
51827,208.333333333333,4,1,0,70,1,9
51925,333.333333333333,4,1,0,70,1,1
51931,208.333333333333,4,1,0,70,1,9
52029,200,4,1,0,70,1,1
52035,208.333333333333,4,1,0,70,1,9
52137,240,4,1,0,70,1,1
52241,300,4,1,0,70,1,1
52243,208.333333333333,4,1,0,70,1,9
52345,200,4,1,0,70,1,1
52347,208.333333333333,4,1,0,70,1,9
52449,240,4,1,0,70,1,1
52553,300,4,1,0,70,1,1
52556,208.333333333333,4,1,0,70,1,9
52657,200,4,1,0,70,1,1
52660,208.333333333333,4,1,0,70,1,9
52761,240,4,1,0,70,1,1
52865,300,4,1,0,70,1,1
52868,208.333333333333,4,1,0,70,1,9
52969,200,4,1,0,70,1,1
52972,208.333333333333,4,1,0,70,1,9
53073,240,4,1,0,70,1,1
53077,208.333333333333,4,1,0,70,1,9
53177,300,4,1,0,70,1,1
53181,208.333333333333,4,1,0,70,1,9
53281,200,4,1,0,70,1,1
53285,208.333333333333,4,1,0,70,1,9
53385,230.769230769231,4,1,0,70,1,1
53489,272.727272727273,4,1,0,70,1,1
53493,208.333333333333,4,1,0,70,1,9
53593,333.333333333333,4,1,0,70,1,1
53597,208.333333333333,4,1,0,70,1,9
53697,200,4,1,0,70,1,1
53702,208.333333333333,4,1,0,70,1,9
53797,240,4,1,0,70,1,1
53901,300,4,1,0,70,1,1
53910,208.333333333333,4,1,0,70,1,9
54005,200,4,1,0,70,1,1
54014,208.333333333333,4,1,0,70,1,9
54109,240,4,1,0,70,1,1
54213,300,4,1,0,70,1,1
54222,208.333333333333,4,1,0,70,1,9
54317,200,4,1,0,70,1,1
54327,208.333333333333,4,1,0,70,1,9
54421,240,4,1,0,70,1,1
54525,300,4,1,0,70,1,1
54535,208.333333333333,4,1,0,70,1,9
54629,200,4,1,0,70,1,1
54639,208.333333333333,4,1,0,70,1,9
54733,240,4,1,0,70,1,1
54743,208.333333333333,4,1,0,70,1,9
54837,300,4,1,0,70,1,1
54847,208.333333333333,4,1,0,70,1,9
54941,200,4,1,0,70,1,1
54952,208.333333333333,4,1,0,70,1,9
55045,230.769230769231,4,1,0,70,1,1
55149,272.727272727273,4,1,0,70,1,1
55160,208.333333333333,4,1,0,70,1,9
55253,333.333333333333,4,1,0,70,1,1
55264,208.333333333333,4,1,0,70,1,9
55357,200,4,1,0,70,1,1
55368,208.333333333333,4,1,0,70,1,9
55465,240,4,1,0,70,1,1
55569,300,4,1,0,70,1,1
55577,208.333333333333,4,1,0,70,1,9
55673,200,4,1,0,70,1,1
55777,240,4,1,0,70,1,1
55785,208.333333333333,4,1,0,70,1,9
55881,300,4,1,0,70,1,1
55985,200,4,1,0,70,1,1
55993,208.333333333333,4,1,0,70,1,9
56089,240,4,1,0,70,1,1
56193,300,4,1,0,70,1,1
56202,208.333333333333,4,1,0,70,1,9
56297,200,4,1,0,70,1,1
56306,208.333333333333,4,1,0,70,1,9
56401,240,4,1,0,70,1,1
56410,208.333333333333,4,1,0,70,1,9
56505,300,4,1,0,70,1,1
56609,200,4,1,0,70,1,1
56618,208.333333333333,4,1,0,70,1,9
56713,230.769230769231,4,1,0,70,1,1
56722,208.333333333333,4,1,0,70,1,9
56817,272.727272727273,4,1,0,70,1,1
56827,208.333333333333,4,1,0,70,1,9
56921,333.333333333333,4,1,0,70,1,1
56931,208.333333333333,4,1,0,70,1,9
57025,200,4,1,0,70,1,1
57035,208.333333333333,4,1,0,70,1,9
57125,240,4,1,0,70,1,1
57229,300,4,1,0,70,1,1
57243,208.333333333333,4,1,0,70,1,9
57333,200,4,1,0,70,1,1
57347,208.333333333333,4,1,0,70,1,9
57437,240,4,1,0,70,1,1
57541,300,4,1,0,70,1,1
57556,208.333333333333,4,1,0,70,1,9
57645,200,4,1,0,70,1,1
57660,208.333333333333,4,1,0,70,1,9
57749,240,4,1,0,70,1,1
57853,300,4,1,0,70,1,1
57868,208.333333333333,4,1,0,70,1,9
57957,200,4,1,0,70,1,1
57972,208.333333333333,4,1,0,70,1,9
58061,240,4,1,0,70,1,1
58077,208.333333333333,4,1,0,70,1,9
58165,300,4,1,0,70,1,1
58181,208.333333333333,4,1,0,70,1,9
58269,200,4,1,0,70,1,1
58285,208.333333333333,4,1,0,70,1,9
58373,230.769230769231,4,1,0,70,1,1
58477,272.727272727273,4,1,0,70,1,1
58493,208.333333333333,4,1,0,70,1,9
58581,333.333333333333,4,1,0,70,1,1
58597,208.333333333333,4,1,0,70,1,9
58685,200,4,1,0,70,1,1
58702,208.333333333333,4,1,0,70,1,9
58793,240,4,1,0,70,1,1
58897,300,4,1,0,70,1,1
58910,208.333333333333,4,1,0,70,1,9
59001,200,4,1,0,70,1,1
59014,208.333333333333,4,1,0,70,1,9
59105,240,4,1,0,70,1,1
59209,300,4,1,0,70,1,1
59222,208.333333333333,4,1,0,70,1,9
59313,200,4,1,0,70,1,1
59327,208.333333333333,4,1,0,70,1,9
59417,240,4,1,0,70,1,1
59521,300,4,1,0,70,1,1
59535,208.333333333333,4,1,0,70,1,9
59625,200,4,1,0,70,1,1
59639,208.333333333333,4,1,0,70,1,9
59729,240,4,1,0,70,1,1
59743,208.333333333333,4,1,0,70,1,9
59833,300,4,1,0,70,1,1
59847,208.333333333333,4,1,0,70,1,9
59937,200,4,1,0,70,1,1
59952,208.333333333333,4,1,0,70,1,9
60041,230.769230769231,4,1,0,70,1,1
60145,272.727272727273,4,1,0,70,1,1
60160,208.333333333333,4,1,0,70,1,9
60249,333.333333333333,4,1,0,70,1,1
60264,208.333333333333,4,1,0,70,1,9
60353,200,4,1,0,70,1,1
60368,208.333333333333,4,1,0,70,1,9
60470,240,4,1,0,70,1,1
60574,300,4,1,0,70,1,1
60577,208.333333333333,4,1,0,70,1,9
60678,200,4,1,0,70,1,1
60681,208.333333333333,4,1,0,70,1,9
60782,240,4,1,0,70,1,1
60886,300,4,1,0,70,1,1
60889,208.333333333333,4,1,0,70,1,9
60990,200,4,1,0,70,1,1
60993,208.333333333333,4,1,0,70,1,9
61094,240,4,1,0,70,1,1
61198,300,4,1,0,70,1,1
61202,208.333333333333,4,1,0,70,1,9
61302,200,4,1,0,70,1,1
61306,208.333333333333,4,1,0,70,1,9
61406,240,4,1,0,70,1,1
61410,208.333333333333,4,1,0,70,1,9
61510,300,4,1,0,70,1,1
61514,208.333333333333,4,1,0,70,1,9
61614,200,4,1,0,70,1,1
61618,208.333333333333,4,1,0,70,1,9
61718,230.769230769231,4,1,0,70,1,1
61722,208.333333333333,4,1,0,70,1,9
61822,272.727272727273,4,1,0,70,1,1
61827,208.333333333333,4,1,0,70,1,9
61926,333.333333333333,4,1,0,70,1,1
61931,208.333333333333,4,1,0,70,1,9
62030,200,4,1,0,70,1,1
62035,208.333333333333,4,1,0,70,1,9
62138,240,4,1,0,70,1,1
62139,208.333333333333,4,1,0,70,1,9
62242,300,4,1,0,70,1,1
62243,208.333333333333,4,1,0,70,1,9
62346,200,4,1,0,70,1,1
62347,208.333333333333,4,1,0,70,1,9
62450,240,4,1,0,70,1,1
62452,208.333333333333,4,1,0,70,1,9
62554,300,4,1,0,70,1,1
62556,208.333333333333,4,1,0,70,1,9
62658,200,4,1,0,70,1,1
62660,208.333333333333,4,1,0,70,1,9
62762,240,4,1,0,70,1,1
62764,208.333333333333,4,1,0,70,1,9
62866,300,4,1,0,70,1,1
62868,208.333333333333,4,1,0,70,1,9
63704,416.666666666667,4,1,0,70,1,9
63704,-25,4,1,0,70,0,9
63756,-25,4,1,0,70,0,8
63808,-83.3333333333333,4,1,0,70,0,8
79537,-55.5555555555556,4,1,0,70,0,8
79676,-71.4285714285714,4,1,0,70,0,8
79815,-90.9090909090909,4,1,0,70,0,8
79954,-117.647058823529,4,1,0,70,0,8
80092,-142.857142857143,4,1,0,70,0,8
80231,-166.666666666667,4,1,0,70,0,8
80347,-125,4,1,0,70,0,8
80451,-142.857142857143,4,1,0,45,0,8
80556,-166.666666666667,4,1,0,20,0,8
80660,-125,4,1,0,70,0,8
80764,-142.857142857143,4,1,0,45,0,8
80869,-166.666666666667,4,1,0,20,0,8
80972,-125,4,1,0,70,0,8
81076,-142.857142857143,4,1,0,45,0,8
81181,-166.666666666667,4,1,0,20,0,8
81285,-125,4,1,0,70,0,8
81389,-142.857142857143,4,1,0,45,0,8
81494,-166.666666666667,4,1,0,20,0,8
81597,-100,4,1,0,70,0,8
81701,-111.111111111111,4,1,0,70,0,8
81806,-125,4,1,0,70,0,8
81910,-142.857142857143,4,1,0,70,0,8
82014,-125,4,1,0,70,0,8
82118,-142.857142857143,4,1,0,45,0,8
82223,-166.666666666667,4,1,0,20,0,8
82327,-125,4,1,0,70,0,8
82431,-142.857142857143,4,1,0,45,0,8
82536,-166.666666666667,4,1,0,20,0,8
82639,-125,4,1,0,70,0,8
82743,-142.857142857143,4,1,0,45,0,8
82848,-166.666666666667,4,1,0,20,0,8
82952,-125,4,1,0,70,0,8
83056,-142.857142857143,4,1,0,45,0,8
83161,-166.666666666667,4,1,0,20,0,8
83267,-100,4,1,0,70,0,8
83371,-111.111111111111,4,1,0,70,0,8
83476,-125,4,1,0,70,0,8
83580,-142.857142857143,4,1,0,70,0,8
83681,-125,4,1,0,70,0,8
83785,-142.857142857143,4,1,0,45,0,8
83890,-166.666666666667,4,1,0,20,0,8
83994,-125,4,1,0,70,0,8
84098,-142.857142857143,4,1,0,45,0,8
84203,-166.666666666667,4,1,0,20,0,8
84306,-125,4,1,0,70,0,8
84410,-142.857142857143,4,1,0,45,0,8
84515,-166.666666666667,4,1,0,20,0,8
84619,-125,4,1,0,70,0,8
84723,-142.857142857143,4,1,0,45,0,8
84828,-166.666666666667,4,1,0,20,0,8
84934,-100,4,1,0,70,0,8
85038,-111.111111111111,4,1,0,70,0,8
85143,-125,4,1,0,70,0,8
85247,-142.857142857143,4,1,0,70,0,8
85370,-100,4,1,0,70,0,8
85474,-125,4,1,0,70,0,8
86568,-100,4,1,0,70,0,8
86672,-111.111111111111,4,1,0,70,0,8
86777,-125,4,1,0,70,0,8
86881,-142.857142857143,4,1,0,70,0,8
86985,-125,4,1,0,70,0,8
87089,-142.857142857143,4,1,0,45,0,8
87194,-166.666666666667,4,1,0,20,0,8
87298,-125,4,1,0,70,0,8
87402,-142.857142857143,4,1,0,45,0,8
87507,-166.666666666667,4,1,0,20,0,8
87610,-125,4,1,0,70,0,8
87714,-142.857142857143,4,1,0,45,0,8
87819,-166.666666666667,4,1,0,20,0,8
87923,-125,4,1,0,70,0,8
88027,-142.857142857143,4,1,0,45,0,8
88132,-166.666666666667,4,1,0,20,0,8
88235,-100,4,1,0,70,0,8
88339,-111.111111111111,4,1,0,70,0,8
88444,-125,4,1,0,70,0,8
88548,-142.857142857143,4,1,0,70,0,8
88652,-125,4,1,0,70,0,8
88756,-142.857142857143,4,1,0,45,0,8
88861,-166.666666666667,4,1,0,20,0,8
88965,-125,4,1,0,70,0,8
89069,-142.857142857143,4,1,0,45,0,8
89174,-166.666666666667,4,1,0,20,0,8
89277,-125,4,1,0,70,0,8
89381,-142.857142857143,4,1,0,45,0,8
89486,-166.666666666667,4,1,0,20,0,8
89590,-125,4,1,0,70,0,8
89694,-142.857142857143,4,1,0,45,0,8
89799,-166.666666666667,4,1,0,20,0,8
89905,-100,4,1,0,70,0,8
90009,-111.111111111111,4,1,0,70,0,8
90114,-125,4,1,0,70,0,8
90218,-142.857142857143,4,1,0,70,0,8
90319,-125,4,1,0,70,0,8
90423,-142.857142857143,4,1,0,45,0,8
90528,-166.666666666667,4,1,0,20,0,8
90632,-125,4,1,0,70,0,8
90736,-142.857142857143,4,1,0,45,0,8
90841,-166.666666666667,4,1,0,20,0,8
90944,-125,4,1,0,70,0,8
91048,-142.857142857143,4,1,0,45,0,8
91153,-166.666666666667,4,1,0,20,0,8
91257,-125,4,1,0,70,0,8
91361,-142.857142857143,4,1,0,45,0,8
91466,-166.666666666667,4,1,0,20,0,8
91572,-100,4,1,0,70,0,8
91676,-111.111111111111,4,1,0,70,0,8
91781,-125,4,1,0,70,0,8
91885,-142.857142857143,4,1,0,70,0,8
92008,-100,4,1,0,70,0,8
92089,-111.111111111111,4,1,0,70,0,8
92193,-125,4,1,0,70,0,8
92310,-83.3333333333333,4,1,0,70,0,8
92391,-90.9090909090909,4,1,0,70,0,8
92495,-100,4,1,0,70,0,8
92610,-71.4285714285714,4,1,0,70,0,8
92691,-76.9230769230769,4,1,0,70,0,8
92795,-83.3333333333333,4,1,0,70,0,8
93495,-66.6666666666667,4,1,0,70,0,8
93674,-50,4,1,0,90,0,8
93704,-50,4,1,0,90,0,9
93778,-55.5555555555556,4,1,0,60,0,9
93882,-62.5,4,1,0,30,0,9
93986,-50,4,1,0,90,0,9
94090,-55.5555555555556,4,1,0,60,0,9
94194,-62.5,4,1,0,30,0,9
94299,-50,4,1,0,90,0,9
94403,-55.5555555555556,4,1,0,60,0,9
94507,-62.5,4,1,0,30,0,9
94611,-50,4,1,0,90,0,9
94715,-55.5555555555556,4,1,0,60,0,9
94819,-62.5,4,1,0,30,0,9
94924,-50,4,1,0,70,0,9
95028,-52.6315789473684,4,1,0,70,0,9
95132,-55.5555555555556,4,1,0,70,0,9
95236,-58.8235294117647,4,1,0,70,0,9
95340,-50,4,1,0,90,0,9
95444,-55.5555555555556,4,1,0,60,0,9
95548,-62.5,4,1,0,30,0,9
95653,-50,4,1,0,90,0,9
95757,-55.5555555555556,4,1,0,60,0,9
95861,-62.5,4,1,0,30,0,9
95965,-50,4,1,0,90,0,9
96069,-55.5555555555556,4,1,0,60,0,9
96173,-62.5,4,1,0,30,0,9
96278,-50,4,1,0,90,0,9
96382,-55.5555555555556,4,1,0,60,0,9
96486,-62.5,4,1,0,30,0,9
96590,-50,4,1,0,70,0,9
96694,-52.6315789473684,4,1,0,70,0,9
96798,-55.5555555555556,4,1,0,70,0,9
96902,-58.8235294117647,4,1,0,70,0,9
97007,-50,4,1,0,90,0,9
97111,-55.5555555555556,4,1,0,60,0,9
97215,-62.5,4,1,0,30,0,9
97319,-50,4,1,0,90,0,9
97423,-55.5555555555556,4,1,0,60,0,9
97527,-62.5,4,1,0,30,0,9
97632,-50,4,1,0,90,0,9
97736,-55.5555555555556,4,1,0,60,0,9
97840,-62.5,4,1,0,30,0,9
97944,-50,4,1,0,90,0,9
98048,-55.5555555555556,4,1,0,60,0,9
98152,-62.5,4,1,0,30,0,9
98257,-50,4,1,0,70,0,9
98361,-52.6315789473684,4,1,0,70,0,9
98465,-55.5555555555556,4,1,0,70,0,9
98569,-58.8235294117647,4,1,0,70,0,9
98674,-50,4,1,0,70,0,9
100318,-50,4,1,0,90,0,9
100422,-55.5555555555556,4,1,0,60,0,9
100526,-62.5,4,1,0,30,0,9
100630,-50,4,1,0,90,0,9
100734,-55.5555555555556,4,1,0,60,0,9
100838,-62.5,4,1,0,30,0,9
100943,-50,4,1,0,90,0,9
101047,-55.5555555555556,4,1,0,60,0,9
101151,-62.5,4,1,0,30,0,9
101255,-50,4,1,0,90,0,9
101359,-55.5555555555556,4,1,0,60,0,9
101463,-62.5,4,1,0,30,0,9
101568,-50,4,1,0,70,0,9
101672,-52.6315789473684,4,1,0,70,0,9
101776,-55.5555555555556,4,1,0,70,0,9
101880,-58.8235294117647,4,1,0,70,0,9
101984,-50,4,1,0,90,0,9
102088,-55.5555555555556,4,1,0,60,0,9
102192,-62.5,4,1,0,30,0,9
102297,-50,4,1,0,90,0,9
102401,-55.5555555555556,4,1,0,60,0,9
102505,-62.5,4,1,0,30,0,9
102609,-50,4,1,0,90,0,9
102713,-55.5555555555556,4,1,0,60,0,9
102817,-62.5,4,1,0,30,0,9
102922,-50,4,1,0,90,0,9
103026,-55.5555555555556,4,1,0,60,0,9
103130,-62.5,4,1,0,30,0,9
103234,-50,4,1,0,70,0,9
103338,-52.6315789473684,4,1,0,70,0,9
103442,-55.5555555555556,4,1,0,70,0,9
103546,-58.8235294117647,4,1,0,70,0,9
103651,-50,4,1,0,90,0,9
103755,-55.5555555555556,4,1,0,60,0,9
103859,-62.5,4,1,0,30,0,9
103963,-50,4,1,0,90,0,9
104067,-55.5555555555556,4,1,0,60,0,9
104171,-62.5,4,1,0,30,0,9
104276,-50,4,1,0,90,0,9
104380,-55.5555555555556,4,1,0,60,0,9
104484,-62.5,4,1,0,30,0,9
104588,-50,4,1,0,90,0,9
104692,-55.5555555555556,4,1,0,60,0,9
104796,-62.5,4,1,0,30,0,9
104901,-50,4,1,0,70,0,9
105005,-52.6315789473684,4,1,0,70,0,9
105109,-55.5555555555556,4,1,0,70,0,9
105213,-58.8235294117647,4,1,0,70,0,9
105318,-50,4,1,0,70,0,9
106620,-33.3333333333333,4,1,0,70,0,9
106672,-40.8163265306122,4,1,0,70,0,9
106724,-49.5049504950495,4,1,0,70,0,9
106776,-60.2409638554217,4,1,0,70,0,9
106829,-72.992700729927,4,1,0,70,0,9
106881,-86.9565217391304,4,1,0,70,0,9
106933,-100,4,1,0,70,0,9
107037,-25,4,1,0,70,0,9
107089,-25,4,1,0,70,0,8
107141,-142.857142857143,4,1,0,10,0,0
107297,-133.333333333333,4,1,0,15,0,0
107401,-125,4,1,0,20,0,0
107505,-117.647058823529,4,1,0,25,0,0
107609,-111.111111111111,4,1,0,30,0,0
107714,-105.263157894737,4,1,0,40,0,0
107818,-100,4,1,0,50,0,0
107922,-95.2380952380952,4,1,0,60,0,0
108026,-90.9090909090909,4,1,0,70,0,0
108130,-86.9565217391304,4,1,0,80,0,0
108234,-83.3333333333333,4,1,0,90,0,0
108339,-50,4,1,0,100,0,0
108495,-25,4,1,0,100,0,0
108703,416.666666666667,4,3,0,5,1,8
108807,-142.857142857143,4,1,0,10,0,0
108963,-133.333333333333,4,1,0,15,0,0
109067,-125,4,1,0,20,0,0
109171,-117.647058823529,4,1,0,25,0,0
109275,-111.111111111111,4,1,0,30,0,0
109380,-105.263157894737,4,1,0,40,0,0
109484,-100,4,1,0,50,0,0
109588,-95.2380952380952,4,1,0,60,0,0
109692,-90.9090909090909,4,1,0,70,0,0
109796,-86.9565217391304,4,1,0,80,0,0
109900,-83.3333333333333,4,1,0,90,0,0
110005,-50,4,1,0,100,0,0
110161,-25,4,1,0,100,0,0
110369,416.666666666667,4,3,0,5,1,8
110525,-105.263157894737,4,1,0,40,0,0
110629,-100,4,1,0,50,0,0
110733,-95.2380952380952,4,1,0,60,0,0
110837,-90.9090909090909,4,1,0,70,0,0
110941,-86.9565217391304,4,1,0,80,0,0
111045,-83.3333333333333,4,1,0,90,0,0
111150,-50,4,1,0,100,0,0
111358,-105.263157894737,4,1,0,40,0,0
111462,-100,4,1,0,50,0,0
111566,-95.2380952380952,4,1,0,60,0,0
111670,-90.9090909090909,4,1,0,70,0,0
111827,-25,4,1,0,100,0,0
112035,416.666666666667,4,3,0,5,1,8
112087,-100,4,1,0,70,0,8
112816,-52.6315789473684,4,1,0,100,0,8
112920,-62.5,4,1,0,70,0,8
113024,-76.9230769230769,4,1,0,35,0,8
113128,-100,4,1,0,10,0,8
113232,-52.6315789473684,4,1,0,100,0,8
113336,-62.5,4,1,0,70,0,8
113440,-76.9230769230769,4,1,0,35,0,8
113544,-100,4,1,0,10,0,8
113649,-25,4,1,0,100,0,8
113805,-142.857142857143,4,1,0,10,0,0
113961,-133.333333333333,4,1,0,15,0,0
114065,-125,4,1,0,20,0,0
114169,-117.647058823529,4,1,0,25,0,0
114273,-111.111111111111,4,1,0,30,0,0
114378,-105.263157894737,4,1,0,40,0,0
114482,-100,4,1,0,50,0,0
114586,-95.2380952380952,4,1,0,60,0,0
114690,-90.9090909090909,4,1,0,70,0,0
114794,-86.9565217391304,4,1,0,80,0,0
114898,-83.3333333333333,4,1,0,90,0,0
115003,-50,4,1,0,100,0,0
115159,-25,4,1,0,100,0,0
115367,416.666666666667,4,3,0,5,1,8
115471,-142.857142857143,4,1,0,10,0,0
115627,-133.333333333333,4,1,0,15,0,0
115731,-125,4,1,0,20,0,0
115835,-117.647058823529,4,1,0,25,0,0
115939,-111.111111111111,4,1,0,30,0,0
116044,-105.263157894737,4,1,0,40,0,0
116148,-100,4,1,0,50,0,0
116252,-95.2380952380952,4,1,0,60,0,0
116356,-90.9090909090909,4,1,0,70,0,0
116460,-86.9565217391304,4,1,0,80,0,0
116564,-83.3333333333333,4,1,0,90,0,0
116669,-50,4,1,0,100,0,0
116825,-25,4,1,0,100,0,0
117033,416.666666666667,4,3,0,5,1,8
117189,-105.263157894737,4,1,0,40,0,0
117293,-100,4,1,0,50,0,0
117397,-95.2380952380952,4,1,0,60,0,0
117501,-90.9090909090909,4,1,0,70,0,0
117605,-86.9565217391304,4,1,0,80,0,0
117709,-83.3333333333333,4,1,0,90,0,0
117814,-50,4,1,0,100,0,0
118022,-105.263157894737,4,1,0,40,0,0
118126,-100,4,1,0,50,0,0
118230,-95.2380952380952,4,1,0,60,0,0
118334,-90.9090909090909,4,1,0,70,0,0
118438,-86.9565217391304,4,1,0,80,0,0
118542,-83.3333333333333,4,1,0,90,0,0
118647,-50,4,1,0,100,0,0
118698,416.666666666667,4,1,0,5,1,8
118752,-111.111111111111,4,1,0,50,0,0
118854,-100,4,1,0,50,0,0
118958,-90.909090909091,4,1,0,50,0,0
119062,-83.3333333333333,4,1,0,50,0,0
119166,-76.9230769230769,4,1,0,50,0,0
119270,-71.4285714285714,4,1,0,50,0,0
119375,-66.6666666666667,4,1,0,50,0,0
119479,-62.5,4,1,0,50,0,0
119583,-58.8235294117647,4,1,0,50,0,0
119687,-55.5555555555556,4,1,0,50,0,0
119791,-52.6315789473684,4,1,0,50,0,0
119895,-50,4,1,0,50,0,0
120000,-47.6190476190476,4,1,0,50,0,0
120104,-45.4545454545455,4,1,0,50,0,0
120208,-43.4782608695652,4,1,0,50,0,0
120312,-41.6666666666667,4,1,0,50,0,0
120364,416.666666666667,4,1,0,50,1,8
120364,-41.6666666666667,4,1,0,50,0,0
120416,-40,4,1,0,50,0,0
120468,-38.4615384615385,4,1,0,50,0,0

[HitObjects]
332,220,371,5,12,0:0:0:0:
300,168,579,1,0,0:0:0:0:
284,140,683,1,0,0:0:0:0:
264,116,787,1,0,0:0:0:0:
264,116,891,1,0,0:0:0:0:
264,116,996,1,0,0:0:0:0:
264,116,1100,1,0,0:0:0:0:
264,116,1204,1,0,0:0:0:0:
264,116,1308,1,0,0:0:0:0:
264,116,1412,1,0,0:0:0:0:
264,116,1516,1,0,0:0:0:0:
264,116,1621,1,0,0:0:0:0:
264,116,1725,1,8,0:0:0:0:
316,152,1933,1,12,0:0:0:0:
236,100,2246,1,0,0:0:0:0:
264,116,2350,1,0,0:0:0:0:
288,136,2454,1,0,0:0:0:0:
316,156,2558,1,0,0:0:0:0:
288,136,2662,1,0,0:0:0:0:
288,136,2766,1,0,0:0:0:0:
288,136,2871,1,0,0:0:0:0:
288,136,2975,1,0,0:0:0:0:
288,136,3079,1,0,0:0:0:0:
288,136,3183,1,0,0:0:0:0:
288,136,3287,1,0,0:0:0:0:
288,136,3391,1,8,0:0:0:0:
288,136,3600,1,12,0:0:0:0:
292,232,3912,1,0,0:0:0:0:
288,168,4016,1,0,0:0:0:0:
288,168,4121,1,0,0:0:0:0:
288,168,4225,1,0,0:0:0:0:
288,168,4329,1,0,0:0:0:0:
288,168,4433,1,0,0:0:0:0:
288,168,4537,1,12,0:0:0:0:
288,168,4746,1,0,0:0:0:0:
288,168,4850,1,0,0:0:0:0:
288,168,4954,1,8,0:0:0:0:
288,168,5058,1,0,0:0:0:0:
288,168,5162,1,0,0:0:0:0:
288,168,5266,1,12,0:0:0:0:
300,104,5475,1,0,0:0:0:0:
300,104,5579,1,8,0:0:0:0:
300,104,5683,1,0,0:0:0:0:
300,104,5787,1,0,0:0:0:0:
300,104,5891,1,8,0:0:0:0:
300,104,5996,1,0,0:0:0:0:
300,104,6100,1,0,0:0:0:0:
316,132,6204,1,12,0:0:0:0:
316,132,6308,1,8,0:0:0:0:
316,132,6412,1,8,0:0:0:0:
316,132,6516,1,0,0:0:0:0:
316,132,6621,1,12,0:0:0:0:
316,132,6725,1,8,0:0:0:0:
316,132,6829,1,8,0:0:0:0:
316,132,6933,1,0,0:0:0:0:
336,156,7037,1,12,0:0:0:0:
300,168,7246,1,0,0:0:0:0:
284,140,7350,1,0,0:0:0:0:
264,116,7454,1,0,0:0:0:0:
264,116,7558,1,0,0:0:0:0:
264,116,7663,1,0,0:0:0:0:
264,116,7767,1,0,0:0:0:0:
264,116,7871,1,0,0:0:0:0:
264,116,7975,1,0,0:0:0:0:
264,116,8079,1,0,0:0:0:0:
264,116,8183,1,0,0:0:0:0:
264,116,8288,1,0,0:0:0:0:
264,116,8392,1,8,0:0:0:0:
316,152,8600,1,12,0:0:0:0:
300,168,8912,1,0,0:0:0:0:
284,140,9016,1,0,0:0:0:0:
264,116,9120,1,0,0:0:0:0:
264,116,9224,1,0,0:0:0:0:
264,116,9329,1,0,0:0:0:0:
264,116,9433,1,0,0:0:0:0:
264,116,9537,1,8,0:0:0:0:
264,116,9641,1,0,0:0:0:0:
264,116,9745,1,0,0:0:0:0:
264,116,9849,1,0,0:0:0:0:
264,116,9954,1,0,0:0:0:0:
264,116,10058,1,8,0:0:0:0:
316,152,10266,1,12,0:0:0:0:
300,168,10579,1,0,0:0:0:0:
284,140,10683,1,0,0:0:0:0:
264,116,10787,1,0,0:0:0:0:
264,116,10891,1,0,0:0:0:0:
264,116,10996,1,0,0:0:0:0:
264,116,11100,1,0,0:0:0:0:
264,116,11204,1,12,0:0:0:0:
264,116,11308,1,0,0:0:0:0:
264,116,11412,1,0,0:0:0:0:
264,116,11516,1,0,0:0:0:0:
264,116,11621,1,8,0:0:0:0:
236,124,11725,1,0,0:0:0:0:
316,152,11933,1,12,0:0:0:0:
252,160,12141,1,0,0:0:0:0:
220,164,12246,1,8,0:0:0:0:
220,140,12350,1,0,0:0:0:0:
156,168,12454,1,0,0:0:0:0:
188,168,12558,1,8,0:0:0:0:
188,168,12662,1,0,0:0:0:0:
156,168,12765,1,0,0:0:0:0:
244,136,12871,1,8,0:0:0:0:
316,32,12975,1,8,0:0:0:0:
172,236,13183,1,8,0:0:0:0:
300,108,13287,1,8,0:0:0:0:
244,136,13496,1,8,0:0:0:0:
252,156,13600,1,8,0:0:0:0:
272,120,13704,1,4,0:0:0:0:
252,156,13912,1,8,0:0:0:0:
252,156,14016,1,0,0:0:0:0:
252,156,14225,1,0,0:0:0:0:
252,156,14329,1,8,0:0:0:0:
308,132,14641,1,0,0:0:0:0:
336,120,14745,1,8,0:0:0:0:
308,132,14954,1,0,0:0:0:0:
308,132,15058,1,8,0:0:0:0:
308,132,15266,1,0,0:0:0:0:
356,212,15579,1,12,0:0:0:0:
372,152,15787,1,0,0:0:0:0:
364,184,15891,1,8,0:0:0:0:
364,184,15996,1,0,0:0:0:0:
364,184,16204,1,12,0:0:0:0:
364,184,16412,1,0,0:0:0:0:
364,184,16516,1,8,0:0:0:0:
364,184,16725,1,12,0:0:0:0:
308,156,16933,1,0,0:0:0:0:
280,172,17037,1,8,0:0:0:0:
316,120,17246,1,0,0:0:0:0:
316,120,17350,1,8,0:0:0:0:
316,120,17558,1,8,0:0:0:0:
316,120,17662,1,0,0:0:0:0:
316,120,17871,1,12,0:0:0:0:
316,120,18079,1,0,0:0:0:0:
316,120,18183,1,0,0:0:0:0:
316,120,18287,1,0,0:0:0:0:
316,120,18391,1,0,0:0:0:0:
316,120,18600,1,12,0:0:0:0:
252,188,18912,1,8,0:0:0:0:
292,140,19121,1,0,0:0:0:0:
272,164,19225,1,8,0:0:0:0:
216,136,19433,1,0,0:0:0:0:
272,164,19537,1,8,0:0:0:0:
216,136,19641,1,0,0:0:0:0:
272,136,19746,1,0,0:0:0:0:
300,124,19850,1,8,0:0:0:0:
216,136,20058,1,0,0:0:0:0:
392,104,20162,1,8,0:0:0:0:
360,108,20266,1,8,0:0:0:0:
360,108,20371,1,4,0:0:0:0:
216,136,20579,1,8,0:0:0:0:
228,164,20683,1,0,0:0:0:0:
240,104,20891,1,0,0:0:0:0:
232,136,20996,1,8,0:0:0:0:
280,56,21308,1,0,0:0:0:0:
264,84,21412,1,8,0:0:0:0:
264,84,21621,1,0,0:0:0:0:
264,84,21725,1,0,0:0:0:0:
264,84,21829,1,8,0:0:0:0:
264,84,21933,1,0,0:0:0:0:
280,112,22037,1,0,0:0:0:0:
280,112,22246,1,0,0:0:0:0:
280,112,22350,1,8,0:0:0:0:
280,112,22558,1,8,0:0:0:0:
280,112,22766,1,0,0:0:0:0:
280,112,22975,1,0,0:0:0:0:
276,80,23079,1,8,0:0:0:0:
232,124,23287,1,0,0:0:0:0:
260,140,23391,1,0,0:0:0:0:
288,152,23496,1,8,0:0:0:0:
256,100,23600,1,0,0:0:0:0:
276,124,23704,1,4,0:0:0:0:
208,60,23912,1,8,0:0:0:0:
208,60,24016,1,0,0:0:0:0:
260,92,24225,1,0,0:0:0:0:
288,108,24329,1,8,0:0:0:0:
340,144,24537,1,4,0:0:0:0:
340,144,24746,1,8,0:0:0:0:
340,144,24850,1,0,0:0:0:0:
340,144,25058,1,0,0:0:0:0:
276,144,25266,1,8,0:0:0:0:
340,136,25475,1,0,0:0:0:0:
340,136,25579,1,8,0:0:0:0:
340,136,25787,1,0,0:0:0:0:
340,136,25891,1,8,0:0:0:0:
340,136,26100,1,0,0:0:0:0:
364,116,26204,1,8,0:0:0:0:
364,116,26308,1,0,0:0:0:0:
364,116,26412,1,0,0:0:0:0:
364,116,26516,1,8,0:0:0:0:
364,116,26621,1,8,0:0:0:0:
364,116,26829,1,8,0:0:0:0:
364,116,26933,1,8,0:0:0:0:
364,116,27037,1,4,0:0:0:0:
344,176,27246,1,8,0:0:0:0:
344,176,27350,1,0,0:0:0:0:
344,176,27558,1,0,0:0:0:0:
344,176,27662,1,8,0:0:0:0:
312,120,27871,1,0,0:0:0:0:
312,120,27975,1,8,0:0:0:0:
312,120,28079,1,0,0:0:0:0:
312,120,28287,1,0,0:0:0:0:
312,120,28391,1,8,0:0:0:0:
312,120,28600,1,8,0:0:0:0:
220,96,28912,1,8,0:0:0:0:
220,96,29121,1,0,0:0:0:0:
220,96,29225,1,8,0:0:0:0:
220,96,29329,1,0,0:0:0:0:
220,96,29537,1,8,0:0:0:0:
220,96,29641,1,0,0:0:0:0:
196,72,29746,1,0,0:0:0:0:
196,72,29850,1,8,0:0:0:0:
208,100,29954,1,0,0:0:0:0:
224,128,30058,1,8,0:0:0:0:
220,192,30266,1,8,0:0:0:0:
224,160,30371,1,0,0:0:0:0:
224,160,30579,1,0,0:0:0:0:
224,160,30683,1,8,0:0:0:0:
224,160,30891,1,8,0:0:0:0:
224,160,30996,1,0,0:0:0:0:
280,192,31204,1,8,0:0:0:0:
260,132,31412,1,0,0:0:0:0:
240,108,31516,1,8,0:0:0:0:
280,156,31725,1,0,0:0:0:0:
240,108,31829,1,8,0:0:0:0:
196,64,31933,1,0,0:0:0:0:
196,64,32037,1,8,0:0:0:0:
252,96,32246,1,8,0:0:0:0:
308,128,32454,1,0,0:0:0:0:
336,144,32558,1,8,0:0:0:0:
336,144,32766,1,0,0:0:0:0:
336,144,32871,1,8,0:0:0:0:
336,144,32975,1,0,0:0:0:0:
336,144,33079,1,0,0:0:0:0:
336,144,33183,1,8,0:0:0:0:
360,164,33287,1,0,0:0:0:0:
384,184,33391,1,0,0:0:0:0:
412,200,33496,1,8,0:0:0:0:
412,200,33600,1,8,0:0:0:0:
412,200,33704,1,0,0:0:0:0:
336,144,34016,1,0,0:0:0:0:
312,124,34121,1,8,0:0:0:0:
312,124,34329,1,0,0:0:0:0:
312,124,34641,1,8,0:0:0:0:
312,124,34746,1,0,0:0:0:0:
312,124,34954,1,8,0:0:0:0:
312,124,35162,1,8,0:0:0:0:
312,124,35266,1,0,0:0:0:0:
312,124,35579,1,0,0:0:0:0:
312,124,35787,1,8,0:0:0:0:
312,124,35996,1,0,0:0:0:0:
312,124,36100,1,0,0:0:0:0:
312,124,36204,1,0,0:0:0:0:
312,124,36412,1,0,0:0:0:0:
320,92,36516,1,0,0:0:0:0:
312,124,36621,1,8,0:0:0:0:
260,140,36829,1,8,0:0:0:0:
248,112,36933,1,0,0:0:0:0:
340,124,37246,1,0,0:0:0:0:
340,124,37454,1,8,0:0:0:0:
392,92,37662,1,0,0:0:0:0:
392,92,37766,1,0,0:0:0:0:
364,108,37871,1,0,0:0:0:0:
364,108,37975,1,0,0:0:0:0:
364,108,38079,1,0,0:0:0:0:
340,168,38287,1,8,0:0:0:0:
360,108,38496,1,0,0:0:0:0:
352,136,38600,1,0,0:0:0:0:
352,136,38704,1,0,0:0:0:0:
300,104,38912,1,0,0:0:0:0:
252,144,39121,1,8,0:0:0:0:
316,140,39329,1,0,0:0:0:0:
348,136,39433,1,8,0:0:0:0:
380,132,39537,1,0,0:0:0:0:
352,136,39641,1,0,0:0:0:0:
380,132,39746,1,0,0:0:0:0:
348,136,39954,1,12,0:0:0:0:
348,136,40162,1,0,0:0:0:0:
348,136,40371,1,4,0:0:0:0:
348,136,40683,1,0,0:0:0:0:
348,136,40787,1,8,0:0:0:0:
348,136,40996,1,0,0:0:0:0:
348,136,41100,1,0,0:0:0:0:
348,136,41204,1,0,0:0:0:0:
348,136,41412,1,0,0:0:0:0:
348,136,41621,1,8,0:0:0:0:
320,80,41829,1,0,0:0:0:0:
320,80,41933,1,0,0:0:0:0:
228,104,42246,1,0,0:0:0:0:
228,104,42454,1,8,0:0:0:0:
288,124,42662,1,0,0:0:0:0:
288,124,42766,1,0,0:0:0:0:
288,124,42871,1,8,0:0:0:0:
288,124,42975,1,0,0:0:0:0:
288,124,43079,1,0,0:0:0:0:
288,124,43287,1,8,0:0:0:0:
288,124,43391,1,0,0:0:0:0:
288,124,43496,1,0,0:0:0:0:
288,124,43600,1,8,0:0:0:0:
384,116,43912,1,0,0:0:0:0:
320,120,44121,1,8,0:0:0:0:
384,116,44329,1,0,0:0:0:0:
352,120,44433,1,0,0:0:0:0:
352,120,44537,1,0,0:0:0:0:
352,120,44746,1,0,0:0:0:0:
352,120,44954,1,8,0:0:0:0:
352,120,45162,1,0,0:0:0:0:
340,148,45266,1,0,0:0:0:0:
340,148,45371,1,8,0:0:0:0:
340,148,45579,1,0,0:0:0:0:
340,148,45683,1,8,0:0:0:0:
340,148,45891,1,0,0:0:0:0:
340,148,45996,1,8,0:0:0:0:
340,148,46100,1,8,0:0:0:0:
340,148,46204,1,0,0:0:0:0:
324,120,46308,1,8,0:0:0:0:
308,92,46412,1,0,0:0:0:0:
272,40,46621,1,12,0:0:0:0:
220,72,46829,1,0,0:0:0:0:
196,92,46933,1,0,0:0:0:0:
368,120,47037,1,12,0:0:0:0:
368,120,47246,1,0,0:0:0:0:
368,120,47350,1,8,0:0:0:0:
460,144,47662,1,0,0:0:0:0:
428,136,47766,1,0,0:0:0:0:
428,136,47871,1,0,0:0:0:0:
280,84,47975,1,8,0:0:0:0:
280,84,48079,1,0,0:0:0:0:
280,84,48183,1,0,0:0:0:0:
280,84,48287,1,12,0:0:0:0:
280,84,48496,1,0,0:0:0:0:
280,84,48600,1,12,0:0:0:0:
272,108,48808,1,8,0:0:0:0:
304,104,48912,1,0,0:0:0:0:
280,84,49016,1,0,0:0:0:0:
280,84,49068,1,0,0:0:0:0:
280,84,49121,1,12,0:0:0:0:
280,84,49225,1,0,0:0:0:0:
280,84,49329,1,0,0:0:0:0:
280,84,49433,1,0,0:0:0:0:
248,92,49537,1,12,0:0:0:0:
280,92,49641,1,0,0:0:0:0:
296,92,49693,1,0,0:0:0:0:
312,92,49746,1,0,0:0:0:0:
340,96,49850,1,12,0:0:0:0:
340,96,49954,1,0,0:0:0:0:
340,96,50058,1,0,0:0:0:0:
336,124,50110,1,0,0:0:0:0:
336,124,50162,1,12,0:0:0:0:
336,124,50266,1,8,0:0:0:0:
336,124,50371,1,4,0:0:0:0:
392,96,50579,1,8,0:0:0:0:
360,92,50683,1,0,0:0:0:0:
304,120,50891,1,0,0:0:0:0:
304,120,50996,1,8,0:0:0:0:
304,120,51204,1,0,0:0:0:0:
332,108,51308,1,8,0:0:0:0:
332,108,51412,1,0,0:0:0:0:
332,108,51516,1,0,0:0:0:0:
324,140,51621,1,8,0:0:0:0:
324,140,51829,1,0,0:0:0:0:
292,140,51933,1,0,0:0:0:0:
324,140,52037,1,0,0:0:0:0:
304,120,52245,1,8,0:0:0:0:
304,120,52349,1,0,0:0:0:0:
304,120,52557,1,0,0:0:0:0:
304,120,52662,1,8,0:0:0:0:
304,120,52870,1,0,0:0:0:0:
332,108,52974,1,8,0:0:0:0:
332,108,53078,1,0,0:0:0:0:
332,108,53182,1,0,0:0:0:0:
324,140,53287,1,8,0:0:0:0:
324,140,53495,1,8,0:0:0:0:
324,140,53599,1,8,0:0:0:0:
324,140,53703,1,0,0:0:0:0:
304,120,53912,1,8,0:0:0:0:
304,120,54016,1,0,0:0:0:0:
304,120,54224,1,0,0:0:0:0:
304,120,54329,1,8,0:0:0:0:
304,120,54537,1,0,0:0:0:0:
332,108,54641,1,8,0:0:0:0:
332,108,54745,1,0,0:0:0:0:
332,108,54849,1,0,0:0:0:0:
324,140,54954,1,8,0:0:0:0:
324,140,55162,1,8,0:0:0:0:
292,140,55266,1,0,0:0:0:0:
324,140,55371,1,12,0:0:0:0:
268,112,55579,1,0,0:0:0:0:
212,88,55787,1,0,0:0:0:0:
212,88,55996,1,12,0:0:0:0:
212,88,56204,1,0,0:0:0:0:
212,88,56308,1,0,0:0:0:0:
180,96,56412,1,0,0:0:0:0:
240,84,56621,1,8,0:0:0:0:
272,76,56725,1,8,0:0:0:0:
240,80,56829,1,8,0:0:0:0:
208,84,56933,1,8,0:0:0:0:
176,88,57037,1,4,0:0:0:0:
388,136,57246,1,8,0:0:0:0:
372,108,57350,1,0,0:0:0:0:
372,108,57558,1,0,0:0:0:0:
340,112,57662,1,8,0:0:0:0:
176,88,57871,1,0,0:0:0:0:
176,88,57975,1,8,0:0:0:0:
176,88,58079,1,0,0:0:0:0:
176,88,58183,1,0,0:0:0:0:
176,88,58287,1,8,0:0:0:0:
176,88,58496,1,0,0:0:0:0:
208,88,58600,1,0,0:0:0:0:
240,88,58704,1,4,0:0:0:0:
304,88,58912,1,8,0:0:0:0:
336,92,59016,1,0,0:0:0:0:
336,92,59225,1,0,0:0:0:0:
336,92,59329,1,8,0:0:0:0:
336,92,59537,1,0,0:0:0:0:
336,92,59641,1,8,0:0:0:0:
336,92,59746,1,0,0:0:0:0:
336,92,59850,1,0,0:0:0:0:
336,92,59954,1,8,0:0:0:0:
336,92,60162,1,8,0:0:0:0:
336,92,60266,1,8,0:0:0:0:
336,92,60371,1,4,0:0:0:0:
336,92,60579,1,8,0:0:0:0:
336,92,60683,1,0,0:0:0:0:
336,92,60891,1,0,0:0:0:0:
336,92,60996,1,8,0:0:0:0:
336,92,61204,1,0,0:0:0:0:
336,92,61308,1,8,0:0:0:0:
336,92,61412,1,0,0:0:0:0:
336,92,61516,1,0,0:0:0:0:
336,92,61621,1,8,0:0:0:0:
336,92,61725,1,0,0:0:0:0:
336,92,61829,1,0,0:0:0:0:
336,92,61933,1,8,0:0:0:0:
336,92,62037,1,12,0:0:0:0:
336,92,62141,1,0,0:0:0:0:
336,92,62246,1,0,0:0:0:0:
336,92,62350,1,8,0:0:0:0:
336,92,62454,1,0,0:0:0:0:
336,92,62558,1,0,0:0:0:0:
336,92,62662,1,8,0:0:0:0:
336,92,62766,1,8,0:0:0:0:
368,92,62871,1,0,0:0:0:0:
388,88,62940,1,0,0:0:0:0:
408,88,63009,1,0,0:0:0:0:
428,84,63079,1,0,0:0:0:0:
428,84,63148,1,0,0:0:0:0:
428,84,63218,1,0,0:0:0:0:
428,84,63287,1,12,0:0:0:0:
396,92,63391,1,0,0:0:0:0:
364,96,63496,1,0,0:0:0:0:
332,104,63600,1,0,0:0:0:0:
300,108,63704,1,12,0:0:0:0:
216,68,64016,1,8,0:0:0:0:
208,100,64225,1,0,0:0:0:0:
208,100,64329,1,8,0:0:0:0:
268,116,64537,1,0,0:0:0:0:
268,116,64641,1,8,0:0:0:0:
268,116,64746,1,0,0:0:0:0:
268,116,64850,1,0,0:0:0:0:
268,116,64954,1,0,0:0:0:0:
268,116,65058,1,8,0:0:0:0:
268,116,65266,1,8,0:0:0:0:
364,108,65579,1,8,0:0:0:0:
364,108,65787,1,0,0:0:0:0:
364,108,65891,1,8,0:0:0:0:
352,128,65996,1,0,0:0:0:0:
364,108,66204,1,8,0:0:0:0:
364,108,66308,1,0,0:0:0:0:
364,108,66412,1,0,0:0:0:0:
364,108,66516,1,8,0:0:0:0:
308,80,66725,1,8,0:0:0:0:
336,96,66933,1,0,0:0:0:0:
364,108,67037,1,8,0:0:0:0:
268,116,67350,1,8,0:0:0:0:
208,100,67558,1,0,0:0:0:0:
208,100,67662,1,8,0:0:0:0:
268,116,67870,1,0,0:0:0:0:
268,116,68079,1,8,0:0:0:0:
268,116,68183,1,0,0:0:0:0:
268,116,68287,1,0,0:0:0:0:
268,116,68391,1,0,0:0:0:0:
268,116,68599,1,8,0:0:0:0:
364,108,68912,1,8,0:0:0:0:
364,108,69120,1,0,0:0:0:0:
364,108,69224,1,8,0:0:0:0:
352,128,69329,1,0,0:0:0:0:
364,108,69537,1,8,0:0:0:0:
364,108,69641,1,0,0:0:0:0:
364,108,69745,1,0,0:0:0:0:
364,108,69849,1,0,0:0:0:0:
344,132,69954,1,8,0:0:0:0:
328,160,70058,1,0,0:0:0:0:
308,184,70162,1,8,0:0:0:0:
336,96,70266,1,0,0:0:0:0:
364,108,70370,1,8,0:0:0:0:
268,112,70683,1,8,0:0:0:0:
208,100,70891,1,0,0:0:0:0:
208,100,70995,1,8,0:0:0:0:
268,116,71203,1,0,0:0:0:0:
268,116,71307,1,8,0:0:0:0:
268,116,71412,1,0,0:0:0:0:
268,116,71516,1,0,0:0:0:0:
268,116,71620,1,0,0:0:0:0:
268,116,71724,1,8,0:0:0:0:
268,116,71932,1,8,0:0:0:0:
364,108,72245,1,8,0:0:0:0:
364,108,72453,1,0,0:0:0:0:
364,108,72557,1,8,0:0:0:0:
352,128,72662,1,0,0:0:0:0:
364,108,72870,1,8,0:0:0:0:
364,108,72974,1,0,0:0:0:0:
364,108,73078,1,0,0:0:0:0:
364,108,73182,1,8,0:0:0:0:
308,80,73391,1,8,0:0:0:0:
336,96,73599,1,0,0:0:0:0:
364,108,73703,1,8,0:0:0:0:
284,156,74016,1,8,0:0:0:0:
208,100,74225,1,0,0:0:0:0:
208,100,74329,1,8,0:0:0:0:
268,116,74537,1,0,0:0:0:0:
208,132,74746,1,8,0:0:0:0:
176,140,74850,1,0,0:0:0:0:
116,152,75058,1,0,0:0:0:0:
164,108,75266,1,0,0:0:0:0:
192,92,75371,1,8,0:0:0:0:
364,108,75579,1,8,0:0:0:0:
364,108,75787,1,0,0:0:0:0:
364,108,75891,1,8,0:0:0:0:
352,128,75996,1,0,0:0:0:0:
364,108,76204,1,8,0:0:0:0:
364,108,76308,1,0,0:0:0:0:
364,108,76412,1,0,0:0:0:0:
364,108,76516,1,8,0:0:0:0:
332,108,76621,1,0,0:0:0:0:
300,108,76725,1,0,0:0:0:0:
268,108,76829,1,8,0:0:0:0:
236,104,76933,1,8,0:0:0:0:
204,104,77037,1,0,0:0:0:0:
268,116,77246,1,8,0:0:0:0:
328,128,77454,1,0,0:0:0:0:
328,128,77558,1,8,0:0:0:0:
328,128,77662,1,0,0:0:0:0:
328,128,77871,1,8,0:0:0:0:
356,96,77975,1,0,0:0:0:0:
400,52,78183,1,0,0:0:0:0:
376,76,78287,1,0,0:0:0:0:
352,56,78391,1,8,0:0:0:0:
328,36,78600,1,8,0:0:0:0:
336,128,78912,1,8,0:0:0:0:
284,92,79121,1,0,0:0:0:0:
312,108,79225,1,8,0:0:0:0:
312,108,79329,1,0,0:0:0:0:
372,84,79537,1,8,0:0:0:0:
412,68,79676,1,0,0:0:0:0:
412,68,79815,1,0,0:0:0:0:
412,68,79954,1,0,0:0:0:0:
412,68,80093,1,0,0:0:0:0:
412,68,80232,1,0,0:0:0:0:
344,112,80371,1,8,0:0:0:0:
344,112,80475,1,0,0:0:0:0:
344,112,80579,1,0,0:0:0:0:
344,112,80683,1,8,0:0:0:0:
344,112,80787,1,0,0:0:0:0:
344,112,80891,1,0,0:0:0:0:
344,112,80996,1,8,0:0:0:0:
344,112,81100,1,0,0:0:0:0:
344,112,81204,1,0,0:0:0:0:
344,112,81308,1,8,0:0:0:0:
344,112,81412,1,0,0:0:0:0:
344,112,81516,1,0,0:0:0:0:
344,112,81621,1,8,0:0:0:0:
344,112,81725,1,0,0:0:0:0:
344,112,81829,1,8,0:0:0:0:
344,112,81933,1,0,0:0:0:0:
344,112,82037,1,8,0:0:0:0:
344,112,82141,1,0,0:0:0:0:
344,112,82246,1,0,0:0:0:0:
344,112,82350,1,8,0:0:0:0:
344,112,82454,1,0,0:0:0:0:
344,112,82558,1,0,0:0:0:0:
344,112,82662,1,8,0:0:0:0:
344,112,82766,1,0,0:0:0:0:
344,112,82871,1,0,0:0:0:0:
344,112,82975,1,8,0:0:0:0:
344,112,83079,1,0,0:0:0:0:
344,112,83183,1,0,0:0:0:0:
344,112,83287,1,8,0:0:0:0:
344,112,83391,1,0,0:0:0:0:
344,112,83496,1,8,0:0:0:0:
344,112,83600,1,8,0:0:0:0:
344,112,83704,1,8,0:0:0:0:
344,112,83808,1,0,0:0:0:0:
344,112,83912,1,0,0:0:0:0:
344,112,84016,1,8,0:0:0:0:
344,112,84121,1,0,0:0:0:0:
344,112,84225,1,0,0:0:0:0:
344,112,84329,1,8,0:0:0:0:
344,112,84433,1,0,0:0:0:0:
344,80,84537,1,0,0:0:0:0:
344,80,84641,1,8,0:0:0:0:
344,80,84746,1,0,0:0:0:0:
344,80,84850,1,0,0:0:0:0:
344,80,84954,1,8,0:0:0:0:
344,80,85058,1,8,0:0:0:0:
344,80,85162,1,0,0:0:0:0:
344,80,85266,1,0,0:0:0:0:
344,80,85371,1,8,0:0:0:0:
280,76,85579,1,0,0:0:0:0:
216,76,85787,1,0,0:0:0:0:
216,76,85996,1,8,0:0:0:0:
216,76,86204,1,0,0:0:0:0:
216,76,86308,1,0,0:0:0:0:
216,76,86412,1,0,0:0:0:0:
276,64,86621,1,8,0:0:0:0:
276,64,86725,1,8,0:0:0:0:
276,64,86829,1,0,0:0:0:0:
276,64,86933,1,0,0:0:0:0:
276,64,87037,1,8,0:0:0:0:
344,112,87141,1,0,0:0:0:0:
344,112,87245,1,0,0:0:0:0:
344,112,87349,1,8,0:0:0:0:
344,112,87453,1,0,0:0:0:0:
344,112,87557,1,0,0:0:0:0:
344,112,87662,1,8,0:0:0:0:
344,112,87766,1,0,0:0:0:0:
344,112,87870,1,0,0:0:0:0:
344,112,87974,1,8,0:0:0:0:
344,112,88078,1,0,0:0:0:0:
344,112,88182,1,0,0:0:0:0:
344,112,88287,1,8,0:0:0:0:
344,112,88391,1,0,0:0:0:0:
344,112,88495,1,8,0:0:0:0:
344,112,88599,1,0,0:0:0:0:
344,112,88703,1,8,0:0:0:0:
344,112,88807,1,0,0:0:0:0:
344,112,88912,1,0,0:0:0:0:
344,112,89016,1,8,0:0:0:0:
344,112,89120,1,0,0:0:0:0:
344,112,89224,1,0,0:0:0:0:
344,112,89328,1,8,0:0:0:0:
344,112,89432,1,0,0:0:0:0:
344,112,89537,1,0,0:0:0:0:
344,112,89641,1,8,0:0:0:0:
344,112,89745,1,0,0:0:0:0:
344,112,89849,1,0,0:0:0:0:
344,112,89953,1,8,0:0:0:0:
344,112,90057,1,0,0:0:0:0:
344,112,90162,1,8,0:0:0:0:
344,112,90266,1,8,0:0:0:0:
344,112,90370,1,8,0:0:0:0:
344,112,90474,1,0,0:0:0:0:
344,112,90578,1,0,0:0:0:0:
344,112,90682,1,8,0:0:0:0:
344,112,90787,1,0,0:0:0:0:
344,112,90891,1,0,0:0:0:0:
344,112,90995,1,8,0:0:0:0:
344,112,91099,1,0,0:0:0:0:
344,80,91203,1,0,0:0:0:0:
344,80,91307,1,8,0:0:0:0:
344,80,91412,1,0,0:0:0:0:
344,80,91516,1,0,0:0:0:0:
344,80,91620,1,8,0:0:0:0:
344,80,91724,1,0,0:0:0:0:
344,80,91828,1,0,0:0:0:0:
344,80,91932,1,0,0:0:0:0:
344,80,92037,1,8,0:0:0:0:
332,108,92141,1,0,0:0:0:0:
332,108,92246,1,0,0:0:0:0:
332,108,92350,1,8,0:0:0:0:
332,108,92454,1,0,0:0:0:0:
332,108,92558,1,0,0:0:0:0:
332,108,92662,1,8,0:0:0:0:
332,108,92766,1,8,0:0:0:0:
332,108,92871,1,0,0:0:0:0:
304,92,92975,1,8,0:0:0:0:
276,80,93079,1,0,0:0:0:0:
276,80,93183,1,0,0:0:0:0:
276,80,93287,1,8,0:0:0:0:
276,80,93496,1,0,0:0:0:0:
276,80,93600,1,0,0:0:0:0:
276,80,93704,1,12,0:0:0:0:
276,80,93808,1,0,0:0:0:0:
276,80,93912,1,0,0:0:0:0:
276,80,94016,1,8,0:0:0:0:
276,80,94121,1,0,0:0:0:0:
276,80,94225,1,0,0:0:0:0:
276,80,94329,1,8,0:0:0:0:
276,80,94433,1,0,0:0:0:0:
276,80,94537,1,0,0:0:0:0:
276,80,94641,1,8,0:0:0:0:
276,80,94746,1,0,0:0:0:0:
276,80,94850,1,0,0:0:0:0:
276,80,94954,1,0,0:0:0:0:
276,80,95058,1,8,0:0:0:0:
276,80,95162,1,0,0:0:0:0:
276,80,95266,1,8,0:0:0:0:
276,80,95371,1,12,0:0:0:0:
276,80,95475,1,0,0:0:0:0:
276,80,95579,1,0,0:0:0:0:
276,80,95683,1,8,0:0:0:0:
276,80,95788,1,0,0:0:0:0:
276,80,95892,1,0,0:0:0:0:
276,80,95996,1,8,0:0:0:0:
276,80,96100,1,0,0:0:0:0:
276,80,96204,1,0,0:0:0:0:
276,80,96308,1,8,0:0:0:0:
276,80,96413,1,0,0:0:0:0:
276,80,96517,1,0,0:0:0:0:
272,48,96621,1,8,0:0:0:0:
272,16,96725,1,0,0:0:0:0:
272,16,96829,1,8,0:0:0:0:
272,16,96933,1,0,0:0:0:0:
284,44,97037,1,12,0:0:0:0:
276,80,97141,1,0,0:0:0:0:
276,80,97245,1,0,0:0:0:0:
276,80,97349,1,8,0:0:0:0:
276,80,97454,1,0,0:0:0:0:
276,80,97558,1,0,0:0:0:0:
276,80,97662,1,8,0:0:0:0:
276,80,97766,1,0,0:0:0:0:
276,80,97870,1,0,0:0:0:0:
276,80,97974,1,8,0:0:0:0:
276,80,98079,1,0,0:0:0:0:
276,80,98183,1,0,0:0:0:0:
248,92,98287,1,8,0:0:0:0:
220,104,98391,1,8,0:0:0:0:
220,104,98496,1,0,0:0:0:0:
220,104,98600,1,0,0:0:0:0:
220,104,98704,1,12,0:0:0:0:
220,104,98912,1,0,0:0:0:0:
220,104,99016,1,0,0:0:0:0:
220,104,99121,1,0,0:0:0:0:
220,104,99329,1,12,0:0:0:0:
220,104,99537,1,0,0:0:0:0:
220,104,99641,1,0,0:0:0:0:
220,104,99746,1,0,0:0:0:0:
220,104,99954,1,8,0:0:0:0:
220,104,100058,1,8,0:0:0:0:
220,104,100162,1,0,0:0:0:0:
220,104,100266,1,0,0:0:0:0:
220,104,100371,1,12,0:0:0:0:
276,80,100475,1,0,0:0:0:0:
276,80,100579,1,0,0:0:0:0:
276,80,100683,1,8,0:0:0:0:
276,80,100788,1,0,0:0:0:0:
276,80,100892,1,0,0:0:0:0:
276,80,100996,1,12,0:0:0:0:
276,80,101100,1,0,0:0:0:0:
276,80,101204,1,0,0:0:0:0:
276,80,101308,1,8,0:0:0:0:
276,80,101413,1,0,0:0:0:0:
276,80,101517,1,0,0:0:0:0:
248,96,101621,1,8,0:0:0:0:
248,96,101725,1,8,0:0:0:0:
248,96,101829,1,0,0:0:0:0:
248,96,101933,1,0,0:0:0:0:
248,96,102037,1,12,0:0:0:0:
276,80,102141,1,0,0:0:0:0:
276,80,102245,1,0,0:0:0:0:
276,80,102349,1,8,0:0:0:0:
276,80,102454,1,0,0:0:0:0:
276,80,102558,1,0,0:0:0:0:
276,80,102662,1,12,0:0:0:0:
276,80,102766,1,0,0:0:0:0:
276,80,102870,1,0,0:0:0:0:
276,80,102974,1,8,0:0:0:0:
276,80,103079,1,0,0:0:0:0:
276,80,103183,1,0,0:0:0:0:
248,96,103287,1,8,0:0:0:0:
248,96,103391,1,8,0:0:0:0:
248,96,103495,1,0,0:0:0:0:
248,96,103599,1,0,0:0:0:0:
248,96,103703,1,12,0:0:0:0:
276,80,103808,1,0,0:0:0:0:
276,80,103912,1,0,0:0:0:0:
276,80,104016,1,8,0:0:0:0:
276,80,104121,1,0,0:0:0:0:
276,80,104225,1,0,0:0:0:0:
276,80,104329,1,12,0:0:0:0:
276,80,104433,1,0,0:0:0:0:
276,80,104537,1,0,0:0:0:0:
276,80,104641,1,8,0:0:0:0:
276,80,104746,1,0,0:0:0:0:
276,80,104850,1,0,0:0:0:0:
248,96,104954,1,8,0:0:0:0:
248,96,105058,1,0,0:0:0:0:
248,96,105162,1,8,0:0:0:0:
248,96,105266,1,0,0:0:0:0:
248,96,105370,1,12,0:0:0:0:
280,88,105475,1,0,0:0:0:0:
312,80,105579,1,0,0:0:0:0:
344,72,105683,1,8,0:0:0:0:
344,72,105787,1,0,0:0:0:0:
344,72,105891,1,8,0:0:0:0:
344,72,105996,1,8,0:0:0:0:
344,72,106100,1,0,0:0:0:0:
344,72,106204,1,12,0:0:0:0:
344,72,106308,1,0,0:0:0:0:
344,72,106412,1,0,0:0:0:0:
344,72,106516,1,0,0:0:0:0:
372,88,106621,1,8,0:0:0:0:
388,96,106673,1,8,0:0:0:0:
404,104,106725,1,8,0:0:0:0:
420,112,106777,1,8,0:0:0:0:
408,112,106829,1,8,0:0:0:0:
392,108,106881,1,8,0:0:0:0:
376,104,106933,1,0,0:0:0:0:
344,100,107037,1,12,0:0:0:0:
300,168,107246,1,0,0:0:0:0:
284,140,107350,1,0,0:0:0:0:
264,116,107454,1,0,0:0:0:0:
264,116,107558,1,0,0:0:0:0:
264,116,107663,1,0,0:0:0:0:
264,116,107767,1,0,0:0:0:0:
264,116,107871,1,0,0:0:0:0:
264,116,107975,1,0,0:0:0:0:
264,116,108079,1,0,0:0:0:0:
264,116,108183,1,0,0:0:0:0:
264,116,108288,1,0,0:0:0:0:
264,116,108392,1,8,0:0:0:0:
316,152,108600,1,12,0:0:0:0:
300,168,108912,1,0,0:0:0:0:
284,140,109016,1,0,0:0:0:0:
264,116,109120,1,0,0:0:0:0:
264,116,109224,1,0,0:0:0:0:
264,116,109329,1,0,0:0:0:0:
264,116,109433,1,0,0:0:0:0:
264,116,109537,1,0,0:0:0:0:
264,116,109641,1,0,0:0:0:0:
264,116,109745,1,0,0:0:0:0:
264,116,109849,1,0,0:0:0:0:
264,116,109954,1,0,0:0:0:0:
264,116,110058,1,8,0:0:0:0:
316,152,110266,1,12,0:0:0:0:
376,80,110579,1,0,0:0:0:0:
368,112,110683,1,0,0:0:0:0:
368,112,110787,1,0,0:0:0:0:
368,112,110891,1,0,0:0:0:0:
368,112,110996,1,0,0:0:0:0:
352,84,111100,1,0,0:0:0:0:
352,84,111204,1,12,0:0:0:0:
352,84,111412,1,0,0:0:0:0:
352,84,111516,1,0,0:0:0:0:
340,112,111621,1,0,0:0:0:0:
328,140,111725,1,0,0:0:0:0:
284,192,111933,1,12,0:0:0:0:
336,156,112141,1,0,0:0:0:0:
364,140,112246,1,8,0:0:0:0:
416,108,112454,1,0,0:0:0:0:
444,92,112558,1,8,0:0:0:0:
444,92,112662,1,0,0:0:0:0:
444,92,112871,1,12,0:0:0:0:
444,92,112975,1,8,0:0:0:0:
444,92,113079,1,8,0:0:0:0:
444,92,113183,1,0,0:0:0:0:
444,92,113287,1,12,0:0:0:0:
444,92,113391,1,8,0:0:0:0:
444,92,113496,1,8,0:0:0:0:
444,92,113600,1,0,0:0:0:0:
444,92,113704,1,12,0:0:0:0:
300,168,113912,1,0,0:0:0:0:
284,140,114016,1,0,0:0:0:0:
264,116,114120,1,0,0:0:0:0:
264,116,114224,1,0,0:0:0:0:
264,116,114329,1,0,0:0:0:0:
264,116,114433,1,0,0:0:0:0:
264,116,114537,1,0,0:0:0:0:
264,116,114641,1,0,0:0:0:0:
264,116,114745,1,0,0:0:0:0:
264,116,114849,1,0,0:0:0:0:
264,116,114954,1,0,0:0:0:0:
264,116,115058,1,8,0:0:0:0:
316,152,115266,1,12,0:0:0:0:
300,168,115579,1,0,0:0:0:0:
284,140,115683,1,0,0:0:0:0:
264,116,115787,1,0,0:0:0:0:
264,116,115891,1,0,0:0:0:0:
264,116,115996,1,0,0:0:0:0:
264,116,116100,1,0,0:0:0:0:
264,116,116204,1,8,0:0:0:0:
264,116,116308,1,0,0:0:0:0:
264,116,116412,1,0,0:0:0:0:
264,116,116516,1,0,0:0:0:0:
264,116,116621,1,0,0:0:0:0:
264,116,116725,1,8,0:0:0:0:
316,152,116933,1,12,0:0:0:0:
364,72,117246,1,0,0:0:0:0:
348,100,117350,1,0,0:0:0:0:
332,124,117454,1,0,0:0:0:0:
332,124,117558,1,0,0:0:0:0:
332,124,117662,1,0,0:0:0:0:
332,124,117766,1,0,0:0:0:0:
332,124,117871,1,12,0:0:0:0:
332,124,118079,1,8,0:0:0:0:
332,124,118183,1,0,0:0:0:0:
332,124,118287,1,8,0:0:0:0:
332,124,118391,1,0,0:0:0:0:
332,124,118496,1,0,0:0:0:0:
332,124,118600,1,12,0:0:0:0:
372,76,118808,1,0,0:0:0:0:
372,76,118912,1,8,0:0:0:0:
372,76,119016,1,0,0:0:0:0:
360,104,119121,1,0,0:0:0:0:
348,132,119225,1,0,0:0:0:0:
332,160,119329,1,8,0:0:0:0:
300,168,119433,1,0,0:0:0:0:
332,164,119537,1,8,0:0:0:0:
364,156,119641,1,0,0:0:0:0:
240,180,119746,1,0,0:0:0:0:
272,172,119850,1,8,0:0:0:0:
304,168,119954,1,0,0:0:0:0:
224,152,120058,1,0,0:0:0:0:
256,152,120162,1,8,0:0:0:0:
240,180,120266,1,0,0:0:0:0:
224,152,120371,1,0,0:0:0:0:
240,148,120423,1,0,0:0:0:0:
256,144,120475,1,8,0:0:0:0:
