osu file format v14

[General]
AudioFilename: audio.mp3
AudioLeadIn: 0
PreviewTime: 51206
Countdown: 0
SampleSet: Soft
StackLeniency: 0.7
Mode: 0
LetterboxInBreaks: 0
WidescreenStoryboard: 0

[Editor]
DistanceSpacing: 2.7
BeatDivisor: 4
GridSize: 8
TimelineZoom: 1.5

[Metadata]
Title:Sayonara Hitori
TitleUnicode:さよならひとり
Artist:TAEMIN
ArtistUnicode:TAEMIN
Creator:samplefish
Version:Goodbye
Source:
Tags:
BeatmapID:1728875
BeatmapSetID:825040

[Difficulty]
HPDrainRate:5
CircleSize:4
OverallDifficulty:6
ApproachRate:8.9
SliderMultiplier:2.8
SliderTickRate:1

[Events]
//Background and Video events
0,0,"Konachan.com - 206508 blue bou_nin dark forest kneehighs long_hair original polychromatic ponytail tree.jpg",0,0
Video,-17750,"SayonaraHitori.avi"
//Break Periods
//Storyboard Layer 0 (Background)
//Storyboard Layer 1 (Fail)
//Storyboard Layer 2 (Pass)
//Storyboard Layer 3 (Foreground)
//Storyboard Sound Samples

[TimingPoints]
10609,652.173913043478,4,2,1,40,1,0
10609,-200,4,2,1,40,0,0
31478,-200,4,2,1,60,0,0
71750,-333.333333333333,4,2,1,40,0,0
72565,-66.6666666666667,4,2,2,40,0,0
73217,-100,4,2,1,60,0,1
73869,-83.3333333333333,4,2,1,60,0,1
74522,-125,4,2,1,60,0,1
75826,-333.333333333333,4,2,1,60,0,1
76315,-100,4,2,1,60,0,1
78435,-90.9090909090909,4,2,1,60,0,1
79739,-142.857142857143,4,2,1,60,0,1
83652,-500,4,2,2,60,0,1
84304,-76.9230769230769,4,2,1,60,0,1
85119,-166.666666666667,4,2,1,60,0,1
85608,-76.9230769230769,4,2,1,60,0,1
86261,-166.666666666667,4,2,1,60,0,1
86913,-100,4,2,1,60,0,1
88869,-83.3333333333333,4,2,1,60,0,1
91478,-142.857142857143,4,2,1,60,0,1
91695,-111.111111111111,4,2,1,60,0,1
91913,-90.9090909090909,4,2,1,60,0,1
92130,-142.857142857143,4,2,1,60,0,1
92348,-111.111111111111,4,2,1,60,0,1
92565,-90.9090909090909,4,2,1,60,0,1
92782,-142.857142857143,4,2,1,60,0,1
93000,-111.111111111111,4,2,1,60,0,1
93217,-90.9090909090909,4,2,1,60,0,1
93435,-71.4285714285714,4,2,1,60,0,0
94087,-166.666666666667,4,2,1,60,0,0

[Colours]
Combo1 : 216,168,255
Combo2 : 164,221,255
Combo3 : 44,128,254
Combo4 : 210,255,250

[HitObjects]
144,79,10609,6,0,P|115:152|166:217,1,140,2|0,0:0|0:0,0:0:0:0:
304,311,11587,1,0,0:0:0:0:
313,215,11913,2,0,P|264:222|228:231,1,70,6|0,0:0|0:0,0:0:0:0:
244,226,12891,2,0,P|236:208|222:181,1,35,2|0,0:0|0:0,0:0:0:0:
204,299,13217,6,0,P|282:302|327:233,1,140
234,159,14195,2,0,P|231:178|227:211,1,35
282,91,14522,6,0,P|249:78|188:92,1,70,4|0,0:0|0:0,0:0:0:0:
215,79,15500,2,0,L|225:22,1,35
178,149,15826,6,0,P|208:166|264:153,1,70,2|0,0:0|0:0,0:0:0:0:
376,69,16478,2,0,P|346:52|290:65,1,70,2|2,0:0|0:0,0:0:0:0:
428,172,17130,1,4,0:0:0:0:
487,102,17456,1,0,0:0:0:0:
330,138,17782,1,2,0:0:0:0:
442,253,18109,1,2,0:0:0:0:
442,253,19739,5,4,0:0:0:0:
435,278,20228,1,0,0:0:0:0:
433,310,20717,2,0,L|437:367,1,35
363,209,21043,6,0,P|349:148|409:81,1,140,2|0,0:0|0:0,0:0:0:0:
260,189,22022,2,0,P|244:187|219:180,1,35
128,151,22348,2,0,P|151:194|139:240,1,70,4|0,0:0|0:0,0:0:0:0:
74,341,23325,2,0,P|101:342|140:348,1,35,2|0,0:0|0:0,0:0:0:0:
185,367,23651,6,0,L|343:346,1,140
443,254,24629,2,0,L|434:307,1,35
399,192,24956,6,0,P|440:177|476:185,1,70,4|0,0:0|0:0,0:0:0:0:
465,180,25934,2,0,L|482:117,1,35
456,67,26261,6,0,P|410:69|364:101,1,70,2|0,0:0|0:0,0:0:0:0:
313,180,26913,2,0,P|278:180|245:168,1,70,2|2,0:0|0:0,0:0:0:0:
127,73,27564,2,0,L|142:166,1,70,4|0,0:0|0:0,0:0:0:0:
46,273,28217,2,0,L|61:180,1,70,2|2,0:0|0:0,0:0:0:0:
57,203,30173,5,4,0:0:0:0:
65,222,30662,1,0,0:0:0:0:
65,245,31152,1,0,0:0:0:0:
9,74,31478,6,0,P|49:41|121:62,1,105,2|0,0:0|0:0,0:0:0:0:
99,45,32456,2,0,L|91:121,1,70,0|4,0:0|0:0,0:0:0:0:
213,75,33108,1,0,0:0:0:0:
325,214,33435,1,0,0:0:0:0:
368,112,33761,1,2,0:0:0:0:
225,179,34087,2,0,L|235:284,1,105,2|0,0:0|0:0,0:0:0:0:
283,354,35065,2,0,P|231:368|149:296,1,140,2|0,0:0|0:0,0:0:0:0:
378,214,36043,2,0,P|368:259|353:307,1,70
194,143,36695,6,0,P|184:109|177:75,1,70,2|0,0:0|0:0,0:0:0:0:
164,48,37185,2,0,L|136:180,1,105
357,57,38000,1,4,0:0:0:0:
267,219,38326,2,0,L|255:136,2,70,0|0|2,0:0|0:0|0:0,0:0:0:0:
369,202,39304,6,0,B|406:202|441:225,1,70,2|0,0:0|0:0,0:0:0:0:
467,239,39793,2,0,P|461:186|469:135,1,105,2|2,0:0|0:0,0:0:0:0:
356,281,40608,1,4,0:0:0:0:
334,299,41097,1,0,0:0:0:0:
324,339,41587,1,0,0:0:0:0:
255,80,41913,6,0,P|309:81|361:108,1,105,2|2,0:0|0:0,0:0:0:0:
354,102,42891,2,0,P|357:140|359:191,1,70,2|4,0:0|0:0,0:0:0:0:
463,322,43543,1,0,0:0:0:0:
281,261,43870,1,0,0:0:0:0:
400,235,44196,1,2,0:0:0:0:
285,356,44522,2,0,L|181:370,1,105,2|2,0:0|0:0,0:0:0:0:
51,264,45500,2,0,P|103:278|185:206,1,140,2|0,0:0|0:0,0:0:0:0:
295,75,46478,2,0,L|316:142,1,70,2|0,0:0|0:0,0:0:0:0:
326,178,46967,6,0,P|377:168|323:259,1,245,2|0,0:0|0:0,0:0:0:0:
496,172,48435,1,4,0:0:0:0:
326,178,48761,2,0,L|306:76,2,70
124,232,49739,6,0,P|154:236|199:252,1,70,2|0,0:0|0:0,0:0:0:0:
226,264,50228,2,0,L|217:140,1,105,2|0,0:0|0:0,0:0:0:0:
404,286,51043,1,4,0:0:0:0:
246,344,51369,5,0,0:0:0:0:
211,271,51532,1,0,0:0:0:0:
234,193,51695,1,0,0:0:0:0:
297,143,51858,1,0,0:0:0:0:
154,210,52022,1,0,0:0:0:0:
295,259,52185,1,0,0:0:0:0:
217,108,52348,6,0,P|168:117|94:136,1,105,8|0,0:0|0:0,0:0:0:0:
92,149,53163,1,0,0:0:0:0:
148,24,53326,1,0,0:0:0:0:
343,44,53652,5,4,0:0:0:0:
257,243,53978,5,0,0:0:0:0:
191,190,54141,1,0,0:0:0:0:
108,207,54304,1,0,0:0:0:0:
46,149,54467,1,0,0:0:0:0:
171,278,54631,1,0,0:0:0:0:
126,115,54794,1,0,0:0:0:0:
0,293,54957,6,0,P|58:306|115:325,1,105,8|0,0:0|0:0,0:0:0:0:
130,341,55772,1,0,0:0:0:0:
108,207,55935,1,0,0:0:0:0:
301,257,56261,5,4,0:0:0:0:
227,343,56587,2,0,L|212:266,2,70
185,128,57565,6,0,P|127:129|85:173,1,105,8|0,0:0|0:0,0:0:0:0:
80,190,58380,1,0,0:0:0:0:
136,46,58543,1,0,0:0:0:0:
225,256,58869,5,4,0:0:0:0:
286,160,59195,2,0,L|271:80,2,70
465,241,60174,6,0,P|435:230|367:217,1,70,8|0,0:0|0:0,0:0:0:0:
347,225,60663,2,0,P|320:264|331:348,1,105
466,134,61478,1,4,0:0:0:0:
307,59,61804,5,0,0:0:0:0:
247,118,61967,1,0,0:0:0:0:
225,199,62130,1,0,0:0:0:0:
267,271,62293,1,0,0:0:0:0:
157,129,62457,1,0,0:0:0:0:
320,174,62620,1,0,0:0:0:0:
182,273,62783,6,0,L|66:298,1,105,8|0,0:0|0:0,0:0:0:0:
57,312,63598,1,0,0:0:0:0:
215,363,63761,1,0,0:0:0:0:
56,178,64087,5,4,0:0:0:0:
192,196,64413,5,0,0:0:0:0:
275,196,64576,1,0,0:0:0:0:
348,155,64739,1,0,0:0:0:0:
367,73,64902,1,0,0:0:0:0:
277,102,65066,1,0,0:0:0:0:
434,119,65229,1,0,0:0:0:0:
329,271,65392,6,0,P|283:264|200:251,1,105,8|0,0:0|0:0,0:0:0:0:
199,259,66207,1,0,0:0:0:0:
323,162,66369,1,0,0:0:0:0:
279,372,66695,5,4,0:0:0:0:
191,328,67022,2,0,L|201:233,2,70
216,38,68000,6,0,L|236:167,1,105,8|0,0:0|0:0,0:0:0:0:
224,166,68815,1,0,0:0:0:0:
224,166,68978,1,0,0:0:0:0:
224,166,69304,5,4,0:0:0:0:
467,75,69630,1,0,0:0:0:0:
387,38,69793,1,0,0:0:0:0:
310,80,69956,1,0,0:0:0:0:
295,167,70119,1,0,0:0:0:0:
383,227,70282,2,0,L|376:186,1,35
287,104,70608,6,0,B|231:51|166:113|192:175|239:222,1,210,2|0,0:0|0:0,0:0:0:0:
315,184,71913,2,0,P|295:172|255:194,1,69.9999978637696,2|0,0:0|0:0,0:0:0:0:
228,241,72565,6,0,P|259:131|275:246,1,315.000012016297,4|0,0:0|0:0,0:0:0:0:
41,79,73217,6,0,B|106:3|106:3|90:112,1,210,8|0,0:0|0:0,0:0:0:0:
11,183,73869,2,0,B|99:187|99:187|139:230|139:230|243:238,1,251.999992309571
336,110,74522,2,0,B|314:153|259:162|259:162|311:170|336:234,1,168
436,157,75174,2,0,L|445:98,1,37.3333333333333
436,157,75391,2,0,L|445:98,1,37.3333333333333
436,157,75608,2,0,L|445:98,1,37.3333333333333
413,249,75826,6,0,L|469:242,1,52.4999983978272
394,334,76315,6,0,L|354:328,1,35
286,344,76478,6,0,L|248:349,2,23.3333333333333
255,308,76641,6,0,L|215:317,2,23.3333333333333
275,263,76804,6,0,L|308:257,1,23.3333333333333
339,234,76913,2,0,L|353:144,1,70
442,62,77130,6,0,B|415:51|410:30|410:30|383:53|310:38,2,93.3333333333333
426,138,77782,2,0,B|433:185|433:185|471:201|515:200|515:200|533:154|489:117,1,210
429,320,78435,6,0,B|396:301|346:284|346:284|276:332|258:282|199:297,1,231.000007049561
213,121,79087,2,0,P|323:165|236:222,1,231.000007049561
70,142,79739,2,0,B|121:87|121:87|147:163,1,146.999995513916
124,295,80391,2,0,B|73:350|73:350|47:274,1,146.999995513916
242,123,81043,6,0,L|296:148,1,32.6666656697591
210,240,81261,2,0,L|196:210,1,32.6666656697591
312,221,81478,2,0,L|285:240,1,32.6666656697591
233,82,81695,6,0,L|287:106,1,32.6666656697591
182,268,81913,2,0,L|161:221,1,32.6666656697591
344,238,82130,2,0,L|303:269,1,32.6666656697591
126,143,82348,6,0,L|181:156,1,32.6666656697591
386,143,82565,2,0,L|331:156,1,32.6666656697591
243,328,82782,2,0,L|250:275,1,32.6666656697591
256,58,83000,6,0,L|265:113,1,32.6666656697591
357,297,83217,2,0,L|323:251,1,32.6666656697591
131,237,83435,1,0,0:0:0:0:
296,153,83652,6,0,L|284:205,1,49
263,247,84304,6,0,P|336:247|254:346,1,272.999987503052
120,271,84956,1,0,0:0:0:0:
35,346,85119,2,0,L|15:224,1,83.9999974365235
5,205,85608,6,0,P|78:204|-4:106,1,272.999987503052
179,189,86261,6,0,B|256:211|256:211|206:241,1,111.999996582031
146,286,86913,6,0,L|77:297,2,46.6666666666667
283,348,87239,2,0,L|365:371,2,46.6666666666667
310,233,87565,2,0,B|233:250|233:250|268:278,2,93.3333333333333
404,192,88217,6,0,P|401:108|330:193,1,210
425,323,88869,6,0,B|343:303|343:303|244:341|244:341|167:318,1,251.999992309571
115,197,89522,2,0,L|35:214,2,55.9999982910157
198,120,89848,2,0,L|295:150,2,55.9999982910157
113,74,90174,2,0,L|-14:95,2,111.999996582031
224,221,90826,2,0,L|351:242,2,111.999996582031
95,285,91478,6,0,L|87:232,1,32.6666656697591
95,285,91695,2,0,L|128:220,1,41.9999987182618
95,285,91913,2,0,L|156:272,1,51.3333348999024
309,350,92130,6,0,L|286:294,1,32.6666656697591
309,350,92348,2,0,L|319:284,1,41.9999987182618
309,350,92565,2,0,L|356:304,1,51.3333348999024
290,165,92782,6,0,L|258:216,1,32.6666656697591
290,165,93000,2,0,L|230:195,1,41.9999987182618
290,165,93217,2,0,L|225:154,1,51.3333348999024
106,126,93435,6,0,P|60:136|136:181,1,195.999994018555
380,44,94087,6,0,L|195:62,1,167.999994873047
124,201,95065,2,0,L|215:212,2,83.9999974365235
305,223,96043,1,0,0:0:0:0:
214,76,96369,2,0,P|213:60|215:19,1,41.9999987182618
307,117,96695,6,0,B|329:130|361:127|361:127|350:161|283:195|312:258,1,167.999994873047
223,323,97674,2,0,P|263:327|297:358,2,83.9999974365235
86,363,98652,1,0,0:0:0:0:
49,159,98978,2,0,L|40:231,1,41.9999987182618
143,144,99304,6,0,L|130:21,1,83.9999974365235
