osu file format v14

[General]
AudioFilename: audio.mp3
AudioLeadIn: 0
PreviewTime: 31807
Countdown: 0
SampleSet: Soft
StackLeniency: 0.7
Mode: 0
LetterboxInBreaks: 0
WidescreenStoryboard: 0

[Editor]
Bookmarks: 6807,23649,65754
DistanceSpacing: 1.3
BeatDivisor: 6
GridSize: 4
TimelineZoom: 1.8

[Metadata]
Title:Danger
TitleUnicode:괴도
Artist:TAEMIN
ArtistUnicode:태민
Creator:Voli
Version:Veyron's Hard
Source:
Tags:kpop cerulean veyron irreversible 샤이니 SHINEE SM entertainment ACE
BeatmapID:1254922
BeatmapSetID:592108

[Difficulty]
HPDrainRate:5
CircleSize:5
OverallDifficulty:5
ApproachRate:7.5
SliderMultiplier:1.9
SliderTickRate:1

[Events]
//Background and Video events
0,0,"danger3.jpg",0,0
//Break Periods
2,65954,69140
//Storyboard Layer 0 (Background)
//Storyboard Layer 1 (Fail)
//Storyboard Layer 2 (Pass)
//Storyboard Layer 3 (Foreground)
//Storyboard Sound Samples

[TimingPoints]
2596.88640078457,526.315789473684,4,2,0,40,1,0
6807,-100,4,2,0,50,0,0
23123,-125,4,2,0,30,0,0
23649,-100,4,2,0,50,0,0
39438,-100,4,2,0,20,0,0
39965,-100,4,2,0,50,0,0
40491,-90.9090909090909,4,2,0,70,0,1
55228,-100,4,2,0,70,0,0
57333,-100,4,2,0,60,0,0
65754,-111.111111111111,4,2,0,50,0,0
80491,-111.111111111111,4,2,0,25,0,0
82596,-90.9090909090909,4,2,0,70,0,1
82684,-90.9090909090909,4,2,0,70,0,0
97333,-100,4,2,0,40,0,0

[Colours]
Combo1 : 233,237,146
Combo2 : 216,216,216
Combo3 : 192,86,113
Combo4 : 92,92,92

[HitObjects]
79,115,6807,6,0,P|104:178|193:193,1,158.333333333333,4|0,3:0|0:0,0:0:0:0:
225,168,7333,1,0,1:0:0:0:
418,206,7772,1,8,3:0:0:0:
418,206,7860,2,0,L|426:133,1,63.3333333333333,0|0,3:0|3:0,0:0:0:0:
456,259,8386,2,0,P|411:242|364:242,1,95,0|2,1:0|0:0,0:0:0:0:
219,314,8912,6,0,P|266:314|310:297,1,95,4|2,3:0|0:0,0:0:0:0:
194,257,9438,2,0,L|166:357,1,95,0|0,1:0|0:0,0:0:0:0:
87,363,9877,1,0,3:0:0:0:
87,363,9965,2,0,P|61:345|37:293,1,63.3333333333333,8|0,3:0|3:0,0:0:0:0:
112,181,10403,1,0,0:0:0:0:
112,181,10491,2,0,L|64:175,2,47.5,0|0|0,1:0|0:0|0:0,0:0:0:0:
252,101,11017,5,0,0:0:0:0:
129,113,11281,2,0,L|89:61,1,63.3333333333333,0|2,0:0|0:0,0:0:0:0:
97,22,11544,1,0,1:0:0:0:
301,52,11982,1,8,3:0:0:0:
301,52,12070,2,0,P|318:78|321:109,1,63.3333333333333,0|0,0:0|3:0,0:0:0:0:
309,148,12333,2,0,P|286:167|245:174,1,63.3333333333333
189,157,12596,2,0,P|146:180|101:171,1,95,0|0,1:0|0:0,0:0:0:0:
51,137,12991,1,2,0:0:0:0:
51,137,13123,6,0,B|71:194|71:194|73:237,1,95,4|0,3:0|0:0,0:0:0:0:
202,253,13649,2,0,B|241:206|241:206|254:174,1,95,0|0,1:0|0:0,0:0:0:0:
290,103,14088,1,0,3:0:0:0:
290,103,14175,2,0,P|320:95|351:99,1,63.3333333333333,8|0,3:0|3:0,0:0:0:0:
475,207,14614,1,0,0:0:0:0:
475,207,14702,2,0,L|471:263,2,47.5,0|0|0,1:0|0:0|3:0,0:0:0:0:
405,309,15228,6,0,P|336:301|261:317,1,142.5,2|0,2:1|0:0,0:0:0:0:
205,331,15754,1,6,3:0:0:0:
88,287,16017,1,2,0:0:0:0:
183,208,16281,1,8,3:0:0:0:
141,324,16544,1,0,0:0:0:0:
198,178,16807,2,0,L|186:81,1,95,2|0,1:0|0:0,0:0:0:0:
139,44,17202,1,2,0:0:0:0:
139,44,17333,6,0,P|115:42|93:47,1,47.5,4|2,3:0|0:0,0:0:0:0:
277,68,17860,1,0,1:0:0:0:
397,41,18123,1,2,0:0:0:0:
339,161,18386,1,8,3:0:0:0:
461,171,18649,1,0,0:0:0:0:
319,186,18912,2,0,P|283:203|242:257,1,95,2|0,1:0|0:0,0:0:0:0:
231,304,19307,1,0,0:0:0:0:
231,304,19438,6,0,P|205:307|181:305,2,47.5,4|0|0,3:0|0:0|0:0,0:0:0:0:
48,273,19965,1,0,1:0:0:0:
78,153,20228,2,0,P|77:129|70:106,1,47.5,0|0,3:0|0:0,0:0:0:0:
40,207,20491,2,0,L|144:198,1,95,8|2,3:0|1:0,0:0:0:0:
285,155,21017,2,0,P|238:145|201:117,1,95,0|0,1:0|0:0,0:0:0:0:
321,85,21544,5,14,3:0:0:0:
321,85,21807,1,0,0:0:0:0:
324,103,22333,1,0,0:0:0:0:
324,103,22596,2,0,L|337:214,1,95,2|0,2:1|0:0,0:0:0:0:
439,221,23123,6,0,P|450:275|421:325,1,114,2|6,1:0|1:0,0:0:0:0:
351,329,23649,6,0,L|364:278,2,47.5,0|2|2,0:0|0:0|0:0,0:0:0:0:
296,357,24044,1,0,0:0:0:0:
250,316,24175,2,0,P|232:302|188:297,1,47.5,0|0,1:0|0:0,0:0:0:0:
147,302,24438,2,0,P|128:316|105:322,1,47.5,2|0,0:0|0:0,0:0:0:0:
19,218,24702,2,0,P|56:248|102:259,1,95,8|4,3:0|3:0,0:0:0:0:
159,150,25228,2,0,P|132:126|99:113,2,71.25,0|0|8,1:0|0:0|3:0,0:0:0:0:
224,180,25754,6,0,L|230:133,2,47.5,4|0|2,3:0|0:0|0:0,0:0:0:0:
196,235,26149,1,0,0:0:0:0:
250,264,26281,2,0,B|274:270|274:270|296:268,1,47.5,0|0,1:0|0:0,0:0:0:0:
357,281,26544,2,0,B|359:259|359:259|353:235,1,47.5,2|0,0:0|0:0,0:0:0:0:
298,107,26807,2,0,B|292:167|292:167|297:201,2,95,4|4|0,3:0|3:0|1:0,0:0:0:0:
389,24,27596,1,8,3:0:0:0:
389,24,27728,1,2,0:0:0:0:
429,71,27860,6,0,P|439:92|441:115,1,47.5,4|0,3:0|0:0,0:0:0:0:
359,189,28123,2,0,P|372:169|391:155,1,47.5,2|0,0:0|0:0,0:0:0:0:
449,177,28386,2,0,P|471:187|495:189,2,47.5,0|0|2,1:0|0:0|0:0,0:0:0:0:
441,172,28781,1,4,3:0:0:0:
445,316,29088,2,0,L|346:342,1,95,4|0,3:0|0:0,0:0:0:0:
276,286,29438,2,0,L|372:260,1,95,0|0,1:0|0:0,0:0:0:0:
211,317,29877,1,0,0:0:0:0:
211,317,29965,6,0,P|236:276|239:229,1,95,4|2,3:0|0:0,0:0:0:0:
222,169,30360,1,0,0:0:0:0:
160,166,30491,2,0,L|114:184,1,47.5,0|0,1:0|0:0,0:0:0:0:
59,156,30754,2,0,L|41:110,1,47.5,2|0,0:0|0:0,0:0:0:0:
54,51,31017,2,0,P|91:22|137:14,2,95,8|4|0,3:0|3:0|1:0,0:0:0:0:
294,107,32070,6,0,P|363:106|417:184,1,142.5,2|0,0:1|0:0,0:0:0:0:
430,215,32596,2,0,P|407:203|336:218,1,95,6|0,1:0|0:0,0:0:0:0:
304,263,32991,1,0,3:0:0:0:
304,263,33123,2,0,L|290:212,1,47.5,4|0,3:0|0:0,0:0:0:0:
246,174,33386,1,0,0:0:0:0:
204,290,33649,2,0,B|174:303|174:303|112:296,1,95,0|0,1:0|3:0,0:0:0:0:
30,204,34175,6,0,L|64:236,3,47.5,4|0|0|0,3:0|0:0|0:0|0:0,0:0:0:0:
119,206,34702,2,0,L|114:147,3,47.5,4|0|0|4,3:0|0:0|0:0|3:0,0:0:0:0:
82,106,35228,2,0,P|105:103|128:96,3,47.5,4|8|0|0,3:0|3:0|0:0|0:0,0:0:0:0:
190,73,35754,2,0,P|214:76|237:83,3,47.5,4|0|0|0,3:0|0:0|0:0|0:0,0:0:0:0:
201,155,36281,6,0,P|197:182|257:282,1,142.5,2|0,0:1|0:0,0:0:0:0:
277,334,36807,2,0,L|323:250,1,95,6|0,1:0|0:0,0:0:0:0:
367,207,37202,1,0,3:0:0:0:
367,207,37333,2,0,P|370:231|383:251,1,47.5,4|0,3:0|0:0,0:0:0:0:
439,276,37596,1,0,0:0:0:0:
410,155,37860,2,0,P|366:139|322:155,1,95,0|0,1:0|3:0,0:0:0:0:
229,236,38386,6,0,L|235:289,3,47.5,4|0|0|0,3:0|0:0|0:0|0:0,0:0:0:0:
172,276,38912,2,0,L|166:228,3,47.5,2|0|0|2,3:0|0:0|0:0|3:0,0:0:0:0:
179,168,39438,1,2,3:3:0:0:
233,57,39702,1,0,0:0:0:0:
291,218,39965,2,0,L|258:222,5,31.6666666666667,2|2|2|2|2|2,3:0|3:0|3:0|3:0|3:0|3:0,0:0:0:0:
211,174,40491,6,0,P|262:230|192:332,1,209.000006378174,4|0,1:0|1:0,0:0:0:0:
104,249,41281,1,0,0:0:0:0:
274,301,41544,2,0,L|377:289,1,104.500003189087,4|0,3:0|3:0,0:0:0:0:
457,193,42070,2,0,L|353:181,1,104.500003189087,0|0,1:0|0:0,0:0:0:0:
484,268,42596,6,0,P|440:192|452:65,1,209.000006378174,4|0,3:0|1:0,0:0:0:0:
330,28,43386,1,0,0:0:0:0:
407,211,43649,2,0,P|364:166|348:121,1,104.500003189087,4|0,3:0|0:0,0:0:0:0:
196,178,44175,2,0,P|242:201|294:204,1,104.500003189087,0|0,1:0|0:0,0:0:0:0:
148,86,44702,6,0,L|183:305,1,209.000006378174,4|0,3:0|1:0,0:0:0:0:
364,332,45491,1,0,0:0:0:0:
364,332,45623,1,0,3:0:0:0:
364,332,45754,2,0,P|336:238|239:225,1,209.000006378174,8|0,3:0|1:0,0:0:0:0:
242,351,46544,1,0,0:0:0:0:
381,258,46807,6,0,B|403:236|403:236|428:167,1,104.500003189087,6|0,3:0|0:0,0:0:0:0:
324,11,47333,2,0,B|349:79|349:79|371:101,1,104.500003189087,0|0,1:0|0:0,0:0:0:0:
434,102,47728,1,4,3:0:0:0:
434,102,47860,2,0,P|379:125|357:170,1,104.500003189087,8|0,3:0|0:0,0:0:0:0:
223,148,48386,2,0,P|246:203|291:225,1,104.500003189087,0|0,1:0|0:0,0:0:0:0:
220,36,48912,6,0,P|205:133|110:159,1,209.000006378174,4|0,1:0|1:0,0:0:0:0:
42,52,49702,1,0,3:0:0:0:
170,175,49965,2,0,L|196:287,1,104.500003189087,4|0,3:0|3:0,0:0:0:0:
360,233,50491,2,0,P|313:213|261:209,1,104.500003189087,0|0,1:0|0:0,0:0:0:0:
362,350,51017,6,0,B|348:195|348:195|370:137,1,209.000006378174,4|0,3:0|1:0,0:0:0:0:
473,77,51807,1,0,3:0:0:0:
251,42,52070,2,0,P|302:34|354:38,1,104.500003189087,4|0,3:0|0:0,0:0:0:0:
229,191,52596,2,0,P|260:149|299:114,1,104.500003189087,0|0,1:0|0:0,0:0:0:0:
154,287,53123,6,0,P|221:216|307:261,1,209.000006378174,4|0,3:0|1:0,0:0:0:0:
144,167,53912,1,0,0:0:0:0:
144,167,54044,1,0,3:0:0:0:
144,167,54175,2,0,B|235:291|235:291|245:349,1,209.000006378174,8|0,3:0|1:0,0:0:0:0:
118,339,54965,1,0,0:0:0:0:
247,267,55228,6,0,P|296:262|356:274,1,95,4|0,3:0|0:0,0:0:0:0:
352,155,55754,2,0,P|398:171|447:207,1,95,4|0,3:0|0:0,0:0:0:0:
274,189,56281,2,0,L|292:70,1,95,4|0,3:0|3:0,0:0:0:0:
177,120,56807,2,0,L|172:151,5,31.6666666666667,2|2|2|2|2|2,3:0|3:0|3:0|3:0|3:0|3:0,0:0:0:0:
96,184,57333,6,0,P|166:177|219:221,1,142.5,2|0,3:1|0:0,0:0:0:0:
241,279,57860,2,0,P|294:290|342:280,1,95,6|0,1:0|0:0,0:0:0:0:
394,246,58254,1,0,0:0:0:0:
395,253,58386,2,0,L|404:316,1,47.5,4|0,3:0|3:0,3:0:0:0:
449,340,58649,1,0,0:0:0:0:
488,223,58912,2,0,L|474:128,1,95,0|0,1:0|3:0,0:0:0:0:
391,37,59438,6,0,P|375:55|362:79,2,47.5,4|0|2,3:0|0:0|0:0,0:0:0:0:
283,98,59965,2,0,P|284:122|292:148,2,47.5,4|0|2,3:0|0:0|0:0,0:0:0:0:
249,217,60491,2,0,P|267:233|291:246,2,47.5,8|4|8,3:0|3:0|3:0,0:0:0:0:
295,332,61017,2,0,P|319:325|343:312,2,47.5,4|0|2,3:0|0:0|0:0,0:0:0:0:
166,219,61544,6,0,P|89:248|73:303,1,142.5,2|0,3:1|0:0,0:0:0:0:
42,354,62070,2,0,P|85:334|132:335,1,95,6|0,1:0|0:0,0:0:0:0:
190,314,62465,1,0,3:0:0:0:
192,317,62596,2,0,P|209:334|230:347,1,47.5,4|0,3:0|0:0,0:0:0:0:
291,344,62860,1,0,0:0:0:0:
292,183,63123,2,0,P|267:229|263:283,1,95,0|0,1:0|3:0,0:0:0:0:
391,159,63649,6,0,P|412:146|427:128,2,47.5,4|0|2,3:0|0:0|3:0,0:0:0:0:
287,89,64175,2,0,P|281:65|268:44,2,47.5,8|4|8,3:0|3:0|3:0,0:0:0:0:
189,166,64702,2,0,P|165:162|142:169,2,47.5,0|0|2,0:0|0:0|3:0,0:0:0:0:
233,283,65228,2,0,P|222:303|221:327,2,47.5,0|0|2,0:0|0:0|3:0,0:0:0:0:
357,279,65754,5,8,3:0:0:0:
256,192,69965,12,8,73649,0:0:0:0:
196,75,74175,6,0,P|231:102|242:192,1,128.249996086121,4|0,3:0|0:0,0:0:0:0:
225,238,74702,1,4,3:0:0:0:
230,244,75228,2,0,B|271:277|333:266|333:266|326:247,2,128.249996086121,2|2|2,0:0|0:0|0:0,0:0:0:0:
180,191,76149,1,0,3:0:0:0:
180,191,76281,6,0,P|161:199|140:203,1,42.7499986953736,4|2,3:0|0:0,0:0:0:0:
84,180,76544,2,0,P|75:160|71:139,1,42.7499986953736,4|2,3:0|0:0,0:0:0:0:
81,80,76807,2,0,P|118:61|161:59,1,85.4999973907472,2|0,1:0|0:0,0:0:0:0:
266,118,77333,2,0,L|322:115,2,42.7499986953736,4|2|4,3:0|0:0|3:0,0:0:0:0:
207,129,77728,1,2,0:0:0:0:
207,129,77860,2,0,P|243:148|266:184,1,85.4999973907472,2|8,1:0|3:0,0:0:0:0:
256,192,78386,12,0,80491,0:0:0:0:
335,205,81281,5,2,0:0:0:0:
335,205,81807,1,2,0:0:0:0:
335,205,82596,6,0,P|294:257|204:260,1,156.750004783631,14|0,3:0|0:0,0:0:0:0:
164,307,83123,2,0,L|183:181,1,104.500003189087,14|0,3:0|0:0,0:0:0:0:
132,163,83517,1,0,3:0:0:0:
132,163,83649,2,0,L|113:37,1,104.500003189087,4|0,3:0|0:0,0:0:0:0:
231,109,84175,2,0,P|286:116|343:103,1,104.500003189087,0|0,1:0|3:0,0:0:0:0:
436,39,84702,6,0,L|502:28,3,52.2500015945435,4|0|2|2,3:0|0:0|0:0|0:0,0:0:0:0:
500,92,85228,2,0,L|448:100,3,52.2500015945435,4|0|2|4,3:0|0:0|0:0|3:0,0:0:0:0:
407,148,85754,2,0,L|341:137,3,52.2500015945435,8|4|8|2,3:0|3:0|3:0|0:0,0:0:0:0:
343,201,86280,2,0,L|394:209,3,52.2500015945435,4|0|2|0,3:0|0:0|0:0|0:0,0:0:0:0:
286,155,86807,6,0,P|323:214|306:304,1,156.750004783631,2|0,0:1|0:0,0:0:0:0:
326,358,87333,2,0,P|266:348|224:317,1,104.500003189087,6|0,1:0|0:0,0:0:0:0:
195,272,87728,1,0,3:0:0:0:
195,272,87860,2,0,P|150:298|94:298,1,104.500003189087,4|0,3:0|0:0,0:0:0:0:
27,194,88386,2,0,P|78:192|122:219,1,104.500003189087,0|0,1:0|0:0,0:0:0:0:
69,104,88912,6,0,P|94:101|119:92,3,52.2500015945435,4|0|0|0,3:0|0:0|0:0|0:0,0:0:0:0:
178,71,89438,2,0,P|187:95|190:121,3,52.2500015945435,4|0|0|4,3:0|0:0|0:0|3:0,0:0:0:0:
183,184,89965,2,0,P|186:209|195:234,3,52.2500015945435,8|4|8|0,3:0|3:0|3:0|0:0,0:0:0:0:
255,213,90491,2,0,P|279:203|305:200,3,52.2500015945435,4|0|2|2,3:0|0:0|0:0|0:0,0:0:0:0:
303,297,91017,6,0,B|276:238|276:238|285:144,1,156.750004783631,2|0,0:1|0:0,0:0:0:0:
330,103,91544,2,0,P|282:120|232:107,1,104.500003189087,6|0,1:0|0:0,0:0:0:0:
195,57,91938,1,0,0:0:0:0:
195,57,92070,2,0,B|116:51|116:51|93:61,1,104.500003189087,4|0,3:0|0:0,0:0:0:0:
42,176,92596,2,0,B|121:182|121:182|143:171,1,104.500003189087,0|0,1:0|3:0,0:0:0:0:
255,113,93123,6,0,L|270:187,2,52.2500015945435,4|0|2,3:0|0:0|0:0,0:0:0:0:
376,146,93649,2,0,L|361:220,2,52.2500015945435,4|0|2,3:0|0:0|0:0,0:0:0:0:
281,228,94175,2,0,L|296:302,2,52.2500015945435,8|4|8,3:0|3:0|3:0,0:0:0:0:
402,261,94701,2,0,L|387:335,2,52.2500015945435,4|0|2,3:0|0:0|0:0,0:0:0:0:
317,167,95228,6,0,P|275:230|200:223,1,156.750004783631,2|0,0:1|0:0,0:0:0:0:
188,162,95754,2,0,P|227:128|278:120,1,104.500003189087,6|0,1:0|0:0,0:0:0:0:
339,107,96149,1,0,3:0:0:0:
339,107,96281,2,0,L|357:225,1,104.500003189087,4|0,3:0|0:0,0:0:0:0:
464,270,96807,2,0,L|448:166,1,104.500003189087,0|0,1:0|3:0,0:0:0:0:
391,68,97333,6,0,P|371:51|342:41,2,47.5,4|0|0,3:0|0:0|0:0,0:0:0:0:
315,154,97860,2,0,P|295:171|266:181,2,47.5
239,69,98386,2,0,L|228:17,2,47.5
134,113,98912,2,0,L|123:165,2,47.5,0|0|4,0:0|0:0|0:2,0:0:0:0:
