osu file format v14

[General]
AudioFilename: audio.mp3
AudioLeadIn: 0
PreviewTime: 31807
Countdown: 0
SampleSet: Soft
StackLeniency: 0.7
Mode: 0
LetterboxInBreaks: 0
WidescreenStoryboard: 0

[Editor]
Bookmarks: 6807,23649,65754
DistanceSpacing: 1.1
BeatDivisor: 4
GridSize: 8
TimelineZoom: 1.8

[Metadata]
Title:Danger
TitleUnicode:괴도
Artist:TAEMIN
ArtistUnicode:태민
Creator:Voli
Version:Normal
Source:
Tags:kpop cerulean veyron irreversible 샤이니 SHINEE SM entertainment ACE
BeatmapID:1255200
BeatmapSetID:592108

[Difficulty]
HPDrainRate:3
CircleSize:3.5
OverallDifficulty:3
ApproachRate:5
SliderMultiplier:1.5
SliderTickRate:1

[Events]
//Background and Video events
0,0,"danger3.jpg",0,0
//Break Periods
//Storyboard Layer 0 (Background)
//Storyboard Layer 1 (Fail)
//Storyboard Layer 2 (Pass)
//Storyboard Layer 3 (Foreground)
//Storyboard Sound Samples

[TimingPoints]
2596.88640078457,526.315789473684,4,2,1,40,1,0
6807,-100,4,2,1,50,0,0
39439,-100,4,2,1,25,0,0
39965,-100,4,2,1,60,0,0
40491,-100,4,2,1,70,0,1
55228,-100,4,2,1,70,0,0
57334,-100,4,2,1,60,0,0
65755,-100,4,2,1,50,0,0
80492,-100,4,2,1,25,0,0
82685,-100,4,2,1,70,0,0
97334,-100,4,2,1,40,0,0

[Colours]
Combo1 : 233,237,146
Combo2 : 216,216,216
Combo3 : 192,86,113
Combo4 : 92,92,92

[HitObjects]
70,90,2597,6,0,P|141:71|238:112,1,150,2|0,0:0|3:0,0:0:0:0:
375,129,3649,2,0,P|387:172|377:221,1,75,0|0,3:0|0:0,0:0:0:0:
348,275,4175,1,0,3:0:0:0:
190,241,4702,2,0,L|213:92,1,150,0|0,0:0|3:0,0:0:0:0:
365,28,5754,2,0,P|421:26|471:44,1,75,0|0,3:0|0:0,0:0:0:0:
502,83,6281,1,0,3:0:0:0:
455,241,6807,6,0,B|377:253|377:253|288:225,1,150,4|0,3:0|1:0,0:0:0:0:
186,121,7860,2,0,L|106:127,1,75,8|0,3:0|0:0,0:0:0:0:
61,192,8386,2,0,L|66:266,1,75,0|2,1:0|0:0,0:0:0:0:
73,348,8912,1,4,3:0:0:0:
221,270,9439,2,0,P|311:264|383:287,1,150,0|8,1:0|3:0,0:0:0:0:
442,316,10228,1,0,0:0:0:0:
476,241,10491,2,0,P|485:191|479:149,1,75,0|0,1:0|0:0,0:0:0:0:
421,112,11018,6,0,P|419:74|428:38,1,75,0|0,3:0|3:0,0:0:0:0:
353,2,11544,1,0,1:0:0:0:
199,62,12070,1,8,3:0:0:0:
122,32,12333,1,0,0:0:0:0:
69,95,12596,2,0,P|45:137|45:179,1,75,0|0,1:0|0:0,0:0:0:0:
50,245,13123,1,4,3:0:0:0:
214,260,13649,2,0,B|269:249|269:249|302:266|302:266|389:248,2,150,0|8|0,1:0|3:0|1:0,0:0:0:0:
134,282,14965,1,0,3:0:0:0:
153,201,15228,5,2,2:1:0:0:
231,56,15754,2,0,P|285:37|334:41,1,75,6|2,3:0|0:0,0:0:0:0:
356,98,16281,2,0,P|411:113|448:144,1,75,8|0,3:0|0:0,0:0:0:0:
405,202,16807,2,0,P|465:276|487:355,1,150,2|4,1:0|3:0,0:0:0:0:
318,340,17860,2,0,L|236:333,1,75,0|2,1:0|0:0,0:0:0:0:
199,263,18386,2,0,L|135:210,1,75,8|0,3:0|0:0,0:0:0:0:
198,154,18912,2,0,L|155:-4,1,150,2|4,1:0|3:0,0:0:0:0:
315,63,19965,6,0,P|352:137|419:166,1,150,0|8,1:0|3:0,0:0:0:0:
490,146,20754,1,2,1:0:0:0:
475,227,21018,2,0,L|464:315,1,75,0|0,1:0|0:0,0:0:0:0:
387,329,21544,1,14,3:0:0:0:
205,75,23649,6,0,L|201:149,1,75,4|2,3:0|0:0,0:0:0:0:
141,207,24175,2,0,L|144:281,1,75,0|2,1:0|0:0,0:0:0:0:
219,319,24702,2,0,L|385:311,1,150,8|0,3:0|1:0,0:0:0:0:
282,171,25754,6,0,P|246:162|210:173,1,75,4|2,3:0|0:0,0:0:0:0:
134,204,26281,2,0,P|125:168|136:132,1,75,0|2,1:0|0:0,0:0:0:0:
184,65,26807,2,0,L|257:79,2,75,4|4|0,3:0|3:0|1:0,0:0:0:0:
352,46,27860,22,0,P|347:125|295:173,1,150,4|0,3:0|1:0,0:0:0:0:
217,190,28649,1,2,0:0:0:0:
159,248,28912,2,0,L|149:333,1,75,4|0,3:0|0:0,0:0:0:0:
67,323,29439,2,0,L|58:248,1,75,0|0,1:0|0:0,0:0:0:0:
66,166,29965,2,0,B|100:70|100:70|155:60,1,150,4|0,3:0|1:0,0:0:0:0:
229,51,30754,1,2,0:0:0:0:
302,89,31018,2,0,P|366:108|407:104,2,75,8|4|0,3:0|3:0|1:0,0:0:0:0:
362,243,32070,38,0,L|467:235,1,75,2|0,0:1|0:0,0:0:0:0:
416,317,32596,22,0,P|281:284|337:155,1,300,6|0,1:0|1:0,0:0:0:0:
207,41,34175,38,0,L|119:47,1,75,4|0,3:0|0:0,0:0:0:0:
118,127,34702,2,0,L|192:121,1,75,4|0,3:0|0:0,0:0:0:0:
220,199,35228,2,0,L|145:204,1,75,4|0,3:0|0:0,0:0:0:0:
125,284,35754,2,0,L|199:278,1,75,4|0,3:0|0:0,0:0:0:0:
278,304,36281,38,0,P|323:318|377:310,1,75,2|0,0:1|0:0,0:0:0:0:
420,274,36807,22,0,B|461:250|459:188|459:188|418:142|416:74|416:74|322:105,1,300,6|0,1:0|1:0,0:0:0:0:
183,59,38386,6,0,P|129:63|87:89,1,75,4|0,3:0|0:0,0:0:0:0:
63,139,38912,2,0,P|98:151|135:151,1,75,2|0,3:0|0:0,0:0:0:0:
217,144,39439,1,2,3:3:0:0:
357,57,39965,2,0,B|352:90|352:90|361:105|361:105|355:142,1,75,2|2,3:0|3:0,0:0:0:0:
417,187,40491,38,0,P|439:241|359:304,1,150,4|0,1:0|1:0,0:0:0:0:
302,287,41281,1,0,0:0:0:0:
220,301,41544,2,0,L|127:316,1,75,4|0,3:0|3:0,0:0:0:0:
78,265,42070,2,0,L|64:183,1,75,0|0,1:0|0:0,0:0:0:0:
90,112,42596,2,0,B|138:34|138:34|226:46,1,150,4|0,3:0|1:0,0:0:0:0:
271,75,43386,1,0,0:0:0:0:
351,95,43649,2,0,B|420:112|420:60|507:86,1,150,4|0,3:0|1:0,1:0:0:0:
463,158,44438,1,0,0:0:0:0:
488,236,44702,22,0,B|419:253|419:201|332:227,1,150,4|0,3:0|1:0,1:0:0:0:
278,171,45491,1,0,0:0:0:0:
203,134,45754,2,0,L|109:149,1,75,8|0,3:0|0:0,0:0:0:0:
65,199,46281,2,0,P|65:222|107:273,1,75,0|0,1:0|0:0,0:0:0:0:
163,305,46807,2,0,B|234:324|234:324|336:297,2,150,6|0|8,3:0|1:0|3:0,0:0:0:0:
91,264,48123,1,0,0:0:0:0:
59,188,48386,2,0,P|45:140|55:82,1,75,0|0,1:0|0:0,0:0:0:0:
99,52,48912,22,0,B|179:28|163:92|267:44,1,150,4|0,1:0|1:0,0:0:0:0:
322,24,49702,1,0,3:0:0:0:
374,90,49965,2,0,P|406:131|421:181,1,75,4|0,3:0|3:0,0:0:0:0:
414,232,50491,2,0,P|398:265|374:294,1,75,0|0,1:0|0:0,0:0:0:0:
299,329,51018,2,0,B|145:317,1,150,4|0,3:0|1:0,0:0:0:0:
85,265,51807,1,0,0:0:0:0:
61,186,52070,2,0,B|39:149|51:113|51:113|95:117|145:85,1,150,4|0,3:0|1:0,0:0:0:0:
194,57,52860,1,0,0:0:0:0:
272,80,53123,22,0,P|323:72|426:111,1,150,4|0,3:0|1:0,0:0:0:0:
463,168,53912,1,0,0:0:0:0:
446,248,54175,2,0,L|358:256,1,75,8|0,3:0|0:0,0:0:0:0:
289,263,54702,1,0,1:0:0:0:
125,241,55228,22,0,P|85:185|125:89,1,150,4|4,3:0|3:0,0:0:0:0:
241,22,56281,1,4,3:0:0:0:
166,166,56807,2,0,B|189:169|189:169|204:160|204:160|237:165,1,75,2|2,3:0|3:0,0:0:0:0:
319,158,57333,22,0,P|356:135|370:76,1,75,2|0,3:1|0:0,0:0:0:0:
352,27,57860,22,0,B|110:10|110:10|174:59,1,300,6|0,1:0|1:0,0:0:0:0:
112,204,59439,6,0,L|128:309,1,75,4|2,3:0|0:0,0:0:0:0:
203,258,59965,2,0,L|214:183,1,75,4|2,3:0|0:0,0:0:0:0:
297,183,60491,2,0,L|309:258,1,75,8|8,3:0|3:0,0:0:0:0:
388,278,61018,2,0,L|400:204,1,75,4|2,3:0|0:0,0:0:0:0:
389,122,61544,6,0,P|356:90|299:76,1,75,2|0,3:1|0:0,0:0:0:0:
247,89,62070,22,0,B|177:99|177:99|104:71|104:71|59:96|3:88|3:88|45:134,1,300,6|0,1:0|1:0,0:0:0:0:
128,258,63649,38,0,P|179:277|226:270,1,75,4|2,3:0|3:0,0:0:0:0:
278,254,64175,2,0,P|280:216|296:183,1,75,0|0,0:0|3:0,0:0:0:0:
271,104,64702,2,0,P|220:85|173:92,1,75,8|8,3:0|3:0,0:0:0:0:
121,108,65228,2,0,P|118:145|102:178,1,75,0|2,0:0|3:0,0:0:0:0:
46,239,65754,37,8,3:0:0:0:
197,305,66281,2,0,B|325:220|379:340|478:244,1,300,2|0,1:0|0:0,0:0:0:0:
464,163,67596,2,0,L|481:3,1,150,2|2,0:0|0:0,0:0:0:0:
397,23,68386,2,0,L|288:11,1,75,8|0,0:0|0:0,0:0:0:0:
265,74,68912,2,0,L|190:82,1,75,4|0,3:0|0:0,0:0:0:0:
111,57,69439,2,0,P|45:57|-9:137,1,150,8|4,0:0|3:0,0:0:0:0:
9,198,70228,5,0,3:0:0:0:
74,248,70491,2,0,L|164:271,1,75,8|0,0:0|0:0,0:0:0:0:
212,315,71018,2,0,L|284:296,1,75,8|0,3:0|0:0,0:0:0:0:
359,260,71544,1,8,0:0:0:0:
409,194,71807,2,0,P|444:130|342:146,1,225,2|0,0:0|3:0,0:0:0:0:
267,174,72860,2,0,B|207:180|207:180|190:128|121:119,1,150,2|8,0:0|0:3,0:0:0:0:
130,204,73649,1,8,0:0:0:0:
268,292,74175,6,0,L|426:277,2,150,4|4|2,3:0|3:0|0:0,0:0:0:0:
116,227,75754,2,0,P|70:226|26:248,1,75,0|2,0:0|0:0,0:0:0:0:
0,165,76281,2,0,P|0:119|21:75,1,75,4|4,3:0|3:0,0:0:0:0:
44,17,76807,1,2,1:0:0:0:
206,46,77333,2,0,L|311:34,1,75,4|4,3:0|3:0,0:0:0:0:
360,58,77860,1,2,1:0:0:0:
320,130,78123,6,0,P|320:193|381:254,1,150,8|0,3:0|0:0,0:0:0:0:
439,307,78912,2,0,P|397:332|342:328,1,75,8|0,0:0|0:0,0:0:0:0:
295,302,79439,2,0,L|205:294,1,75,4|0,3:0|3:0,0:0:0:0:
139,313,79965,1,8,0:0:0:0:
69,269,80228,22,0,P|35:148|70:42,1,225,2|0,3:0|0:0,0:0:0:0:
139,26,81281,2,0,P|229:51|309:25,2,150,2|2|0,0:0|0:0|0:0,0:0:0:0:
59,46,82596,38,0,L|65:132,1,75,14|0,3:0|0:0,0:0:0:0:
85,200,83123,22,0,B|116:283|116:283|242:316|242:316|328:241,1,300,14|0,3:0|1:0,0:0:0:0:
454,192,84702,6,0,L|449:99,1,75,4|2,3:0|0:0,0:0:0:0:
373,86,85228,2,0,L|368:160,1,75,4|2,3:0|0:0,0:0:0:0:
292,190,85754,2,0,L|287:115,1,75,8|8,3:0|3:0,0:0:0:0:
212,80,86281,2,0,L|207:154,1,75,4|2,3:0|0:0,0:0:0:0:
167,226,86807,6,0,P|157:276|187:319,1,75,2|0,3:1|0:0,0:0:0:0:
242,326,87333,22,0,B|323:336|372:269|372:269|437:303|437:303|470:278|485:235,1,300,6|0,1:0|1:0,0:0:0:0:
446,81,88912,38,0,P|399:81|364:96,1,75,4|0,3:0|0:0,0:0:0:0:
354,170,89439,2,0,P|318:181|281:180,1,75,4|0,3:0|0:0,0:0:0:0:
247,105,89965,2,0,P|200:105|165:120,1,75,8|8,3:0|3:0,0:0:0:0:
155,195,90491,2,0,P|119:206|82:205,1,75,4|2,3:0|0:0,0:0:0:0:
27,143,91018,38,0,L|39:51,1,75,2|0,3:1|0:0,0:0:0:0:
113,37,91544,22,0,B|226:19|226:19|281:46|281:46|437:23,1,300,6|0,1:0|1:0,0:0:0:0:
451,186,93123,6,0,P|464:223|415:230,1,75,4|2,3:0|0:0,0:0:0:0:
384,302,93649,2,0,P|367:337|327:307,1,75,4|2,3:0|0:0,0:0:0:0:
255,344,94175,2,0,P|217:357|210:308,1,75,8|8,3:0|3:0,0:0:0:0:
135,280,94702,2,0,P|99:263|129:223,1,75,4|2,3:0|0:0,0:0:0:0:
159,170,95228,6,0,L|166:89,1,75,2|0,3:1|0:0,0:0:0:0:
225,38,95754,22,0,B|270:62|346:38|346:38|339:79|350:113|350:113|410:102|470:142,1,300,6|0,1:0|1:0,0:0:0:0:
409,289,97333,38,0,L|324:300,1,75,4|0,3:0|0:0,0:0:0:0:
296,225,97860,2,0,L|221:215,1,75,0|0,0:0|0:0,0:0:0:0:
198,294,98386,2,0,L|113:305,1,75,0|0,0:0|0:0,0:0:0:0:
85,230,98912,2,0,L|10:220,1,75,0|4,0:0|0:2,0:0:0:0:
