osu file format v14

[General]
AudioFilename: audio.mp3
AudioLeadIn: 0
PreviewTime: 31807
Countdown: 0
SampleSet: Soft
StackLeniency: 0.7
Mode: 0
LetterboxInBreaks: 0
WidescreenStoryboard: 0

[Editor]
DistanceSpacing: 0.83
BeatDivisor: 6
GridSize: 8
TimelineZoom: 2.599999

[Metadata]
Title:Danger
TitleUnicode:괴도
Artist:TAEMIN
ArtistUnicode:태민
Creator:Voli
Version:Danger
Source:
Tags:kpop cerulean veyron irreversible 샤이니 SHINEE SM entertainment ACE
BeatmapID:1252869
BeatmapSetID:592108

[Difficulty]
HPDrainRate:6
CircleSize:4.5
OverallDifficulty:8
ApproachRate:9
SliderMultiplier:2.2
SliderTickRate:1

[Events]
//Background and Video events
0,0,"danger3.jpg",0,0
//Break Periods
//Storyboard Layer 0 (Background)
//Storyboard Layer 1 (Fail)
//Storyboard Layer 2 (Pass)
//Storyboard Layer 3 (Foreground)
//Storyboard Sound Samples

[TimingPoints]
2596.88640078457,526.315789473684,4,2,1,58,1,0
2860,-133.333333333333,4,2,1,58,0,0
3561,-133.333333333333,4,2,1,20,0,0
4175,-133.333333333333,4,2,1,58,0,0
5667,-133.333333333333,4,2,1,58,0,0
6281,-133.333333333333,4,2,1,58,0,0
6807,-100,4,2,1,58,0,0
15228,-200,4,2,1,58,0,0
15667,-200,4,2,1,5,0,0
15754,-100,4,2,1,58,0,0
20754,-76.9230769230769,4,2,1,58,0,0
20930,-100,4,2,1,58,0,0
22596,-200,4,2,1,58,0,0
23123,-58.8235294117647,4,2,1,58,0,0
23517,-76.9230769230769,4,2,1,58,0,0
32070,-133.333333333333,4,2,1,58,0,0
32531,-133.333333333333,4,2,1,5,0,0
32596,-50,4,2,1,70,0,1
34175,-100,4,2,1,58,0,0
36281,-133.333333333333,4,2,1,58,0,0
36741,-133.333333333333,4,2,1,5,0,0
36807,-50,4,2,1,70,0,1
38386,-100,4,2,1,58,0,0
39965,-100,4,2,1,80,0,0
40491,-66.6666666666667,4,2,1,70,0,1
42399,-66.6666666666667,4,2,1,5,0,1
42465,-58.8235294117647,4,2,1,70,0,1
42860,-66.6666666666667,4,2,1,70,0,1
43737,-66.6666666666667,4,2,1,5,0,1
43824,-66.6666666666667,4,2,1,70,0,1
43912,-66.6666666666667,4,2,1,5,0,1
44088,-66.6666666666667,4,2,1,70,0,1
44263,-66.6666666666667,4,2,1,5,0,1
44351,-66.6666666666667,4,2,1,70,0,1
44526,-66.6666666666667,4,2,1,5,0,1
44614,-66.6666666666667,4,2,1,80,0,1
45228,-66.6666666666667,4,2,1,70,0,1
46895,-66.6666666666667,4,2,1,5,0,1
46982,-66.6666666666667,4,2,1,70,0,1
47070,-66.6666666666667,4,2,1,5,0,1
47246,-66.6666666666667,4,2,1,70,0,1
47421,-66.6666666666667,4,2,1,5,0,1
47509,-66.6666666666667,4,2,1,70,0,1
47684,-66.6666666666667,4,2,1,5,0,1
47772,-58.8235294117647,4,2,1,70,0,1
47947,-58.8235294117647,4,2,1,5,0,1
48035,-58.8235294117647,4,2,1,70,0,1
48210,-58.8235294117647,4,2,1,5,0,1
48298,-76.9230769230769,4,2,1,70,0,1
48474,-76.9230769230769,4,2,1,5,0,1
48558,-76.9230769230769,4,2,1,70,0,1
48824,-76.9230769230769,4,2,1,5,0,1
48912,-66.6666666666667,4,2,1,70,0,1
50820,-66.6666666666667,4,2,1,5,0,1
50886,-58.8235294117647,4,2,1,70,0,1
51544,-66.6666666666667,4,2,1,70,0,1
52202,-66.6666666666667,4,2,1,5,0,1
52333,-66.6666666666667,4,2,1,70,0,1
52596,-66.6666666666667,4,2,1,5,0,1
52728,-66.6666666666667,4,2,1,70,0,1
52860,-66.6666666666667,4,2,1,5,0,1
52991,-66.6666666666667,4,2,1,70,0,1
55228,-133.333333333333,4,2,1,50,0,0
55623,-100,4,2,1,60,0,0
56281,-80,4,2,1,50,0,0
56807,-100,4,2,1,60,0,0
57333,-133.333333333333,4,2,1,70,0,0
57794,-133.333333333333,4,2,1,5,0,0
57860,-50,4,2,1,70,0,1
59438,-100,4,2,1,70,0,0
61544,-133.333333333333,4,2,1,70,0,0
62004,-133.333333333333,4,2,1,5,0,0
62070,-50,4,2,1,70,0,1
63649,-133.333333333333,4,2,1,70,0,0
66215,-133.333333333333,4,2,1,5,0,0
66281,-66.6666666666667,4,2,1,70,0,0
66719,-100,4,2,1,70,0,0
74570,-100,4,2,1,5,0,0
74702,-100,4,2,1,70,0,0
75096,-100,4,2,1,5,0,0
75228,-100,4,2,1,70,0,0
76281,-76.9230769230769,4,2,1,70,0,0
76807,-58.8235294117647,4,2,1,70,0,0
77333,-76.9230769230769,4,2,1,70,0,0
77860,-58.8235294117647,4,2,1,70,0,0
78386,-66.6666666666667,4,2,1,70,0,0
80228,-133.333333333333,4,2,1,70,0,0
81017,-133.333333333333,4,2,1,5,0,0
81281,-133.333333333333,4,2,1,70,0,0
81741,-133.333333333333,4,2,1,5,0,0
81807,-133.333333333333,4,2,1,70,0,0
82267,-133.333333333333,4,2,1,5,0,0
82333,-133.333333333333,4,2,1,70,0,0
82596,-100,4,2,1,70,0,0
83057,-100,4,2,1,5,0,0
83123,-50,4,2,1,70,0,1
84702,-100,4,2,1,70,0,0
86807,-133.333333333333,4,2,1,70,0,0
87267,-133.333333333333,4,2,1,5,0,0
87333,-50,4,2,1,70,0,1
88912,-100,4,2,1,70,0,0
91017,-133.333333333333,4,2,1,70,0,0
91478,-133.333333333333,4,2,1,5,0,0
91544,-50,4,2,1,70,0,1
93123,-100,4,2,1,70,0,0
95228,-133.333333333333,4,2,1,70,0,0
95688,-133.333333333333,4,2,1,5,0,0
95754,-50,4,2,1,70,0,1
97333,-133.333333333333,4,2,1,70,0,0
99175,-200,4,2,1,70,0,0

[Colours]
Combo1 : 233,237,146
Combo2 : 216,216,216
Combo3 : 192,86,113
Combo4 : 92,92,92

[HitObjects]
157,192,2596,5,0,3:0:0:0:
256,64,2860,2,0,L|328:72,1,55.0000020980836,0|2,0:0|0:0,0:0:0:0:
375,112,3123,1,0,3:0:0:0:
306,294,3386,1,0,0:0:0:0:
179,258,3561,1,0,3:0:0:0:
165,266,3649,1,0,3:0:0:0:
75,176,3824,1,0,3:0:0:0:
89,184,3912,1,0,3:0:0:0:
303,210,4175,2,0,P|349:221|384:269,1,82.5000031471254,0|0,3:0|0:0,0:0:0:0:
436,109,4702,5,0,3:0:0:0:
306,294,4965,1,0,0:0:0:0:
227,50,5228,1,0,3:0:0:0:
303,210,5491,1,0,0:0:0:0:
187,242,5667,1,0,3:0:0:0:
171,246,5754,1,0,3:0:0:0:
280,318,5930,1,0,3:0:0:0:
296,322,6017,1,0,3:0:0:0:
189,155,6281,2,0,L|92:182,1,82.5000031471254,0|0,3:0|0:0,0:0:0:0:
306,60,6807,6,0,B|362:44|362:84|442:52,1,110,4|0,3:0|3:0,0:0:0:0:
496,23,7246,1,2,0:0:0:0:
499,45,7333,2,0,B|513:120|513:120|492:150,1,110,4|0,3:0|0:0,0:0:0:0:
285,217,7772,1,4,3:0:0:0:
252,235,7860,6,0,P|205:238|160:217,1,73.3333333333333,8|4,3:0|3:0,0:0:0:0:
9,135,8210,2,0,L|40:301,1,146.666666666667,2|0,0:0|0:0,0:0:0:0:
114,337,8649,2,0,L|125:239,1,73.3333333333333,2|0,0:0|0:0,0:0:0:0:
222,157,8912,5,4,3:0:0:0:
433,59,9175,1,2,0:0:0:0:
100,28,9438,2,0,L|126:185,1,110,0|0,1:0|0:0,0:0:0:0:
251,242,9877,1,4,3:0:0:0:
283,222,9965,6,0,P|318:219|371:235,1,73.3333333333333,8|4,3:0|3:0,0:0:0:0:
454,52,10403,1,0,0:0:0:0:
433,59,10491,2,0,B|390:66|390:66|331:55,1,73.3333333333333,0|0,1:0|0:0,0:0:0:0:
290,34,10754,2,0,B|260:28|260:28|217:35,1,73.3333333333333
120,63,11017,5,4,3:0:0:0:
385,190,11281,1,0,3:0:0:0:
279,236,11456,1,2,0:0:0:0:
266,254,11544,2,0,B|221:250|221:250|201:262|201:262|153:257,1,110,0|0,1:0|0:0,0:0:0:0:
60,163,11982,1,4,3:0:0:0:
98,167,12070,6,0,B|175:173,1,73.3333333333333,8|4,3:0|3:0,0:0:0:0:
257,79,12333,2,0,B|179:85,1,73.3333333333333
308,144,12596,2,0,P|337:98|316:23,1,110,0|0,1:0|0:0,0:0:0:0:
422,76,12991,6,0,P|486:77|440:32,1,165,2|0,0:0|3:0,0:0:0:0:
322,232,13649,2,0,L|449:244,1,110,0|0,1:0|0:0,0:0:0:0:
302,317,14088,1,4,3:0:0:0:
270,299,14175,6,0,P|245:266|241:220,1,73.3333333333333,8|4,3:0|3:0,0:0:0:0:
98,147,14614,1,0,0:0:0:0:
85,165,14702,2,0,L|81:251,1,73.3333333333333,0|0,1:0|0:0,0:0:0:0:
40,303,14965,1,0,3:0:0:0:
148,303,15228,6,0,P|181:298|154:324,1,91.6666666666667,2|2,2:1|2:0,0:0:0:0:
234,236,15754,6,0,P|262:282|259:333,1,73.3333333333333,6|0,3:0|0:0,0:0:0:0:
334,230,16017,2,0,P|342:194|364:165,1,73.3333333333333,0|4,3:0|3:0,0:0:0:0:
440,205,16281,6,0,L|512:213,1,73.3333333333333,8|0,3:0|3:0,0:0:0:0:
473,300,16544,2,0,L|401:292,1,73.3333333333333,0|0,3:0|0:0,0:0:0:0:
363,165,16807,2,0,P|342:111|368:54,1,110,2|0,1:0|0:0,0:0:0:0:
424,112,17202,5,2,0:0:0:0:
147,43,17465,1,2,0:0:0:0:
147,43,17860,1,0,1:0:0:0:
424,112,18123,1,2,0:0:0:0:
323,218,18298,1,4,3:0:0:0:
330,253,18386,6,0,P|314:303|279:326,1,73.3333333333333,8|0,3:0|0:0,0:0:0:0:
212,316,18649,2,0,P|188:288|182:253,1,73.3333333333333
102,210,18912,2,0,B|117:150|117:150|108:123|108:123|130:104|130:104|146:42,1,183.333333333333,2|0,1:0|0:0,0:0:0:0:
241,17,19438,6,0,L|217:112,1,73.3333333333333,4|0,3:0|0:0,0:0:0:0:
249,160,19702,1,0,0:0:0:0:
383,99,19877,1,2,0:0:0:0:
404,92,19965,2,0,P|463:85|514:125,1,110,0|0,1:0|0:0,0:0:0:0:
442,234,20403,1,4,3:0:0:0:
410,259,20491,6,0,L|337:274,1,73.3333333333333,8|0,3:0|0:0,0:0:0:0:
184,310,20754,2,0,L|278:329,1,95.3333289693199,2|0,1:0|0:0,0:0:0:0:
142,240,21017,2,0,P|109:275|121:358,1,110,0|0,1:0|0:0,0:0:0:0:
256,248,21412,1,8,3:0:0:0:
256,136,21544,5,14,3:0:0:0:
256,133,21807,1,0,0:0:0:0:
57,57,22333,5,0,0:0:0:0:
58,60,22596,2,0,L|84:111,1,55,2|0,2:1|0:0,0:0:0:0:
267,52,23123,6,0,P|325:65|239:101,1,187.000003566742,2|0,1:0|0:0,0:0:0:0:
385,22,23561,6,0,P|409:96|390:164,1,142.99999345398,6|2,1:0|0:0,0:0:0:0:
353,252,23912,2,0,L|381:353,1,95.3333289693199,2|2,0:0|0:0,0:0:0:0:
256,225,24175,2,0,P|278:184|334:155,1,95.3333289693199,0|0,1:0|0:0,0:0:0:0:
269,317,24438,2,0,L|163:338,1,95.3333289693199,2|4,0:0|3:0,0:0:0:0:
17,218,24702,6,0,L|213:265,1,142.99999345398,8|4,3:0|3:0,0:0:0:0:
94,46,25228,1,0,1:0:0:0:
236,129,25491,1,2,0:0:0:0:
367,51,25667,1,8,3:0:0:0:
386,89,25754,6,0,P|392:126|354:199,1,95.3333289693199,4|2,3:0|0:0,0:0:0:0:
459,217,26017,2,0,P|437:247|358:272,1,95.3333289693199,2|2,0:0|0:0,0:0:0:0:
268,374,26281,6,0,P|224:355|195:319,1,95.3333289693199,0|2,1:0|0:0,0:0:0:0:
280,281,26544,2,0,P|262:237|268:191,1,95.3333289693199,2|8,0:0|3:0,0:0:0:0:
153,166,26807,6,0,B|99:160|99:160|70:137|70:137|-34:128,2,142.99999345398,4|4|0,3:0|3:0|1:0,0:0:0:0:
255,46,27596,1,8,3:0:0:0:
341,91,27772,6,0,L|323:256,1,142.99999345398,2|2,1:0|0:0,0:0:0:0:
430,302,28123,2,0,L|419:205,1,95.3333289693199,2|2,0:0|0:0,0:0:0:0:
490,148,28386,2,0,L|500:53,1,95.3333289693199,0|2,1:0|0:0,0:0:0:0:
441,3,28649,1,2,0:0:0:0:
328,24,28824,6,0,B|256:8|256:48|168:24,1,142.99999345398,4|4,3:0|3:0,0:0:0:0:
149,178,29351,1,0,3:0:0:0:
184,192,29438,2,0,B|256:208|256:168|344:192,1,142.99999345398,0|0,1:0|0:0,0:0:0:0:
447,264,29877,1,8,3:0:0:0:
466,290,29965,6,0,L|494:191,1,95.3333289693199,4|2,3:0|0:0,0:0:0:0:
301,321,30228,2,0,L|394:239,1,95.3333289693199,2|2,0:0|0:0,0:0:0:0:
351,95,30491,6,0,L|323:194,1,95.3333289693199,0|2,1:0|0:0,0:0:0:0:
508,65,30754,2,0,L|415:147,1,95.3333289693199,2|4,0:0|3:0,0:0:0:0:
256,116,31017,22,0,P|191:97|138:22,2,142.99999345398,8|4|0,3:0|3:0|1:0,0:0:0:0:
251,0,31807,1,0,3:0:0:0:
272,292,32070,6,0,P|249:225|187:191,1,144.375005507469,2|0,0:1|0:0,0:0:0:0:
188,192,32596,22,0,B|70:192|28:90|78:-35|247:-27|256:116|256:116|264:-27|433:-35|483:90|441:192|323:192,1,880,6|0,1:0|1:0,0:0:0:0:
166,102,33912,1,0,3:0:0:0:
43,258,34175,6,0,L|108:247,1,55,4|0,3:0|0:0,0:0:0:0:
211,330,34438,2,0,L|146:319,1,55
44,172,34702,22,0,P|38:146|43:117,1,55,4|0,3:0|0:0,0:0:0:0:
145,23,34965,2,0,P|150:49|144:76,1,55,0|4,0:0|3:0,0:0:0:0:
241,168,35228,22,0,L|327:155,1,55,4|8,3:0|3:0,0:0:0:0:
426,106,35491,2,0,L|371:97,1,55
295,239,35754,2,0,P|288:265|294:292,1,55,4|0,3:0|0:0,0:0:0:0:
425,336,36017,2,0,P|430:309|424:282,1,55
368,177,36281,6,0,B|373:97|375:21,1,144.375005507469,2|0,0:1|0:0,0:0:0:0:
288,22,36807,22,0,B|224:-3|151:42|159:144|222:182|288:162|288:162|238:274|124:208|93:143|112:70|124:18|124:18|54:17|23:98|41:166|77:211,1,880,6|0,1:0|1:0,0:0:0:0:
259,91,38123,1,0,3:0:0:0:
355,95,38254,5,2,0:0:0:0:
355,95,38320,1,0,0:0:0:0:
355,95,38386,2,0,L|439:109,1,55,4|0,3:0|0:0,0:0:0:0:
499,206,38649,2,0,L|415:220,1,55
334,278,38912,2,0,P|325:307|327:349,1,55,2|0,3:0|0:0,0:0:0:0:
187,331,39175,2,0,P|186:304|177:277,1,55,0|2,0:0|3:0,0:0:0:0:
112,176,39438,5,2,0:3:0:0:
256,32,39702,1,0,0:0:0:0:
400,176,39965,6,0,L|394:229,1,36.6666666666667,2|2,3:0|3:0,3:0:0:0:
326,142,40140,2,0,L|321:105,1,36.6666666666667,2|2,3:0|3:0,3:0:0:0:
254,175,40316,2,0,L|249:211,1,36.6666666666667,2|2,3:0|3:0,3:0:0:0:
210,293,40491,6,0,P|135:311|43:253,1,165.000006294251,4|2,1:0|0:0,0:0:0:0:
198,31,41017,2,0,L|380:23,1,165.000006294251,0|0,1:0|0:0,0:0:0:0:
455,134,41456,1,4,3:0:0:0:
462,203,41544,22,0,P|450:256|405:310,1,110.000004196167,8|0,3:0|0:0,0:0:0:0:
354,328,41807,1,0,3:0:0:0:
248,120,42070,1,0,1:0:0:0:
364,134,42202,2,0,P|354:73|314:25,1,123.750004720688,2|0,0:0|0:0,0:0:0:0:
316,26,42465,22,0,B|172:-14|172:90|28:26,1,280.500005350113,2|0,1:0|0:0,0:0:0:0:
48,216,43123,2,0,B|72:344|72:344|96:312,1,165.000006294251,0|0,1:0|0:0,0:0:0:0:
256,192,43561,1,8,3:0:0:0:
332,223,43649,22,0,L|414:215,1,55.0000020980836,4|0,3:0|0:0,0:0:0:0:
444,137,43824,2,0,L|362:129,1,55.0000020980836,4|0,3:0|0:0,0:0:0:0:
192,138,44088,2,0,P|153:89|154:29,1,110.000004196167,2|0,1:0|0:0,0:0:0:0:
227,11,44351,2,0,P|262:51|269:105,1,110.000004196167,2|0,1:0|0:0,0:0:0:0:
272,208,44614,22,0,B|345:244|420:249|378:148|470:103|597:247|519:338|399:328|394:262|413:233,1,385.000014686585,6|0,1:0|1:0,0:0:0:0:
334,134,45491,1,0,3:0:0:0:
192,138,45667,1,4,3:0:0:0:
141,195,45754,22,0,P|126:257|154:310,1,110.000004196167,8|0,3:0|0:0,0:0:0:0:
189,360,46017,1,0,3:0:0:0:
115,122,46281,2,0,B|-5:145|-5:145|34:93,1,165.000006294251,0|0,1:0|0:0,0:0:0:0:
195,35,46807,22,0,L|289:54,1,55.0000020980836,6|0,3:0|0:0,0:0:0:0:
305,103,46982,2,0,L|416:80,1,110.000004196167,0|0,1:0|0:0,0:0:0:0:
468,173,47246,22,0,P|476:230|438:197,1,110.000004196167,2|0,1:1|0:0,0:0:0:0:
391,293,47509,2,0,P|349:316|340:269,1,110.000004196167,2|0,1:1|0:0,0:0:0:0:
272,223,47772,22,0,L|141:242,1,124.666669044495,10|0,3:0|0:0,0:0:0:0:
20,145,48035,2,0,L|151:164,1,124.666669044495,6|0,3:0|0:0,0:0:0:0:
241,116,48298,22,0,P|265:60|260:-2,1,95.3333289693199,2|0,1:0|0:0,0:0:0:0:
357,46,48561,2,0,L|498:25,1,142.99999345398,4|0,3:0|0:0,0:0:0:0:
507,203,48912,22,0,P|481:277|407:210,1,165.000006294251,4|0,1:0|0:0,0:0:0:0:
266,26,49438,2,0,P|294:72|281:195,1,165.000006294251,0|0,1:0|3:0,0:0:0:0:
191,316,49877,1,4,3:0:0:0:
185,236,49965,22,0,L|66:204,1,110.000004196167,8|0,3:0|0:0,0:0:0:0:
5,179,50228,1,0,3:0:0:0:
224,16,50491,1,0,1:0:0:0:
161,123,50623,2,0,P|153:184|213:251,1,123.750004720688,2|0,0:0|0:0,0:0:0:0:
184,235,50886,22,0,B|267:259|267:259|370:221|370:221|454:247,1,280.500005350113,2|0,1:0|0:0,0:0:0:0:
144,306,51544,2,0,P|104:238|138:166,1,165.000006294251,0|0,1:0|3:0,0:0:0:0:
303,126,51938,1,4,3:0:0:0:
407,94,52070,22,0,P|414:43|397:9,1,82.5000031471254,2|0,1:0|0:0,0:0:0:0:
257,61,52333,1,2,1:0:0:0:
257,61,52465,2,0,P|296:48|336:57,1,82.5000031471254,2|0,1:0|0:0,0:0:0:0:
316,203,52728,2,0,P|299:166|303:126,1,82.5000031471254,2|0,1:0|0:0,0:0:0:0:
385,242,52991,22,0,B|346:300|283:288|257:255|257:255|172:160|75:253|114:380|263:326,1,412.500015735627,6|0,1:0|1:0,0:0:0:0:
316,203,53912,1,0,3:0:0:0:
190,62,54088,1,4,3:0:0:0:
264,45,54175,22,0,L|377:55,1,110.000004196167,8|0,3:0|0:0,0:0:0:0:
443,87,54438,1,0,3:0:0:0:
165,145,54702,2,0,P|114:92|140:-6,1,165.000006294251,0|0,1:0|0:0,0:0:0:0:
412,173,55228,6,0,L|424:282,1,82.5000031471254,4|0,3:0|0:0,0:0:0:0:
274,102,55754,22,0,L|286:211,1,110,4|0,3:0|0:0,0:0:0:0:
137,15,56281,22,0,L|155:178,1,137.5,4|0,3:0|3:0,0:0:0:0:
278,290,56807,22,0,L|314:285,1,36.6666666666667,2|2,3:0|3:0,3:0:0:0:
368,219,56982,2,0,L|331:214,1,36.6666666666667,2|2,3:0|3:0,3:0:0:0:
397,150,57158,2,0,L|433:145,1,36.6666666666667,2|2,3:0|3:0,3:0:0:0:
471,19,57333,6,0,L|322:35,1,144.375005507469,2|0,3:1|0:0,0:0:0:0:
228,65,57860,22,0,B|203:154|10:246|-63:138|30:-70|156:-16|184:49|186:115|167:161|137:201|66:226|78:321|246:378|361:343|251:12|60:281,1,880,6|0,1:0|1:0,0:0:0:0:
265,149,59175,1,0,3:0:0:0:
382,77,59438,6,0,L|391:22,1,55,4|0,3:0|0:0,0:0:0:0:
485,130,59702,2,0,L|494:184,1,55,2|2,0:0|0:0,0:0:0:0:
404,294,59965,22,0,P|372:310|323:300,1,55,4|0,3:0|0:0,0:0:0:0:
338,175,60228,2,0,P|354:207|344:256,1,55,2|4,0:0|3:0,0:0:0:0:
234,271,60491,22,0,L|145:256,1,55,8|4,3:0|3:0,0:0:0:0:
54,197,60754,2,0,L|143:182,1,55,8|2,3:0|0:0,0:0:0:0:
232,72,61017,22,0,P|259:75|282:88,1,55,4|0,3:0|0:0,0:0:0:0:
167,121,61281,2,0,P|153:97|150:70,1,55,2|0,0:0|0:0,0:0:0:0:
394,131,61544,38,0,L|379:285,1,144.375005507469,2|0,3:1|0:0,0:0:0:0:
283,325,62070,22,0,B|187:341|57:265|112:49|238:-56|467:199|321:376|219:277|139:261|19:221|28:87|159:20|208:24|232:16|232:16|320:80,1,880,6|0,1:0|1:0,0:0:0:0:
467,212,63386,1,0,3:0:0:0:
283,325,63649,6,0,L|226:338,1,41.2500015735627,4|0,3:0|0:0,0:0:0:0:
173,255,63912,2,0,L|230:268,1,41.2500015735627,2|0,3:0|0:0,0:0:0:0:
295,195,64175,22,0,P|310:167|306:147,1,41.2500015735627
231,130,64438,2,0,P|218:146|216:166,1,41.2500015735627,0|4,3:0|3:0,0:0:0:0:
318,71,64702,22,0,L|359:66,1,41.2500015735627,8|4,3:0|3:0,0:0:0:0:
264,15,64965,2,0,L|222:10,1,41.2500015735627,8|0,3:0|0:0,0:0:0:0:
118,58,65228,22,0,P|124:89|119:116,1,41.2500015735627
58,174,65491,2,0,P|52:143|57:116,1,41.2500015735627,2|0,3:0|0:0,0:0:0:0:
154,220,65754,38,0,B|134:309|134:309|199:329,1,144.375005507469,8|0,3:0|0:0,0:0:0:0:
264,304,66281,22,0,B|336:280|344:336|432:296,1,165.000006294251,8|0,3:0|0:0,0:0:0:0:
484,229,66675,1,8,0:0:0:0:
439,157,66807,6,0,L|446:81,1,55,4|0,3:0|0:0,0:0:0:0:
362,93,67070,2,0,L|355:17,1,55,4|0,3:0|0:0,0:0:0:0:
280,5,67333,1,8,0:0:0:0:
194,141,67596,6,0,P|86:139|20:58,1,220,2|0,0:0|0:0,0:0:0:0:
242,73,68386,2,0,P|276:126|262:188,1,110,8|0,0:0|0:0,0:0:0:0:
128,320,68912,5,4,3:0:0:0:
256,256,69175,1,4,3:0:0:0:
384,320,69438,2,0,L|392:200,1,110,8|0,0:0|0:0,0:0:0:0:
401,132,69833,1,8,0:0:0:0:
363,62,69965,6,0,P|317:31|243:28,1,110,4|0,3:0|3:0,0:0:0:0:
53,65,70491,2,0,P|99:96|173:99,1,110,8|0,0:0|0:0,0:0:0:0:
231,97,70886,1,4,3:0:0:0:
215,177,71017,6,0,L|196:265,1,55,8|0,3:0|0:0,0:0:0:0:
183,306,71281,1,0,3:0:0:0:
410,235,71544,1,8,0:0:0:0:
390,31,71807,6,0,P|315:38|400:40,1,330,2|8,0:0|0:0,0:0:0:0:
230,35,72860,2,0,P|224:95|243:148,1,110,2|4,0:0|3:0,0:0:0:0:
399,205,73386,2,0,P|339:211|286:192,1,110,4|8,3:0|0:0,0:0:0:0:
157,55,73912,2,0,L|94:62,1,55,8|8,3:0|3:0,0:0:0:0:
45,162,74175,6,0,B|38:219|38:219|58:254|58:254|47:340,1,165,4|0,3:0|0:0,0:0:0:0:
137,291,74702,2,0,B|144:234|144:234|124:199|124:199|135:113,1,165,4|0,3:0|0:0,0:0:0:0:
220,60,75228,5,2,0:0:0:0:
220,60,75360,2,0,L|299:51,1,55,2|0,0:0|0:0,0:0:0:0:
433,148,75623,2,0,L|310:133,1,110,2|0,0:0|0:0,0:0:0:0:
254,199,76017,2,0,P|245:238|254:278,1,55,2|8,0:0|3:0,0:0:0:0:
132,306,76281,6,0,L|62:316,1,71.4999967269899,4|2,3:0|0:0,0:0:0:0:
159,206,76544,2,0,L|89:216,1,71.4999967269899,4|2,3:0|0:0,0:0:0:0:
31,85,76807,6,0,L|230:113,1,187.000003566742,2|0,1:0|0:0,0:0:0:0:
298,63,77202,1,8,3:0:0:0:
298,63,77333,6,0,P|309:105|300:157,1,71.4999967269899,4|2,3:0|0:0,0:0:0:0:
428,207,77596,2,0,P|427:171|437:137,1,71.4999967269899,4|2,3:0|0:0,0:0:0:0:
312,231,77860,6,0,L|162:252,1,93.500001783371,2|0,1:0|0:0,0:0:0:0:
106,227,78123,1,8,3:0:0:0:
62,163,78254,1,8,3:0:0:0:
79,87,78386,6,0,P|99:55|243:0,1,165.000006294251,4|0,3:0|0:0,0:0:0:0:
433,87,78912,2,0,P|413:55|269:0,1,165.000006294251,8|0,0:0|0:0,0:0:0:0:
256,54,79307,1,4,3:0:0:0:
256,126,79438,6,0,L|256:214,1,82.5000031471254,8|0,3:0|3:0,0:0:0:0:
256,282,79702,1,0,3:0:0:0:
109,86,79965,2,0,L|191:86,1,82.5000031471254,8|0,2:0|2:0,2:0:0:0:
278,101,80228,6,0,P|347:39|256:54,1,247.500009441376,2|0,0:0|0:0,0:0:0:0:
184,256,81281,22,0,B|256:240|256:280|344:256,1,144.375005507469,2|0,0:0|0:0,0:0:0:0:
328,192,81807,2,0,B|256:208|256:168|168:192,1,144.375005507469,2|0,0:0|0:0,0:0:0:0:
185,187,82333,1,2,0:0:0:0:
26,26,82596,6,0,L|222:52,1,192.5,14|0,3:0|0:0,0:0:0:0:
231,127,83123,22,0,B|338:232|511:136|369:13|257:41|329:239|329:239|459:221|462:117|462:117|505:172|508:269|377:300,1,880,14|0,3:0|0:0,0:0:0:0:
236,239,84438,1,0,3:0:0:0:
255,52,84702,6,0,P|216:47|188:61,1,55,4|0,3:0|0:0,0:0:0:0:
87,133,84965,2,0,P|124:136|152:122,1,55,2|2,0:0|0:0,0:0:0:0:
12,200,85228,22,0,L|3:145,1,55,4|0,3:0|0:0,0:0:0:0:
131,231,85491,2,0,L|122:285,1,55,2|4,0:0|3:0,0:0:0:0:
305,326,85754,22,0,P|338:333|376:328,1,55,8|4,3:0|3:0,0:0:0:0:
472,250,86017,2,0,P|439:243|401:248,1,55,8|2,3:0|0:0,0:0:0:0:
307,143,86281,22,0,L|316:89,1,55,4|0,3:0|0:0,0:0:0:0:
415,0,86544,2,0,L|424:54,1,55,2|0,0:0|0:0,0:0:0:0:
370,191,86807,38,0,P|315:221|238:183,1,144.375005507469,2|0,0:1|0:0,0:0:0:0:
196,126,87333,22,0,B|93:106|27:147|27:147|26:47|26:47|114:29|142:78|111:216|111:216|72:217|30:247|0:310|49:428|223:389|183:249,1,880,6|0,1:0|1:0,0:0:0:0:
116,288,88649,1,0,3:0:0:0:
267,267,88781,5,2,0:0:0:0:
267,267,88846,1,0,0:0:0:0:
267,267,88912,2,0,L|327:274,1,55,4|0,3:0|0:0,0:0:0:0:
447,208,89175,2,0,L|387:215,1,55
332,82,89438,22,0,P|324:46|331:12,1,55,4|0,3:0|0:0,0:0:0:0:
186,28,89702,2,0,P|187:55|180:82,1,55,0|4,0:0|3:0,0:0:0:0:
53,164,89965,22,0,L|67:233,1,55,8|4,3:0|3:0,0:0:0:0:
161,321,90228,2,0,L|171:267,1,55,8|0,3:0|0:0,0:0:0:0:
305,183,90491,22,0,P|341:164|377:170,1,55,4|0,3:0|0:0,0:0:0:0:
406,279,90754,2,0,P|370:298|334:292,1,55,2|2,0:0|0:0,0:0:0:0:
196,188,91017,38,0,P|135:193|90:270,1,144.375005507469,2|0,0:1|0:0,0:0:0:0:
171,266,91544,22,0,B|128:237|82:196|106:97|170:57|292:88|276:171|282:198|257:246|257:246|401:182|336:0|115:-18|60:138,1,880,6|0,1:0|1:0,0:0:0:0:
196,188,92860,1,0,3:0:0:0:
376,306,93123,6,0,L|451:314,1,55,4|0,3:0|0:0,0:0:0:0:
502,184,93386,2,0,L|496:238,1,55,2|2,0:0|0:0,0:0:0:0:
343,117,93649,22,0,P|325:86|329:45,1,55,4|0,3:0|0:0,0:0:0:0:
398,177,93912,2,0,P|367:195|326:191,1,55,2|4,0:0|3:0,0:0:0:0:
212,258,94175,22,0,L|217:312,1,55,8|4,3:0|3:0,0:0:0:0:
97,245,94438,2,0,L|102:190,1,55,8|2,3:0|0:0,0:0:0:0:
80,38,94702,22,0,P|40:41|0:69,1,55,4|0,3:0|0:0,0:0:0:0:
166,95,94965,2,0,P|206:92|246:64,1,55,2|0,0:0|0:0,0:0:0:0:
324,41,95228,38,0,P|383:52|346:100,1,144.375005507469,2|0,0:1|0:0,0:0:0:0:
298,177,95754,22,0,B|305:247|361:268|382:430|530:289|445:85|340:184|319:296|290:324|255:338|255:338|220:324|192:296|171:184|65:85|-18:289|129:430|150:268|206:247|213:177,1,880,6|0,1:0|1:0,0:0:0:0:
256,40,97070,1,0,3:0:0:0:
64,136,97333,6,0,L|15:152,1,41.2500015735627,4|0,3:0|0:0,0:0:0:0:
68,235,97596,2,0,L|117:251,1,41.2500015735627
176,136,97860,22,0,L|127:152,1,41.2500015735627
180,235,98123,2,0,L|229:251,1,41.2500015735627
332,149,98386,22,0,L|292:136,1,41.2500015735627
336,248,98649,2,0,L|375:235,1,41.2500015735627
444,149,98912,22,0,L|404:136,1,41.2500015735627
448,248,99175,6,0,L|487:235,1,27.5,4|0,0:2|0:0,0:0:0:0:
