osu file format v14

[General]
AudioFilename: 01 - Preserved Roses.mp3
AudioLeadIn: 1500
PreviewTime: 58990
Countdown: 0
SampleSet: None
StackLeniency: 0.7
Mode: 0
LetterboxInBreaks: 0
WidescreenStoryboard: 1

[Editor]
DistanceSpacing: 0.8
BeatDivisor: 4
GridSize: 4
TimelineZoom: 1

[Metadata]
Title:Preserved Roses -Anime Version-
TitleUnicode:Preserved Roses -アニメバージョン-
Artist:T.M.Revolution x Mizuki Nana
ArtistUnicode:T.M.Revolution×水樹奈々
Creator:DT-sama
Version:glucose
Source:Kakumeiki Valvrave
Tags:stream jump streamjump jumpstream streams and jumps with jumps in streams and streams in jumps
BeatmapID:1912830
BeatmapSetID:915879

[Difficulty]
HPDrainRate:6
CircleSize:4
OverallDifficulty:9
ApproachRate:9
SliderMultiplier:2
SliderTickRate:1

[Events]
//Background and Video events
0,0,"123.jpg",0,0
//Break Periods
2,22543,27492
//Storyboard Layer 0 (Background)
//Storyboard Layer 1 (Fail)
//Storyboard Layer 2 (Pass)
//Storyboard Layer 3 (Foreground)
//Storyboard Sound Samples

[TimingPoints]
787,359.281437125748,4,1,9,50,1,0
9050,-50,4,1,9,50,0,0
9409,-100,4,1,9,50,0,0
11924,-50,4,1,9,50,0,0
12284,-100,4,1,9,50,0,0
28092,-66.6666666666667,4,1,9,50,0,0
33301,-50,4,1,9,50,0,0
33661,-66.6666666666667,4,1,9,50,0,0
39230,-50,4,1,9,50,0,0
39589,-66.6666666666667,4,1,9,50,0,0
47852,-50,4,1,9,50,0,0

[Colours]
Combo1 : 0,255,128
Combo2 : 130,200,250
Combo3 : 250,180,180
Combo4 : 128,255,255

[HitObjects]
39,36,787,5,0,0:0:0:0:
446,359,966,1,0,0:0:0:0:
253,103,1146,1,0,0:0:0:0:
115,268,1325,1,0,0:0:0:0:
481,37,1505,5,0,0:0:0:0:
473,348,1685,5,0,0:0:0:0:
473,348,1745,1,0,0:0:0:0:
473,348,1804,1,0,0:0:0:0:
473,348,1864,5,0,0:0:0:0:
66,25,2043,1,0,0:0:0:0:
259,281,2223,1,0,0:0:0:0:
397,116,2402,1,0,0:0:0:0:
31,347,2582,5,0,0:0:0:0:
176,144,2763,5,0,0:0:0:0:
258,87,2852,1,0,0:0:0:0:
331,154,2942,1,0,0:0:0:0:
298,248,3032,1,0,0:0:0:0:
198,246,3122,5,0,0:0:0:0:
356,66,3301,1,0,0:0:0:0:
431,301,3481,1,0,0:0:0:0:
132,18,3661,5,0,0:0:0:0:
256,360,3840,1,0,0:0:0:0:
357,23,4020,1,0,0:0:0:0:
22,281,4200,1,0,0:0:0:0:
500,360,4379,5,0,0:0:0:0:
18,33,4559,1,0,0:0:0:0:
18,33,4619,1,0,0:0:0:0:
18,33,4679,1,0,0:0:0:0:
18,33,4739,5,0,0:0:0:0:
500,360,4918,5,0,0:0:0:0:
256,192,5098,12,0,5502,0:0:0:0:
383,296,5816,5,0,0:0:0:0:
363,311,6176,5,0,0:0:0:0:
341,328,6535,6,0,P|182:298|153:176,1,300
310,102,7254,5,0,0:0:0:0:
261,251,7433,1,0,0:0:0:0:
189,112,7613,1,0,0:0:0:0:
365,207,7792,1,0,0:0:0:0:
80,247,7972,6,0,P|52:182|70:104,1,150
332,54,8331,2,0,P|371:142|347:208,1,150
285,249,8691,5,0,0:0:0:0:
325,279,8781,1,0,0:0:0:0:
374,286,8870,1,0,0:0:0:0:
420,267,8960,1,0,0:0:0:0:
438,220,9050,6,0,L|437:17,2,200
202,246,9589,5,0,0:0:0:0:
252,244,9769,1,0,0:0:0:0:
351,241,9948,1,0,0:0:0:0:
236,99,10128,2,0,L|337:210,2,150
326,52,10846,5,0,0:0:0:0:
433,196,11026,1,0,0:0:0:0:
373,351,11206,1,0,0:0:0:0:
80,329,11385,1,0,0:0:0:0:
110,45,11565,5,0,0:0:0:0:
433,196,11745,1,0,0:0:0:0:
355,239,11834,1,0,0:0:0:0:
265,226,11924,6,0,P|174:174|146:78,2,200
293,77,12463,5,0,0:0:0:0:
105,262,12643,1,0,0:0:0:0:
302,103,12822,1,0,0:0:0:0:
264,315,13002,1,0,0:0:0:0:
311,126,13182,1,0,0:0:0:0:
386,263,13361,1,0,0:0:0:0:
448,134,13541,5,0,0:0:0:0:
448,134,13631,1,0,0:0:0:0:
448,134,13721,6,0,P|402:64|320:18,1,150
0,241,14080,2,0,P|95:257|169:194,1,200
246,29,14529,5,0,0:0:0:0:
158,13,14619,5,0,0:0:0:0:
152,63,14709,1,0,0:0:0:0:
175,106,14798,1,0,0:0:0:0:
269,111,14888,5,0,0:0:0:0:
316,127,14978,1,0,0:0:0:0:
338,171,15068,1,0,0:0:0:0:
264,205,15158,5,0,0:0:0:0:
256,192,15337,12,0,16236,0:0:0:0:
138,108,16595,5,0,0:0:0:0:
179,80,16684,1,0,0:0:0:0:
209,148,16774,5,0,0:0:0:0:
268,139,16864,1,0,0:0:0:0:
266,215,16954,5,0,0:0:0:0:
340,219,17044,1,0,0:0:0:0:
307,287,17133,5,0,0:0:0:0:
393,313,17223,1,0,0:0:0:0:
328,366,17313,5,0,0:0:0:0:
223,355,17403,1,0,0:0:0:0:
161,269,17493,1,0,0:0:0:0:
182,166,17583,1,0,0:0:0:0:
267,106,17672,5,0,0:0:0:0:
176,160,17762,1,0,0:0:0:0:
78,120,17852,1,0,0:0:0:0:
69,15,17942,1,0,0:0:0:0:
168,55,18032,5,0,0:0:0:0:
457,164,18391,5,0,0:0:0:0:
91,313,18751,5,0,0:0:0:0:
401,337,19020,5,0,0:0:0:0:
211,87,19289,5,0,0:0:0:0:
241,128,19379,1,0,0:0:0:0:
278,172,19469,2,0,P|321:219|391:236,1,100
457,111,19828,2,0,P|429:58|362:17,1,100
132,120,20188,2,0,P|185:92|226:25,1,100
278,207,20547,5,0,0:0:0:0:
344,241,20637,1,0,0:0:0:0:
415,219,20727,1,0,0:0:0:0:
442,149,20816,1,0,0:0:0:0:
410,80,20906,1,0,0:0:0:0:
352,128,20996,1,0,0:0:0:0:
281,102,21086,5,0,0:0:0:0:
259,29,21176,1,0,0:0:0:0:
186,9,21266,1,0,0:0:0:0:
144,70,21355,1,0,0:0:0:0:
184,133,21445,1,0,0:0:0:0:
258,121,21535,1,0,0:0:0:0:
298,272,21625,5,0,0:0:0:0:
262,205,21715,1,0,0:0:0:0:
288,135,21804,1,0,0:0:0:0:
361,117,21894,1,0,0:0:0:0:
414,169,21984,5,0,0:0:0:0:
415,244,22074,1,0,0:0:0:0:
345,215,22164,1,0,0:0:0:0:
337,140,22254,1,0,0:0:0:0:
394,91,22343,5,0,0:0:0:0:
67,42,28092,6,0,P|104:102|224:116,1,150.000005722046
296,103,28451,5,0,0:0:0:0:
427,176,28631,1,0,0:0:0:0:
353,305,28810,1,0,0:0:0:0:
224,227,28990,1,0,0:0:0:0:
440,88,29170,5,0,0:0:0:0:
440,88,29349,2,0,P|514:160|506:218,1,150.000005722046
193,320,29709,2,0,P|266:314|311:245,1,150.000005722046
84,182,30068,2,0,P|100:66|70:33,1,150.000005722046
392,114,30427,5,0,0:0:0:0:
82,291,30607,1,0,0:0:0:0:
392,114,30786,1,0,0:0:0:0:
392,114,30876,1,0,0:0:0:0:
392,114,30966,1,0,0:0:0:0:
356,312,31146,5,0,0:0:0:0:
128,37,31326,1,0,0:0:0:0:
356,312,31505,1,0,0:0:0:0:
356,312,31595,1,0,0:0:0:0:
356,312,31685,1,0,0:0:0:0:
97,137,31864,5,0,0:0:0:0:
162,214,32044,1,0,0:0:0:0:
308,71,32224,1,0,0:0:0:0:
457,242,32403,2,0,P|380:258|304:228,1,150.000005722046
165,50,32763,5,0,0:0:0:0:
260,180,32942,1,0,0:0:0:0:
67,270,33122,1,0,0:0:0:0:
338,344,33301,6,0,P|418:296|436:167,2,200
139,76,33840,5,0,0:0:0:0:
199,89,34020,1,0,0:0:0:0:
207,265,34200,1,0,0:0:0:0:
270,280,34379,1,0,0:0:0:0:
325,292,34559,5,0,0:0:0:0:
79,65,34739,1,0,0:0:0:0:
380,303,34918,1,0,0:0:0:0:
24,55,35098,2,0,P|26:158|76:205,1,150.000005722046
325,163,35457,2,0,P|241:121|228:43,1,150.000005722046
420,335,35816,2,0,P|412:234|475:186,1,150.000005722046
404,53,36176,5,0,0:0:0:0:
57,342,36355,1,0,0:0:0:0:
355,253,36535,1,0,0:0:0:0:
321,175,36625,1,0,0:0:0:0:
241,162,36715,5,0,0:0:0:0:
438,350,36894,1,0,0:0:0:0:
405,62,37074,1,0,0:0:0:0:
214,345,37254,1,0,0:0:0:0:
262,165,37433,1,0,0:0:0:0:
321,175,37522,1,0,0:0:0:0:
349,222,37612,5,0,0:0:0:0:
203,311,37792,1,0,0:0:0:0:
71,183,37972,1,0,0:0:0:0:
152,39,38152,5,0,0:0:0:0:
313,68,38331,1,0,0:0:0:0:
171,167,38511,1,0,0:0:0:0:
360,236,38691,1,0,0:0:0:0:
221,21,38870,5,0,0:0:0:0:
422,177,39050,1,0,0:0:0:0:
156,261,39230,6,0,L|353:101,2,200
431,323,39769,1,0,0:0:0:0:
401,136,39948,2,0,P|403:251|459:287,1,150.000005722046
111,136,40307,2,0,P|109:251|53:287,1,150.000005722046
257,47,40667,5,0,0:0:0:0:
259,214,40846,1,0,0:0:0:0:
256,133,41026,1,0,0:0:0:0:
151,276,41206,1,0,0:0:0:0:
323,380,41385,1,0,0:0:0:0:
424,219,41565,1,0,0:0:0:0:
80,134,41745,5,0,0:0:0:0:
229,318,41924,1,0,0:0:0:0:
409,197,42104,1,0,0:0:0:0:
278,11,42284,1,0,0:0:0:0:
104,44,42463,5,0,0:0:0:0:
317,196,42643,2,0,P|219:249|124:216,1,150.000005722046
407,303,43002,5,0,0:0:0:0:
188,50,43182,1,0,0:0:0:0:
59,302,43361,2,0,P|132:298|183:246,1,150.000005722046
436,99,43721,5,0,0:0:0:0:
243,46,43900,1,0,0:0:0:0:
402,288,44080,1,0,0:0:0:0:
172,221,44260,1,0,0:0:0:0:
449,66,44439,5,0,0:0:0:0:
198,97,44619,1,0,0:0:0:0:
430,254,44798,1,0,0:0:0:0:
96,338,44978,2,0,P|30:260|38:202,2,150.000005722046
381,316,45517,5,0,0:0:0:0:
180,148,45697,1,0,0:0:0:0:
409,81,45876,1,0,0:0:0:0:
222,293,46056,1,0,0:0:0:0:
449,234,46236,1,0,0:0:0:0:
141,85,46415,1,0,0:0:0:0:
353,40,46595,5,0,0:0:0:0:
146,223,46685,1,0,0:0:0:0:
293,231,46775,1,0,0:0:0:0:
41,46,46954,5,0,0:0:0:0:
211,286,47134,1,0,0:0:0:0:
444,91,47313,2,0,P|336:161|461:128,1,300.000011444092
393,133,47763,1,0,0:0:0:0:
390,138,47852,6,0,P|222:239|150:213,1,200
236,252,48092,1,0,0:0:0:0:
241,271,48152,1,0,0:0:0:0:
248,288,48212,5,0,0:0:0:0:
38,172,48391,5,0,0:0:0:0:
131,10,48571,5,0,0:0:0:0:
345,16,48751,5,0,0:0:0:0:
475,183,48930,5,0,0:0:0:0:
385,225,49110,1,0,0:0:0:0:
399,129,49289,1,0,0:0:0:0:
475,183,49469,1,0,0:0:0:0:
385,225,49649,5,0,0:0:0:0:
393,244,49709,1,0,0:0:0:0:
402,264,49769,1,0,0:0:0:0:
410,284,49828,5,0,0:0:0:0:
138,355,50008,5,0,0:0:0:0:
1,160,50188,5,0,0:0:0:0:
169,0,50367,5,0,0:0:0:0:
396,31,50547,5,0,0:0:0:0:
451,103,50727,1,0,0:0:0:0:
361,128,50906,1,0,0:0:0:0:
299,32,51086,5,0,0:0:0:0:
199,213,51266,1,0,0:0:0:0:
183,90,51445,1,0,0:0:0:0:
364,289,51625,1,0,0:0:0:0:
401,178,51804,1,0,0:0:0:0:
85,305,51984,5,0,0:0:0:0:
0,138,52164,1,0,0:0:0:0:
512,138,52343,5,0,0:0:0:0:
426,305,52523,1,0,0:0:0:0:
176,33,52703,5,0,0:0:0:0:
334,36,52882,1,0,0:0:0:0:
336,351,53062,5,0,0:0:0:0:
178,348,53241,1,0,0:0:0:0:
256,35,53421,5,0,0:0:0:0:
260,348,53601,1,0,0:0:0:0:
158,185,53781,5,0,0:0:0:0:
346,192,53870,1,0,0:0:0:0:
255,261,53960,1,0,0:0:0:0:
127,74,54140,5,0,0:0:0:0:
252,177,54319,1,0,0:0:0:0:
423,36,54499,5,0,0:0:0:0:
198,228,54679,1,0,0:0:0:0:
394,311,54858,1,0,0:0:0:0:
499,181,55038,1,0,0:0:0:0:
377,57,55218,1,0,0:0:0:0:
193,91,55397,5,0,0:0:0:0:
254,203,55577,1,0,0:0:0:0:
369,156,55757,1,0,0:0:0:0:
305,45,55936,1,0,0:0:0:0:
100,222,56116,5,0,0:0:0:0:
368,263,56295,1,0,0:0:0:0:
148,111,56475,1,0,0:0:0:0:
221,256,56655,1,0,0:0:0:0:
132,366,56834,5,0,0:0:0:0:
256,24,57013,1,0,0:0:0:0:
357,361,57193,1,0,0:0:0:0:
22,103,57373,1,0,0:0:0:0:
500,24,57552,5,0,0:0:0:0:
18,351,57732,1,0,0:0:0:0:
18,351,57792,1,0,0:0:0:0:
18,351,57852,1,0,0:0:0:0:
18,351,57912,5,0,0:0:0:0:
500,24,58091,5,0,0:0:0:0:
256,192,58272,12,0,58676,0:0:0:0:
383,88,58990,5,0,0:0:0:0:
363,73,59349,5,0,0:0:0:0:
335,54,59709,6,0,P|233:62|122:143,2,200
247,310,60248,2,0,P|394:303|236:253,1,400
66,343,60786,5,0,0:0:0:0:
315,258,60966,1,0,0:0:0:0:
67,30,61146,5,0,0:0:0:0:
337,123,61325,1,0,0:0:0:0:
239,374,61505,1,0,0:0:0:0:
15,308,61685,1,0,0:0:0:0:
191,130,61864,6,0,P|366:187|398:260,3,200
121,291,62493,1,0,0:0:0:0:
186,244,62583,5,0,0:0:0:0:
391,323,62763,1,0,0:0:0:0:
261,338,62942,1,0,0:0:0:0:
203,162,63122,1,0,0:0:0:0:
360,129,63301,1,0,0:0:0:0:
298,215,63481,5,0,0:0:0:0:
259,95,63661,1,0,0:0:0:0:
161,35,63840,1,0,0:0:0:0:
52,82,64020,5,0,0:0:0:0:
122,153,64110,1,0,0:0:0:0:
221,149,64200,1,0,0:0:0:0:
280,46,64289,1,0,0:0:0:0:
346,121,64379,1,0,0:0:0:0:
304,211,64469,1,0,0:0:0:0:
198,262,64559,5,0,0:0:0:0:
273,328,64649,1,0,0:0:0:0:
367,296,64739,1,0,0:0:0:0:
444,359,64828,1,0,0:0:0:0:
458,237,64918,5,0,0:0:0:0:
369,154,65008,1,0,0:0:0:0:
449,211,65098,1,0,0:0:0:0:
357,128,65188,1,0,0:0:0:0:
275,39,65278,5,0,0:0:0:0:
198,123,65367,1,0,0:0:0:0:
70,60,65457,6,0,P|34:185|95:274,2,200
418,210,65996,2,0,P|269:219|411:140,1,400
105,308,66535,5,0,0:0:0:0:
324,184,66715,1,0,0:0:0:0:
444,345,66894,5,0,0:0:0:0:
161,252,67074,1,0,0:0:0:0:
286,20,67254,1,0,0:0:0:0:
483,76,67433,1,0,0:0:0:0:
271,214,67613,6,0,P|136:176|114:113,2,200
271,214,68152,5,0,0:0:0:0:
271,214,68242,1,0,0:0:0:0:
271,214,68331,5,0,0:0:0:0:
278,122,68511,1,0,0:0:0:0:
180,100,68691,5,0,0:0:0:0:
170,232,68871,1,0,0:0:0:0:
74,150,69050,1,0,0:0:0:0:
66,254,69230,1,0,0:0:0:0:
175,133,69410,1,0,0:0:0:0:
158,312,69589,1,0,0:0:0:0:
171,129,69769,5,0,0:0:0:0:
246,268,69858,1,0,0:0:0:0:
268,136,69948,1,0,0:0:0:0:
150,222,70038,1,0,0:0:0:0:
328,217,70128,5,0,0:0:0:0:
209,47,70218,1,0,0:0:0:0:
156,313,70307,1,0,0:0:0:0:
372,131,70397,1,0,0:0:0:0:
89,142,70487,5,0,0:0:0:0:
291,343,70667,1,0,0:0:0:0:
328,59,70846,1,0,0:0:0:0:
54,235,71026,1,0,0:0:0:0:
464,266,71206,6,0,P|462:134|392:66,2,200
138,229,71745,2,0,P|263:285|146:175,1,400
97,353,72284,5,0,0:0:0:0:
295,51,72463,1,0,0:0:0:0:
415,353,72643,5,0,0:0:0:0:
217,51,72822,1,0,0:0:0:0:
68,203,73002,1,0,0:0:0:0:
238,353,73182,1,0,0:0:0:0:
382,180,73361,6,0,P|252:209|219:287,3,200
430,323,73990,1,0,0:0:0:0:
393,273,74080,5,0,0:0:0:0:
203,343,74260,1,0,0:0:0:0:
52,164,74439,1,0,0:0:0:0:
211,313,74619,1,0,0:0:0:0:
410,202,74798,1,0,0:0:0:0:
355,23,74978,1,0,0:0:0:0:
118,27,75158,5,0,0:0:0:0:
119,56,75337,1,0,0:0:0:0:
121,83,75517,5,0,0:0:0:0:
107,182,75607,1,0,0:0:0:0:
188,238,75697,1,0,0:0:0:0:
210,140,75786,1,0,0:0:0:0:
295,192,75876,1,0,0:0:0:0:
279,290,75966,1,0,0:0:0:0:
186,327,76056,5,0,0:0:0:0:
262,261,76146,1,0,0:0:0:0:
353,300,76236,1,0,0:0:0:0:
427,233,76325,1,0,0:0:0:0:
340,283,76415,5,0,0:0:0:0:
408,209,76505,1,0,0:0:0:0:
340,134,76595,1,0,0:0:0:0:
409,62,76685,1,0,0:0:0:0:
323,114,76775,5,0,0:0:0:0:
234,67,76864,1,0,0:0:0:0:
138,128,76954,6,0,P|77:232|-48:215,2,200
366,345,77493,2,0,P|276:244|418:305,1,400
62,333,78032,5,0,0:0:0:0:
175,50,78212,1,0,0:0:0:0:
477,345,78391,5,0,0:0:0:0:
364,39,78571,1,0,0:0:0:0:
111,108,78751,1,0,0:0:0:0:
211,377,78930,1,0,0:0:0:0:
466,201,79110,6,0,P|300:198|238:122,2,200
279,182,79649,5,0,0:0:0:0:
206,149,79739,1,0,0:0:0:0:
127,163,79828,5,0,0:0:0:0:
223,247,80008,1,0,0:0:0:0:
343,122,80188,1,0,0:0:0:0:
461,266,80367,1,0,0:0:0:0:
216,20,80547,5,0,0:0:0:0:
381,328,80727,1,0,0:0:0:0:
85,56,80906,1,0,0:0:0:0:
250,351,81086,1,0,0:0:0:0:
425,18,81266,5,0,0:0:0:0:
256,192,81445,12,0,81984,0:0:0:0:
134,263,82164,5,0,0:0:0:0:
209,288,82254,1,0,0:0:0:0:
282,258,82343,5,0,0:0:0:0:
464,33,82523,1,0,0:0:0:0:
50,349,82703,5,0,0:0:0:0:
464,350,83062,5,0,0:0:0:0:
54,36,83421,5,0,0:0:0:0:
464,33,83601,5,0,0:0:0:0:
54,124,83781,1,0,0:0:0:0:
464,123,83960,5,0,0:0:0:0:
54,214,84140,5,0,0:0:0:0:
451,282,84319,1,0,0:0:0:0:
255,48,84499,1,0,0:0:0:0:
451,282,84679,5,0,0:0:0:0:
54,350,84858,1,0,0:0:0:0:
250,116,85038,1,0,0:0:0:0:
206,302,85218,5,0,0:0:0:0:
31,253,85397,1,0,0:0:0:0:
74,79,85577,5,0,0:0:0:0:
157,164,85667,1,0,0:0:0:0:
125,103,85757,1,0,0:0:0:0:
438,79,85846,5,0,0:0:0:0:
355,164,85936,1,0,0:0:0:0:
387,103,86026,1,0,0:0:0:0:
254,38,86116,5,0,0:0:0:0:
296,104,86206,1,0,0:0:0:0:
207,106,86295,5,0,0:0:0:0:
277,186,86385,1,0,0:0:0:0:
177,207,86475,5,0,0:0:0:0:
238,287,86565,1,0,0:0:0:0:
381,169,86655,5,0,0:0:0:0:
351,263,86745,1,0,0:0:0:0:
211,94,86834,5,0,0:0:0:0:
309,80,86924,1,0,0:0:0:0:
281,180,87014,5,0,0:0:0:0:
