osu file format v14

[General]
AudioFilename: audio.mp3
AudioLeadIn: 0
PreviewTime: 16268
Countdown: 0
SampleSet: Soft
StackLeniency: 0.7
Mode: 0
LetterboxInBreaks: 0
WidescreenStoryboard: 0

[Editor]
DistanceSpacing: 2.2
BeatDivisor: 4
GridSize: 32
TimelineZoom: 1.7

[Metadata]
Title:resonance (TV Size)
TitleUnicode:resonance (TV Size)
Artist:T.M.Revolution
ArtistUnicode:T.M.Revolution
Creator:Kudosu
Version:Shinigami
Source:ソウルイーター
Tags:soul eater opening op 1 takanori nishikawa japanese pop j-pop anime ren derandom otaku derandom_otaku schoolboy komore fuju soop so0p
BeatmapID:2489268
BeatmapSetID:1194877

[Difficulty]
HPDrainRate:6
CircleSize:4.1
OverallDifficulty:8.5
ApproachRate:9.1
SliderMultiplier:1.65
SliderTickRate:1

[Events]
//Background and Video events
0,0,"bts and facebook.jpg",0,0
Video,-4970,"video.avi"
//Break Periods
//Storyboard Layer 0 (Background)
//Storyboard Layer 1 (Fail)
//Storyboard Layer 2 (Pass)
//Storyboard Layer 3 (Foreground)
//Storyboard Layer 4 (Overlay)
//Storyboard Sound Samples

[TimingPoints]
450,363.636363636364,4,2,1,65,1,0
1722,-100,4,2,1,60,0,0
2692,-366.300366300366,4,2,1,65,0,0
3359,-100,4,2,1,60,0,0
4813,-133.333333333333,4,2,1,60,0,0
10631,-117.647058823529,4,2,1,60,0,0
14995,-60.2409638554217,4,2,1,60,0,0
16086,-60.2409638554217,4,2,1,70,0,0
16359,-60.2409638554217,4,2,1,5,0,0
16450,-100,4,2,1,70,0,1
16631,-100,4,2,1,70,0,0
19631,-100,4,2,1,5,0,0
19722,-100,4,2,1,70,0,0
23268,-100,4,2,1,5,0,0
23359,-100,4,2,1,70,0,0
39631,-100,4,2,1,5,0,0
39722,-105.263157894737,4,2,1,65,0,0
43995,-105.263157894737,4,2,1,5,0,0
44086,-105.263157894737,4,2,1,65,0,0
51359,-117.647058823529,4,2,1,60,0,0
51540,-117.647058823529,4,2,1,5,0,0
51631,-117.647058823529,4,2,1,60,0,0
52995,-117.647058823529,4,2,1,5,0,0
53086,-117.647058823529,4,2,1,60,0,0
57359,-117.647058823529,4,2,1,5,0,0
57450,-117.647058823529,4,2,1,60,0,0
58813,-117.647058823529,4,2,1,5,0,0
58904,-117.647058823529,4,2,1,60,0,0
60086,-100,4,2,1,60,0,0
62268,-100,4,2,1,65,0,0
62631,-100,4,2,1,70,0,0
62995,-95.2380952380952,4,2,1,75,0,1
66177,-95.2380952380952,4,2,1,5,0,1
66268,-95.2380952380952,4,2,1,75,0,1
77813,-95.2380952380952,4,2,1,5,0,1
77904,-95.2380952380952,4,2,1,75,0,1
86268,-95.2380952380952,4,2,1,75,0,0
87722,-95.2380952380952,4,2,1,68,0,0
87904,-95.2380952380952,4,2,1,61,0,0
88086,-95.2380952380952,4,2,1,54,0,0
88268,-95.2380952380952,4,2,1,47,0,0
88449,-95.2380952380952,4,2,1,30,0,0
88631,-95.2380952380952,4,2,1,23,0,0
88813,-95.2380952380952,4,2,1,16,0,0
88995,-95.2380952380952,4,2,1,9,0,0
89177,-95.2380952380952,4,2,1,5,0,0

[Colours]
Combo1 : 255,170,160
Combo2 : 210,220,97
Combo3 : 141,222,194

[HitObjects]
81,241,450,5,10,2:2:0:0:
288,160,631,2,0,P|331:167|382:175,1,82.5,10|0,2:2|2:0,2:0:0:0:
115,22,995,5,10,2:2:0:0:
212,270,1177,2,0,P|205:313|197:364,1,82.5,10|0,2:2|2:0,2:0:0:0:
339,98,1540,5,10,2:2:0:0:
137,300,1722,1,14,2:2:0:0:
339,98,2692,6,0,P|332:57|325:16,1,82.5,2|4,1:2|2:2,2:0:0:0:
432,291,4813,6,0,L|370:300,1,61.875002360344,2|0,0:0|0:0,0:0:0:0:
277,236,5177,1,2,0:0:0:0:
277,236,5359,2,0,P|254:175|290:108,1,123.750004720688,2|2,0:0|0:0,0:0:0:0:
165,256,5904,1,2,0:0:0:0:
165,256,6086,2,0,P|175:312|184:378,1,123.750004720688,2|2,0:0|0:0,0:0:0:0:
53,276,6631,6,0,L|63:212,1,61.875002360344,2|0,0:0|0:0,0:0:0:0:
149,141,6995,2,0,L|138:77,1,61.875002360344,2|0,0:0|0:0,0:0:0:0:
238,23,7359,2,0,L|228:84,1,61.875002360344,2|0,0:0|0:0,0:0:0:0:
315,157,7722,6,0,P|363:164|395:154,1,61.875002360344,2|0,0:0|0:0,0:0:0:0:
491,114,8086,1,2,0:0:0:0:
491,114,8268,2,0,P|481:170|471:236,1,123.750004720688,2|2,0:0|0:0,0:0:0:0:
355,283,8813,1,2,0:0:0:0:
355,283,8995,2,0,P|299:301|236:271,1,123.750004720688,2|2,0:0|0:0,0:0:0:0:
164,176,9540,6,0,L|174:112,1,61.875002360344,2|0,0:0|0:0,0:0:0:0:
40,185,9904,2,0,L|89:225,1,61.875002360344,2|0,0:0|0:0,0:0:0:0:
94,73,10268,2,0,L|34:95,1,61.875002360344,2|0,0:0|0:0,0:0:0:0:
252,155,10631,6,0,P|286:161|320:153,1,70.1250013375282,6|0,0:0|0:0,0:0:0:0:
471,61,10995,1,2,0:0:0:0:
381,18,11177,2,0,P|392:87|406:176,1,140.250002675056,2|2,0:0|0:0,0:0:0:0:
379,332,11722,1,2,0:0:0:0:
379,332,11904,2,0,P|439:299|505:324,1,140.250002675056,2|2,0:0|0:0,0:0:0:0:
289,289,12449,6,0,L|219:299,1,70.1250013375282,2|0,0:0|0:0,0:0:0:0:
129,256,12813,2,0,P|123:203|144:175,1,70.1250013375282,2|0,0:0|0:0,0:0:0:0:
72,339,13177,1,2,0:0:0:0:
199,224,13359,1,0,0:0:0:0:
84,97,13540,6,0,L|73:27,1,70.1250013375282,2|0,0:0|0:0,0:0:0:0:
199,224,13904,1,2,0:0:0:0:
268,164,14086,2,0,P|208:131|142:156,1,140.250002675056,2|2,0:0|0:0,0:0:0:0:
285,253,14631,2,0,L|354:242,1,70.1250013375282,2|2,0:0|0:0,0:0:0:0:
212,326,14995,5,0,1:0:0:0:
306,167,15177,1,8,0:0:0:0:
396,327,15359,1,0,1:0:0:0:
394,336,15449,1,0,1:0:0:0:
392,346,15540,1,0,1:0:0:0:
306,167,15722,1,0,1:0:0:0:
308,157,15813,1,0,1:0:0:0:
310,148,15903,1,0,1:0:0:0:
194,319,16086,6,0,B|132:253|48:296|48:296|71:297|100:333,1,205.42500297781,14|0,0:2|0:0,0:0:0:0:
142,182,16450,6,0,P|154:125|123:81,1,82.5,6|0,1:2|0:0,0:0:0:0:
281,256,16813,1,10,0:0:0:0:
74,140,16995,1,0,0:0:0:0:
298,264,17177,2,0,L|379:251,1,82.5,2|0,1:2|0:0,0:0:0:0:
277,18,17540,2,0,L|358:30,1,82.5,10|0,2:2|0:0,0:0:0:0:
431,94,17813,1,2,0:0:0:0:
444,104,17904,6,0,P|458:142|446:180,1,82.5,2|2,1:2|0:0,0:0:0:0:
494,19,18268,1,10,0:0:0:0:
348,137,18449,1,0,0:0:0:0:
486,260,18631,1,2,1:2:0:0:
331,140,18813,2,0,L|249:152,1,82.5,2|8,0:2|0:0,0:0:0:0:
125,55,19177,1,2,2:2:0:0:
302,228,19359,6,0,P|327:292|280:362,1,123.75,2|0,1:2|0:0,0:0:0:0:
297,350,19722,1,10,0:0:0:0:
156,198,19904,2,0,L|168:116,1,82.5,2|0,0:0|1:0,0:0:0:0:
241,169,20268,1,2,0:0:0:0:
88,250,20449,2,0,P|50:237|6:246,1,82.5,10|0,0:0|2:0,0:0:0:0:
241,169,20813,6,0,B|291:123|287:71|287:71|253:43|258:9,2,165,0|8|0,1:2|2:0|1:0,0:0:0:0:
241,169,21722,1,2,0:0:0:0:
340,3,21904,1,8,0:0:0:0:
153,133,22086,1,2,0:0:0:0:
361,231,22268,6,0,P|402:222|442:218,1,82.5,2|0,1:2|0:0,0:0:0:0:
284,72,22631,1,10,0:0:0:0:
453,218,22813,1,2,0:0:0:0:
248,295,22995,2,0,P|210:268|127:287,1,123.75,2|0,1:2|0:0,0:0:0:0:
56,332,23359,2,0,L|44:251,1,82.5,10|0,0:0|0:0,0:0:0:0:
113,183,23631,1,2,0:0:0:0:
123,170,23722,6,0,P|131:129|120:90,1,82.5,2|2,1:2|0:0,0:0:0:0:
248,295,24086,1,8,0:0:0:0:
347,148,24268,1,2,0:0:0:0:
147,270,24449,1,2,1:2:0:0:
322,367,24631,2,0,P|367:360|404:355,1,82.5,2|8,0:0|0:0,0:0:0:0:
478,223,24995,1,2,0:0:0:0:
281,104,25177,6,0,P|268:165|287:200,1,82.5,2|0,1:2|0:0,0:0:0:0:
478,73,25540,1,10,0:0:0:0:
361,0,25722,2,0,L|376:82,1,82.5,2|0,0:0|1:0,0:0:0:0:
282,194,26086,1,2,0:0:0:0:
184,80,26268,2,0,L|199:-1,1,82.5,10|0,0:0|2:0,0:0:0:0:
70,178,26631,6,0,L|92:288,1,82.5,2|0,1:2|2:0,0:0:0:0:
195,327,26995,2,0,L|252:317,3,41.25,10|2|2|2,0:0|0:0|0:0|0:0,0:0:0:0:
354,274,27359,1,2,1:2:0:0:
363,271,27449,1,2,2:0:0:0:
372,265,27541,2,0,L|412:272,1,41.25,2|2,0:0|0:0,0:0:0:0:
192,218,27722,2,0,L|249:208,1,41.25,10|2,0:0|0:0,0:0:0:0:
370,160,27904,2,0,L|410:167,1,41.25,2|2,0:0|0:0,0:0:0:0:
257,65,28086,6,0,P|245:2|263:-19,1,82.5,6|0,1:2|0:0,0:0:0:0:
370,160,28449,1,8,0:0:0:0:
164,35,28631,1,2,0:2:0:0:
277,229,28813,2,0,L|289:147,1,82.5,0|0,1:2|0:0,0:0:0:0:
121,277,29177,2,0,L|108:195,1,82.5,8|0,2:2|0:0,0:0:0:0:
231,353,29540,6,0,P|289:337|334:355,1,82.5,2|0,1:2|0:0,0:0:0:0:
432,240,29904,1,8,0:0:0:0:
309,341,30086,1,2,0:0:0:0:
284,184,30268,2,0,L|296:102,1,82.5,0|0,1:2|0:0,0:0:0:0:
161,285,30631,2,0,P|104:269|75:286,1,82.5,8|0,0:0|0:0,0:0:0:0:
284,262,30995,6,0,P|321:268|394:279,1,82.5,2|0,1:2|0:0,0:0:0:0:
486,183,31359,1,8,0:0:0:0:
365,274,31540,1,2,0:0:0:0:
346,123,31722,2,0,P|352:82|359:41,1,82.5,0|0,1:2|0:0,0:0:0:0:
244,161,32086,1,10,2:2:0:0:
427,95,32268,1,0,0:0:0:0:
251,13,32449,6,0,B|139:-19|139:-19|75:13,2,165,2|8|0,1:2|0:0|1:0,0:0:0:0:
251,13,33359,1,0,0:0:0:0:
155,121,33540,2,0,P|149:187|167:223,1,82.5,8|0,0:0|0:0,0:0:0:0:
380,93,33904,6,0,L|364:-1,1,82.5,2|0,1:2|0:0,0:0:0:0:
275,156,34268,1,8,0:0:0:0:
449,39,34449,1,2,0:0:0:0:
463,248,34631,2,0,L|450:329,1,82.5,0|0,1:2|0:0,0:0:0:0:
274,155,34995,2,0,L|287:237,1,82.5,8|0,2:2|0:0,0:0:0:0:
177,324,35359,6,0,P|120:336|84:322,1,82.5,2|0,1:2|0:0,0:0:0:0:
286,236,35722,1,8,0:0:0:0:
308,375,35904,1,2,0:0:0:0:
155,185,36086,2,0,P|164:139|170:90,1,82.5,0|0,1:0|0:0,0:0:0:0:
89,22,36449,2,0,P|40:31|-4:14,1,82.5,8|0,0:0|0:0,0:0:0:0:
279,80,36813,6,0,P|328:71|372:88,1,82.5,2|0,1:2|0:0,0:0:0:0:
200,2,37177,1,8,0:0:0:0:
320,156,37359,1,2,0:0:0:0:
126,182,37540,2,0,L|44:169,1,82.5,0|0,1:0|0:0,0:0:0:0:
215,113,37904,1,10,0:0:0:0:
71,265,38086,1,0,0:0:0:0:
275,314,38268,6,0,B|375:281|375:281|412:301|406:342,2,165,2|8|0,1:2|0:2|1:0,0:0:0:0:
275,314,39177,1,0,0:0:0:0:
88,178,39359,2,0,P|126:151|209:170,1,123.75,10|0,2:2|0:0,0:0:0:0:
280,215,39723,6,0,L|292:134,1,78.3749979071618,6|0,1:2|0:0,0:0:0:0:
204,33,40086,1,10,0:0:0:0:
370,171,40268,2,0,P|407:181|456:171,1,78.3749979071618,2|0,0:0|1:0,0:0:0:0:
360,86,40631,1,2,0:0:0:0:
420,266,40813,1,8,0:0:0:0:
476,149,40995,1,2,0:0:0:0:
314,288,41177,6,0,P|278:271|240:276,1,78.3749979071618,2|0,1:2|0:0,0:0:0:0:
62,165,41540,1,10,0:0:0:0:
170,103,41722,2,0,L|144:261,1,156.749995814324,0|2,0:0|0:0,0:0:0:0:
81,72,42268,1,10,0:0:0:0:
144,257,42449,1,2,0:0:0:0:
273,110,42631,6,0,L|350:97,1,78.3749979071618,2|2,1:2|0:0,0:0:0:0:
230,30,42995,1,10,0:0:0:0:
333,189,43177,2,0,P|339:257|323:282,1,78.3749979071618,2|0,0:0|1:0,0:0:0:0:
436,86,43540,1,2,0:0:0:0:
251,228,43722,2,0,P|193:217|135:208,1,117.562496860743,10|0,0:0|0:0,0:0:0:0:
54,169,44086,6,0,B|41:206|41:206|52:243,1,78.3749979071618,2|0,1:2|0:0,0:0:0:0:
209,117,44449,1,10,0:0:0:0:
99,352,44631,2,0,B|132:321|184:318|184:318|210:348|251:345,1,156.749995814324,2|0,2:2|0:0,0:0:0:0:
332,181,45177,2,0,L|338:219,1,39.1874989535809,8|8,0:0|2:0,0:0:0:0:
317,188,45359,2,0,L|323:226,1,39.1874989535809,8|8,0:0|0:0,0:0:0:0:
399,133,45540,5,2,1:2:0:0:
225,197,45722,1,2,0:0:0:0:
368,316,45904,1,8,2:2:0:0:
280,65,46086,2,0,P|267:16|278:-17,1,78.3749979071618,2|0,0:0|1:0,0:0:0:0:
143,92,46449,1,2,0:0:0:0:
344,23,46631,1,10,0:0:0:0:
152,90,46813,1,2,0:0:0:0:
310,231,46995,5,2,1:2:0:0:
288,140,47177,1,0,0:0:0:0:
174,281,47359,1,8,0:0:0:0:
377,166,47540,2,0,L|471:181,1,78.3749979071618,2|0,2:0|1:0,0:0:0:0:
266,49,47904,1,2,0:0:0:0:
403,248,48086,1,10,0:0:0:0:
492,105,48268,1,2,0:0:0:0:
311,231,48449,6,0,P|261:239|219:223,1,78.3749979071618,2|2,1:2|2:0,0:0:0:0:
438,327,48813,1,10,0:0:0:0:
275,154,48995,2,0,L|287:76,1,78.3749979071618,2|0,0:0|1:0,0:0:0:0:
174,284,49359,1,2,0:0:0:0:
359,161,49540,2,0,P|408:150|451:169,1,78.3749979071618,8|0,2:2|2:0,0:0:0:0:
213,37,49904,6,0,P|164:80|77:53,2,156.749995814324,2|8|0,1:2|0:0|1:0,0:0:0:0:
213,37,50813,1,0,0:0:0:0:
103,189,50995,2,0,L|65:195,1,39.1874989535809,8|8,0:0|2:0,0:0:0:0:
96,174,51177,2,0,L|58:180,1,39.1874989535809,8|8,0:0|0:0,0:0:0:0:
243,223,51359,6,0,L|318:210,1,70.1250013375282,6|2,1:2|0:0,0:0:0:0:
378,276,51631,2,0,L|367:336,1,35.0625006687641,2|10,2:2|0:0,0:0:0:0:
444,210,51904,1,0,0:0:0:0:
263,335,52086,2,0,P|204:300|140:324,1,140.250002675056,2|8,0:0|0:0,0:0:0:0:
127,123,52813,6,0,L|140:198,1,70.1250013375282,6|2,1:2|0:0,0:0:0:0:
74,258,53086,2,0,L|19:248,1,35.0625006687641,2|10,2:2|0:0,0:0:0:0:
140,324,53358,1,0,0:0:0:0:
6,151,53540,2,0,P|-12:65|25:23,1,140.250002675056,2|8,0:0|0:0,0:0:0:0:
231,215,54268,6,0,B|282:206|282:206|328:214|328:214|391:204,1,140.250002675056,2|8,1:2|0:0,0:0:0:0:
239,123,54813,2,0,P|217:85|267:-10,1,140.250002675056,2|0,0:0|1:0,0:0:0:0:
312,64,55359,2,0,L|381:53,1,70.1250013375282,8|0,0:0|0:0,0:0:0:0:
207,119,55722,6,0,L|48:93,1,140.250002675056,2|8,1:2|0:0,0:0:0:0:
256,250,56449,2,0,L|240:344,1,70.1250013375282,2|0,0:0|1:0,0:0:0:0:
346,151,56813,1,10,0:0:0:0:
117,218,57177,6,0,L|129:296,1,70.1250013375282,2|0,1:2|0:0,0:0:0:0:
57,350,57450,2,0,L|-6:339,1,35.0625006687641,2|8,0:0|0:0,0:0:0:0:
232,276,57722,1,2,0:0:0:0:
232,276,57904,2,0,P|315:244|362:273,1,140.250002675056,2|8,0:0|0:0,0:0:0:0:
500,95,58631,6,0,L|408:109,1,70.1250013375282,2|0,1:2|0:0,0:0:0:0:
340,65,58904,2,0,L|350:1,1,35.0625006687641,2|8,0:0|0:0,0:0:0:0:
442,209,59176,1,2,0:0:0:0:
442,209,59358,2,0,P|474:292|445:339,1,140.250002675056,2|8,0:0|0:0,0:0:0:0:
257,42,60086,5,10,2:2:0:0:
365,274,60268,2,0,L|349:368,1,82.5,10|0,2:2|0:0,0:0:0:0:
388,20,60631,5,10,2:2:0:0:
234,296,60813,2,0,L|139:280,1,82.5,10|0,2:2|2:2,2:2:0:0:
496,252,61177,5,10,2:2:0:0:
257,42,61359,1,10,2:2:0:0:
365,274,61540,1,0,1:0:0:0:
512,67,61722,2,0,L|501:3,1,41.25,8|2,0:0|0:0,0:0:0:0:
239,207,61904,5,2,1:2:0:0:
225,209,61994,1,2,1:2:0:0:
211,211,62085,1,2,1:2:0:0:
198,213,62177,1,2,0:0:0:0:
176,196,62267,5,2,1:2:0:0:
168,170,62358,1,2,0:0:0:0:
176,144,62449,1,2,1:2:0:0:
193,115,62539,1,2,0:0:0:0:
189,81,62630,5,14,0:0:0:0:
166,57,62721,1,2,0:0:0:0:
133,50,62812,1,2,0:0:0:0:
102,64,62903,1,2,0:0:0:0:
89,96,62994,5,6,1:2:0:0:
260,22,63177,1,0,0:0:0:0:
91,195,63359,2,0,L|-3:179,1,86.6249973564149,10|0,2:2|2:2,2:2:0:0:
171,297,63722,1,2,1:2:0:0:
102,64,63904,1,0,0:0:0:0:
3,290,64086,2,0,P|12:343|18:384,1,86.6249973564149,10|0,2:2|2:2,2:2:0:0:
106,378,64359,1,2,0:0:0:0:
117,369,64449,6,0,L|211:384,1,86.6249973564149,2|0,1:2|0:0,0:0:0:0:
267,200,64813,1,10,0:0:0:0:
171,297,64995,1,0,0:0:0:0:
400,235,65177,1,2,1:2:0:0:
232,68,65359,2,0,P|221:0|241:-27,1,86.6249973564149,2|8,0:0|0:0,0:0:0:0:
324,23,65722,1,2,0:0:0:0:
141,118,65904,6,0,L|-17:92,1,129.937496034622,2|0,1:2|0:0,0:0:0:0:
0,83,66268,1,10,0:0:0:0:
191,209,66449,2,0,P|204:285|186:315,1,86.6249973564149,2|0,0:0|1:0,0:0:0:0:
279,158,66813,1,0,0:0:0:0:
103,260,66995,2,0,P|53:252|8:244,1,86.6249973564149,10|0,0:0|0:0,0:0:0:0:
280,362,67359,6,0,B|313:334|352:338|352:338|387:385|460:365,2,173.24999471283,2|10|0,1:2|0:2|1:0,0:0:0:0:
280,362,68268,1,2,0:0:0:0:
379,160,68449,1,10,0:0:0:0:
418,285,68631,1,2,0:0:0:0:
252,132,68813,6,0,P|260:88|267:37,1,86.6249973564149,2|0,1:2|0:0,0:0:0:0:
291,255,69177,1,10,0:0:0:0:
126,105,69359,1,0,0:0:0:0:
339,36,69540,2,0,P|383:44|433:51,1,86.6249973564149,2|0,1:2|0:0,0:0:0:0:
205,268,69904,2,0,P|247:261|290:254,1,86.6249973564149,10|0,2:2|0:0,0:0:0:0:
398,283,70177,1,2,0:0:0:0:
411,293,70268,6,0,P|425:331|415:381,1,86.6249973564149,2|2,1:2|0:0,0:0:0:0:
504,207,70631,1,10,0:0:0:0:
335,333,70813,1,2,0:0:0:0:
512,203,70995,1,2,1:2:0:0:
310,123,71177,2,0,P|272:129|224:136,1,86.6249973564149,2|8,0:0|0:0,0:0:0:0:
72,75,71540,1,2,0:0:0:0:
274,202,71722,6,0,P|286:258|273:289,1,86.6249973564149,2|0,1:2|0:0,0:0:0:0:
173,42,72086,1,8,0:0:0:0:
398,115,72268,2,0,L|483:101,1,86.6249973564149,2|0,0:0|1:0,0:0:0:0:
411,265,72631,1,2,0:0:0:0:
282,82,72813,2,0,P|271:40|284:0,1,86.6249973564149,10|0,2:2|0:0,0:0:0:0:
94,147,73177,6,0,P|133:129|175:136,1,86.6249973564149,2|0,1:2|0:0,0:0:0:0:
265,295,73540,2,0,L|254:358,3,43.3124986782074,10|2|2|2,0:0|0:0|0:0|0:0,0:0:0:0:
395,225,73904,1,2,1:2:0:0:
398,216,73994,1,2,2:0:0:0:
404,207,74086,2,0,L|394:154,1,43.3124986782074,2|2,0:0|0:0,0:0:0:0:
189,292,74268,2,0,L|178:355,1,43.3124986782074,10|2,0:0|0:0,0:0:0:0:
328,204,74449,2,0,L|318:151,1,43.3124986782074,2|2,0:0|0:0,0:0:0:0:
101,127,74631,5,6,1:2:0:0:
263,255,74813,1,2,0:0:0:0:
293,51,74995,1,10,2:2:0:0:
218,144,75177,1,2,2:2:0:0:
404,234,75359,2,0,L|498:218,1,86.6249973564149,2|0,1:2|0:2,0:2:0:0:
303,342,75722,2,0,P|252:332|220:343,1,86.6249973564149,10|0,2:2|0:2,0:2:0:0:
125,381,75996,1,2,0:0:0:0:
116,370,76086,6,0,L|131:276,1,86.6249973564149,2|0,1:2|0:0,0:0:0:0:
53,110,76449,1,10,0:0:0:0:
127,275,76631,1,0,0:0:0:0:
229,129,76813,1,2,1:2:0:0:
20,234,76995,2,0,L|35:328,1,86.6249973564149,2|8,0:0|0:0,0:0:0:0:
144,84,77359,1,2,0:0:0:0:
314,174,77540,6,0,L|472:148,1,129.937496034622,2|0,1:2|0:0,0:0:0:0:
463,128,77904,1,10,0:0:0:0:
273,266,78086,2,0,P|263:307|273:349,1,86.6249973564149,2|0,0:0|1:0,0:0:0:0:
365,307,78449,1,0,0:0:0:0:
181,225,78631,2,0,L|95:238,1,86.6249973564149,10|0,0:0|0:0,0:0:0:0:
344,106,78995,6,0,B|392:105|419:147|419:147|459:116|505:132,2,173.24999471283,2|10|0,1:2|0:2|1:0,0:0:0:0:
344,106,79904,1,2,0:0:0:0:
279,320,80086,1,10,0:0:0:0:
477,205,80268,1,2,0:0:0:0:
190,129,80449,6,0,P|145:143|102:134,1,86.6249973564149,2|0,1:2|0:0,0:0:0:0:
309,218,80813,1,10,0:0:0:0:
142,59,80995,1,0,0:0:0:0:
88,284,81177,2,0,P|97:332|103:378,1,86.6249973564149,2|0,1:2|0:0,0:0:0:0:
309,218,81540,2,0,P|300:266|293:312,1,86.6249973564149,10|0,0:0|0:0,0:0:0:0:
372,363,81813,1,2,0:0:0:0:
382,373,81904,6,0,P|421:387|487:367,1,86.6249973564149,2|2,1:2|0:0,0:0:0:0:
230,211,82268,2,0,P|184:220|144:225,1,86.6249973564149,10|0,0:0|0:0,0:0:0:0:
433,165,82631,1,2,1:2:0:0:
345,244,82813,1,2,2:2:0:0:
303,60,82995,1,8,2:2:0:0:
459,280,83177,1,2,2:2:0:0:
230,100,83359,6,0,P|218:53|235:13,1,86.6249973564149,2|0,1:2|0:0,0:0:0:0:
345,244,83722,1,8,2:2:0:0:
157,140,83904,2,0,L|71:153,1,86.6249973564149,2|0,0:0|1:0,0:0:0:0:
303,60,84268,1,0,0:0:0:0:
123,227,84449,2,0,P|109:267|122:308,1,86.6249973564149,10|0,2:2|0:0,0:0:0:0:
396,175,84813,6,0,L|380:80,1,86.6249973564149,2|0,1:2|0:0,0:0:0:0:
205,283,85177,2,0,L|262:273,3,43.3124986782074,10|2|2|2,0:0|0:0|0:0|0:0,0:0:0:0:
386,251,85540,1,2,1:2:0:0:
395,248,85630,1,2,2:0:0:0:
404,242,85722,2,0,L|454:251,1,43.3124986782074,2|2,0:0|0:0,0:0:0:0:
199,361,85904,2,0,L|256:351,1,43.3124986782074,10|2,0:0|0:0,0:0:0:0:
398,320,86086,2,0,L|450:329,1,43.3124986782074,2|2,0:0|0:0,0:0:0:0:
290,135,86268,5,6,1:2:0:0:
199,361,86449,1,2,0:0:0:0:
167,73,86631,1,6,0:0:0:0:
323,298,86813,2,0,L|307:392,1,86.6249973564149,10|0,0:0|0:0,0:0:0:0:
407,59,87177,5,2,1:2:0:0:
207,223,87359,1,10,0:0:0:0:
450,315,87540,1,14,0:0:0:0:
256,192,87631,12,0,89177,0:0:0:0:
