osu file format v14

[General]
AudioFilename: audio.mp3
AudioLeadIn: 0
PreviewTime: 16455
Countdown: 0
SampleSet: Soft
StackLeniency: 0.7
Mode: 2
LetterboxInBreaks: 0
WidescreenStoryboard: 1

[Editor]
Bookmarks: 16455,28091,39727,51364,63000,74636,86273
DistanceSpacing: 2.2
BeatDivisor: 4
GridSize: 16
TimelineZoom: 1

[Metadata]
Title:resonance (TV Size)
TitleUnicode:resonance (TV Size)
Artist:T.M.Revolution
ArtistUnicode:T.M.Revolution
Creator:Mniam
Version:Salad
Source:ソウルイーター
Tags:soul eater opening op 1 貴教が革命を起こす takanori makes nishikawa 西川貴教 japanese pop j-pop anime animestyle
BeatmapID:4540619
BeatmapSetID:2154456

[Difficulty]
HPDrainRate:3
CircleSize:3
OverallDifficulty:6
ApproachRate:6
SliderMultiplier:1.65
SliderTickRate:1

[Events]
//Background and Video events
0,0,"a2.jpg",0,0
Video,-100,"video.mp4"
//Break Periods
//Storyboard Layer 0 (Background)
//Storyboard Layer 1 (Fail)
//Storyboard Layer 2 (Pass)
//Storyboard Layer 3 (Foreground)
//Storyboard Layer 4 (Overlay)
//Storyboard Sound Samples

[TimingPoints]
455,363.636363636364,4,2,3,70,1,0
2636,-100,4,2,3,50,0,0
3364,-100,4,2,3,60,0,0
3545,-100,4,2,2,45,0,0
4818,-100,4,2,2,70,0,0
10636,-100,4,2,2,75,0,0
15000,-100,4,2,1,75,0,0
16455,-100,4,2,1,80,0,1
27364,-100,4,2,1,70,0,1
27727,-100,4,2,1,75,0,1
28091,-100,4,2,12,75,0,0
28182,-100,4,2,6,75,0,0
29545,-100,4,2,14,75,0,0
29636,-100,4,2,6,75,0,0
31000,-100,4,2,13,75,0,0
31091,-100,4,2,6,75,0,0
32091,-100,4,2,11,75,0,0
32182,-100,4,2,6,75,0,0
32455,-100,4,2,12,75,0,0
32545,-100,4,2,6,75,0,0
33909,-100,4,2,12,75,0,0
34000,-100,4,2,6,75,0,0
35363,-100,4,2,14,75,0,0
35454,-100,4,2,6,75,0,0
36818,-100,4,2,13,75,0,0
36909,-100,4,2,6,75,0,0
37909,-100,4,2,15,75,0,0
38000,-100,4,2,6,75,0,0
38273,-100,4,2,12,75,0,0
38363,-100,4,2,6,75,0,0
39727,-100,4,2,3,70,0,0
49909,-100,4,2,3,75,0,0
51364,-100,4,2,4,70,0,0
52818,-100,4,2,24,70,0,0
52909,-100,4,2,4,70,0,0
53909,-100,4,2,5,70,0,0
54000,-100,4,2,4,70,0,0
54273,-100,4,2,26,70,0,0
54364,-100,4,2,4,70,0,0
55364,-100,4,2,5,70,0,0
55455,-100,4,2,25,70,0,0
56545,-100,4,2,4,70,0,0
56818,-100,4,2,5,70,0,0
56909,-100,4,2,4,70,0,0
58636,-100,4,2,24,70,0,0
58727,-100,4,2,4,70,0,0
59727,-100,4,2,5,70,0,0
59818,-100,4,2,4,70,0,0
60091,-100,4,2,1,70,0,0
61545,-100,4,2,1,60,0,0
61909,-100,4,2,1,65,0,0
62273,-100,4,2,1,70,0,0
62636,-100,4,2,1,75,0,0
63000,-100,4,2,1,80,0,1
74636,-100,4,2,1,65,0,1
74818,-100,4,2,10,65,0,1
75000,-100,4,2,1,65,0,1
75182,-100,4,2,1,80,0,1
86273,-100,4,2,3,70,0,0

[Colours]
Combo1 : 155,155,0
Combo2 : 128,128,128
Combo3 : 234,160,142
Combo4 : 192,192,192

[HitObjects]
173,193,455,6,0,L|173:105,1,82.5,4|4,1:2|1:2,0:0:0:0:
338,193,1000,2,0,L|338:105,1,82.5,4|4,1:2|1:2,0:0:0:0:
173,193,1545,1,4,1:2:0:0:
338,193,1727,1,4,1:2:0:0:
256,192,2636,12,6,3364,0:0:0:0:
256,192,4818,5,2,3:3:0:0:
292,123,5000,1,2,0:3:0:0:
256,192,5182,1,2,0:3:0:0:
174,194,5364,2,0,P|118:162|175:112,1,165,2|2,3:3|0:3,0:0:0:0:
257,111,5909,1,2,0:3:0:0:
339,110,6091,1,2,3:3:0:0:
175,112,6455,5,2,2:3:0:0:
202,177,6636,1,2,2:3:0:0:
257,203,6818,1,2,2:3:0:0:
339,206,7000,1,2,3:3:0:0:
257,203,7182,1,2,2:3:0:0:
339,206,7364,1,2,3:3:0:0:
420,210,7546,1,2,2:3:0:0:
339,206,7727,5,2,3:3:0:0:
303,137,7909,1,2,2:3:0:0:
339,206,8091,1,2,2:3:0:0:
421,208,8273,2,0,P|477:176|420:126,1,165,2|2,3:3|0:3,0:0:0:0:
338,125,8818,1,2,0:3:0:0:
256,124,9000,1,2,3:3:0:0:
419,126,9364,5,2,2:3:0:0:
392,191,9545,1,2,2:3:0:0:
337,217,9727,1,2,2:3:0:0:
255,220,9909,1,2,3:3:0:0:
337,217,10091,1,2,2:3:0:0:
419,214,10273,1,2,3:3:0:0:
337,217,10455,1,2,2:3:0:0:
164,191,10636,5,4,3:1:0:0:
82,196,10818,1,2,2:3:0:0:
164,191,11000,1,2,2:3:0:0:
246,193,11182,2,0,P|302:161|245:111,1,165,2|2,3:3|0:3,0:0:0:0:
163,110,11727,1,2,0:3:0:0:
81,109,11909,1,2,3:3:0:0:
245,96,12273,5,2,2:3:0:0:
327,97,12455,1,2,2:3:0:0:
409,98,12636,1,2,2:3:0:0:
445,160,12818,1,2,3:3:0:0:
409,98,13000,1,2,2:3:0:0:
327,97,13182,1,2,3:3:0:0:
245,96,13364,1,2,2:3:0:0:
327,97,13545,5,2,3:3:0:0:
409,102,13727,1,2,2:3:0:0:
327,97,13909,1,2,2:3:0:0:
245,99,14091,2,0,P|189:67|246:17,1,165,2|2,3:3|0:3,0:0:0:0:
328,16,14636,1,2,0:3:0:0:
410,15,14818,1,2,3:3:0:0:
410,15,15000,5,4,0:3:0:0:
241,51,15182,2,0,L|47:57,2,165,12|4|4,1:1|3:3|0:3,0:0:0:0:
72,102,16091,1,12,1:1:0:0:
72,102,16455,5,4,1:1:0:0:
386,109,16818,1,8,1:1:0:0:
386,109,17182,1,0,1:2:0:0:
72,102,17545,1,8,1:1:0:0:
72,102,17909,5,0,1:2:0:0:
153,102,18090,1,0,3:2:0:0:
72,102,18273,1,8,1:1:0:0:
45,183,18455,1,0,3:2:0:0:
218,185,18636,1,0,1:2:0:0:
299,185,18817,1,0,3:2:0:0:
135,196,19182,1,0,3:1:0:0:
53,194,19364,6,0,P|32:130|144:91,1,165,0|8,1:2|1:1,0:0:0:0:
181,67,19909,2,0,L|16:70,1,165,0|0,3:1|3:1,0:0:0:0:
98,68,20455,1,8,1:1:0:0:
412,68,20818,6,0,P|480:159|328:279,1,330,0|0,1:2|1:2,0:0:0:0:
185,140,21909,1,8,1:1:0:0:
267,133,22091,1,0,3:1:0:0:
349,127,22273,5,4,1:1:0:0:
35,134,22636,1,8,1:1:0:0:
35,134,23000,1,0,1:2:0:0:
349,127,23363,1,8,1:1:0:0:
349,127,23727,5,0,1:2:0:0:
267,129,23909,1,0,3:2:0:0:
349,127,24091,1,8,1:1:0:0:
385,48,24273,1,0,3:2:0:0:
211,42,24455,1,0,1:2:0:0:
130,42,24636,1,0,3:2:0:0:
293,192,25000,1,0,3:1:0:0:
375,190,25182,6,0,P|396:126|284:87,1,165,0|8,1:2|1:1,0:0:0:0:
247,63,25727,2,0,L|412:66,1,165,0|0,3:2|3:2,0:0:0:0:
330,64,26273,1,8,1:1:0:0:
256,192,26636,12,8,27727,1:1:0:0:
256,189,28091,5,6,1:2:0:0:
338,191,28273,5,2,3:2:0:0:
420,189,28455,5,10,1:2:0:0:
257,189,28818,5,2,1:2:0:0:
175,191,29000,5,2,3:2:0:0:
93,189,29182,5,10,1:2:0:0:
408,188,29545,6,0,B|437:127|437:127|333:118,1,165,6|10,1:2|1:2,0:0:0:0:
257,120,30091,6,0,B|228:59|228:59|326:51,1,165,2|2,3:2|3:2,0:0:0:0:
407,51,30636,5,10,1:2:0:0:
92,187,31000,6,0,P|38:136|99:93,1,165,6|10,1:2|1:2,0:0:0:0:
176,92,31545,5,2,3:2:0:0:
258,92,31727,5,0,1:2:0:0:
94,92,32091,5,14,1:2:0:0:
409,188,32454,5,6,1:2:0:0:
379,156,32636,5,2,3:2:0:0:
297,129,32818,5,10,1:2:0:0:
134,124,33182,5,2,1:2:0:0:
52,151,33364,5,2,3:2:0:0:
22,183,33546,5,10,1:2:0:0:
336,82,33909,5,6,1:2:0:0:
254,84,34091,5,2,3:2:0:0:
172,82,34273,5,10,1:2:0:0:
9,82,34636,5,2,1:2:0:0:
91,84,34818,5,2,3:2:0:0:
173,82,35000,5,10,1:2:0:0:
489,191,35364,6,0,P|456:128|343:109,1,165,6|10,1:2|1:2,0:0:0:0:
289,184,35909,6,0,P|329:114|407:94,1,165,2|2,3:2|3:2,0:0:0:0:
489,95,36455,5,10,1:2:0:0:
174,195,36818,6,0,B|-8:194,1,165,6|10,1:2|1:2,0:0:0:0:
91,166,37364,5,2,3:2:0:0:
172,165,37545,5,0,1:2:0:0:
9,194,37909,5,14,1:2:0:0:
325,192,38273,5,6,1:2:0:0:
407,165,38455,5,2,3:2:0:0:
437,133,38637,5,10,1:2:0:0:
274,189,39000,5,2,1:2:0:0:
192,162,39182,5,2,3:2:0:0:
162,130,39364,5,10,1:2:0:0:
476,188,39727,6,0,P|475:124|366:120,1,165,6|10,1:2|1:2,0:0:0:0:
307,137,40273,1,2,3:2:0:0:
470,143,40636,1,2,3:2:0:0:
434,218,40818,1,10,1:2:0:0:
352,244,41000,1,2,3:2:0:0:
178,253,41182,6,0,L|13:253,1,165,2|10,1:2|1:2,0:0:0:0:
95,213,41727,1,2,3:2:0:0:
258,74,42091,1,2,3:2:0:0:
176,81,42273,1,10,1:2:0:0:
140,149,42455,1,2,3:2:0:0:
313,203,42636,6,0,P|370:161|304:131,1,165,2|10,1:2|1:2,0:0:0:0:
228,146,43182,1,2,3:2:0:0:
391,251,43545,1,2,3:2:0:0:
216,235,43727,1,10,1:2:0:0:
133,139,44091,6,0,P|158:209|249:231,1,165,2|10,1:2|1:2,0:0:0:0:
321,217,44636,2,0,L|71:215,1,247.5,2|8,3:2|1:2,0:0:0:0:
389,186,45545,5,6,1:2:0:0:
425,105,45727,1,2,3:2:0:0:
389,186,45909,1,10,1:2:0:0:
307,232,46091,1,2,3:2:0:0:
143,239,46455,1,2,3:2:0:0:
107,158,46636,1,10,1:2:0:0:
143,239,46818,1,2,3:2:0:0:
317,240,47000,5,2,1:2:0:0:
399,237,47182,1,2,3:2:0:0:
317,240,47364,1,10,1:2:0:0:
399,237,47545,1,2,3:2:0:0:
317,115,47909,1,2,3:2:0:0:
235,134,48091,1,10,1:2:0:0:
217,226,48273,1,2,3:2:0:0:
391,275,48455,5,2,1:2:0:0:
472,264,48636,1,2,3:2:0:0:
390,275,48818,1,10,1:2:0:0:
308,291,49000,1,2,3:2:0:0:
471,189,49364,1,2,3:2:0:0:
298,190,49545,1,10,1:2:0:0:
256,192,49909,12,10,51000,1:2:0:0:
256,192,51364,6,0,L|396:189,2,123.75,6|2|2,1:2|0:2|3:2,0:0:0:0:
174,194,52091,1,2,2:2:0:0:
412,180,52818,6,0,L|272:177,2,123.75,6|2|2,1:2|0:2|3:2,0:0:0:0:
494,182,53545,1,2,0:2:0:0:
331,122,53909,1,8,2:1:0:0:
16,128,54273,6,0,L|297:117,2,247.5,6|2|8,1:2|3:2|2:1,0:0:0:0:
179,186,55727,1,6,1:2:0:0:
16,128,56455,2,0,L|188:122,1,165,6|8,0:2|2:1,0:0:0:0:
496,174,57182,6,0,L|356:171,2,123.75,6|2|2,1:2|0:2|3:2,0:0:0:0:
496,174,57909,1,2,0:2:0:0:
272,181,58636,6,0,L|132:178,2,123.75,6|2|2,1:2|0:2|3:2,0:0:0:0:
190,161,59363,1,2,0:2:0:0:
27,150,59727,1,8,2:1:0:0:
343,193,60091,6,0,L|343:100,1,82.5,4|4,1:2|1:2,0:0:0:0:
169,193,60636,2,0,L|169:100,1,82.5,4|4,1:2|1:2,0:0:0:0:
343,193,61181,1,4,1:2:0:0:
169,193,61363,1,4,1:2:0:0:
184,16,61545,5,4,0:3:0:0:
266,50,61727,2,0,L|72:56,2,165,8|10|6,0:1|0:3|0:3,0:0:0:0:
440,102,62636,1,6,0:2:0:0:
440,102,63000,5,4,1:1:0:0:
126,109,63363,1,8,1:1:0:0:
126,109,63727,1,0,1:2:0:0:
440,102,64090,1,8,1:1:0:0:
440,102,64454,5,0,1:2:0:0:
359,102,64635,1,0,3:2:0:0:
440,102,64818,1,8,1:1:0:0:
467,183,65000,1,0,3:2:0:0:
294,185,65181,1,0,1:2:0:0:
212,185,65364,1,0,3:2:0:0:
375,196,65727,1,0,3:1:0:0:
457,194,65909,6,0,P|478:130|366:91,1,165,0|8,1:2|1:1,0:0:0:0:
329,67,66454,2,0,L|494:70,1,165,0|0,3:1|3:1,0:0:0:0:
412,68,67000,1,8,1:1:0:0:
98,68,67363,6,0,P|30:159|182:279,1,330,0|0,1:2|1:2,0:0:0:0:
325,140,68454,1,8,1:1:0:0:
243,133,68636,1,0,3:1:0:0:
161,127,68818,5,4,1:1:0:0:
475,134,69181,1,8,1:1:0:0:
475,134,69545,1,0,1:2:0:0:
161,127,69908,1,8,1:1:0:0:
161,127,70272,5,0,1:2:0:0:
243,129,70454,1,0,3:2:0:0:
161,127,70636,1,8,1:1:0:0:
125,48,70818,1,0,3:2:0:0:
299,42,71000,1,0,1:2:0:0:
380,42,71181,1,0,3:2:0:0:
217,192,71545,1,0,3:1:0:0:
135,190,71727,6,0,P|114:126|226:87,1,165,0|8,1:2|1:1,0:0:0:0:
263,63,72272,2,0,L|98:66,1,165,0|0,3:2|3:2,0:0:0:0:
180,64,72818,1,8,1:1:0:0:
256,192,73181,12,8,74272,1:1:0:0:
256,192,74636,5,6,1:1:0:0:
338,191,74818,1,2,3:1:0:0:
256,192,75000,1,10,1:1:0:0:
338,191,75182,1,0,3:1:0:0:
256,192,75364,2,0,L|86:192,1,165,0|8,1:2|1:1,0:0:0:0:
407,89,76091,6,0,L|237:89,1,165,0|8,1:2|1:1,0:0:0:0:
79,89,76818,1,0,1:2:0:0:
79,89,77000,1,0,3:2:0:0:
242,89,77364,1,0,3:1:0:0:
415,89,77545,6,0,P|464:146|389:202,1,165,0|8,1:2|1:1,0:0:0:0:
332,201,78091,2,0,L|501:208,1,165,0|0,3:1|3:1,0:0:0:0:
415,240,78636,1,8,1:1:0:0:
100,316,79000,6,0,P|153:245|380:180,1,330,0|0,1:2|1:2,0:0:0:0:
213,106,80091,1,8,1:1:0:0:
131,107,80273,1,0,3:1:0:0:
49,106,80455,5,4,1:1:0:0:
363,113,80818,1,8,1:1:0:0:
363,113,81182,1,0,1:2:0:0:
49,106,81545,1,8,1:1:0:0:
49,106,81909,5,0,1:2:0:0:
130,106,82090,1,0,3:2:0:0:
130,106,82273,1,8,1:1:0:0:
48,108,82455,1,0,3:2:0:0:
221,186,82636,1,0,1:2:0:0:
303,185,82818,1,0,3:2:0:0:
139,191,83182,1,0,3:1:0:0:
57,196,83364,6,0,P|8:253|83:309,1,165,0|8,1:2|1:1,0:0:0:0:
140,312,83910,2,0,L|309:305,1,165,0|0,3:2|3:2,0:0:0:0:
223,271,84455,1,8,1:1:0:0:
256,192,84818,12,8,85909,1:1:0:0:
257,190,86273,5,4,1:2:0:0:
175,188,86455,1,4,1:2:0:0:
256,190,86636,1,4,1:2:0:0:
338,192,86818,2,0,P|396:146|337:104,1,165,4|4,1:2|1:2,0:0:0:0:
259,104,87364,1,4,1:2:0:0:
432,111,87545,1,4,1:2:0:0:
