osu file format v14

[General]
AudioFilename: audio.mp3
AudioLeadIn: 0
PreviewTime: 16455
Countdown: 0
SampleSet: Soft
StackLeniency: 0.7
Mode: 2
LetterboxInBreaks: 0
WidescreenStoryboard: 1

[Editor]
Bookmarks: 16455,28091,39727,51364,63000,74636,86273
DistanceSpacing: 2.2
BeatDivisor: 4
GridSize: 16
TimelineZoom: 1.9

[Metadata]
Title:resonance (TV Size)
TitleUnicode:resonance (TV Size)
Artist:T.M.Revolution
ArtistUnicode:T.M.Revolution
Creator:Mniam
Version:Overdose
Source:ソウルイーター
Tags:soul eater opening op 1 貴教が革命を起こす takanori makes nishikawa 西川貴教 japanese pop j-pop anime animestyle
BeatmapID:4540620
BeatmapSetID:2154456

[Difficulty]
HPDrainRate:6
CircleSize:4.2
OverallDifficulty:9
ApproachRate:9
SliderMultiplier:1.81
SliderTickRate:2

[Events]
//Background and Video events
0,0,"a5.jpg",0,0
Video,-100,"video.mp4"
//Break Periods
//Storyboard Layer 0 (Background)
//Storyboard Layer 1 (Fail)
//Storyboard Layer 2 (Pass)
//Storyboard Layer 3 (Foreground)
//Storyboard Layer 4 (Overlay)
//Storyboard Sound Samples

[TimingPoints]
455,363.636363636364,4,2,3,70,1,0
2636,-100,4,2,3,50,0,0
3364,-100,4,2,3,60,0,0
3545,-100,4,2,2,45,0,0
4818,-100,4,2,2,70,0,0
6091,-52.6315789473684,4,2,2,70,0,0
6455,-100,4,2,2,70,0,0
9000,-52.6315789473684,4,2,2,70,0,0
9364,-100,4,2,2,70,0,0
10636,-100,4,2,2,75,0,0
11909,-52.6315789473684,4,2,2,75,0,0
12273,-100,4,2,2,75,0,0
15000,-100,4,2,1,75,0,0
16455,-100,4,2,1,80,0,1
27364,-100,4,2,1,70,0,1
27727,-100,4,2,1,75,0,1
28091,-100,4,2,12,75,0,0
28182,-100,4,2,6,75,0,0
29545,-100,4,2,14,75,0,0
29636,-100,4,2,6,75,0,0
31000,-100,4,2,13,75,0,0
31091,-100,4,2,6,75,0,0
32091,-100,4,2,11,75,0,0
32182,-100,4,2,6,75,0,0
32455,-100,4,2,12,75,0,0
32545,-100,4,2,6,75,0,0
33909,-100,4,2,12,75,0,0
34000,-100,4,2,6,75,0,0
35363,-100,4,2,14,75,0,0
35454,-100,4,2,6,75,0,0
36818,-100,4,2,13,75,0,0
36909,-100,4,2,6,75,0,0
37909,-100,4,2,15,75,0,0
38000,-100,4,2,6,75,0,0
38273,-100,4,2,12,75,0,0
38363,-100,4,2,6,75,0,0
39727,-100,4,2,3,70,0,0
49909,-100,4,2,3,75,0,0
51364,-100,4,2,4,70,0,0
52818,-100,4,2,24,70,0,0
52909,-100,4,2,4,70,0,0
53909,-100,4,2,5,70,0,0
54000,-100,4,2,4,70,0,0
54273,-100,4,2,26,70,0,0
54364,-100,4,2,4,70,0,0
55364,-100,4,2,5,70,0,0
55455,-100,4,2,25,70,0,0
56545,-100,4,2,4,70,0,0
56818,-100,4,2,5,70,0,0
56909,-100,4,2,4,70,0,0
58636,-100,4,2,24,70,0,0
58727,-100,4,2,4,70,0,0
59727,-100,4,2,5,70,0,0
59818,-100,4,2,4,70,0,0
60091,-100,4,2,1,70,0,0
61545,-100,4,2,1,60,0,0
61909,-100,4,2,1,65,0,0
62273,-100,4,2,1,70,0,0
62636,-100,4,2,1,75,0,0
63000,-100,4,2,1,80,0,1
74636,-100,4,2,1,65,0,1
74818,-100,4,2,10,65,0,1
75000,-100,4,2,1,65,0,1
75182,-100,4,2,1,80,0,1
86273,-100,4,2,3,70,0,0

[Colours]
Combo1 : 192,192,192
Combo2 : 128,128,128

[HitObjects]
96,192,455,5,4,1:2:0:0:
416,192,636,1,4,1:2:0:0:
160,192,1000,1,4,1:2:0:0:
352,192,1182,1,4,1:2:0:0:
96,192,1545,1,4,1:2:0:0:
416,192,1727,1,4,1:2:0:0:
256,192,2636,12,6,3364,0:0:0:0:
212,128,3545,5,2,0:3:0:0:
300,128,3727,1,2,0:3:0:0:
212,128,3909,1,2,0:3:0:0:
300,128,4091,1,2,0:3:0:0:
212,128,4273,1,2,0:3:0:0:
300,128,4455,1,2,0:3:0:0:
212,128,4636,1,2,0:3:0:0:
384,129,4818,6,0,L|489:129,2,90.5,2|2|2,3:3|0:3|0:3,0:0:0:0:
212,128,5364,2,0,B|190:77|213:43|213:43|316:42,1,181,2|2,3:3|0:3,0:0:0:0:
396,43,5909,1,2,0:3:0:0:
224,163,6091,6,0,B|396:163|396:163|419:253|393:338,1,343.899990816879,2|2,3:3|2:3,0:0:0:0:
222,333,6636,2,0,L|318:333,1,90.5,2|2,2:3|2:3,0:0:0:0:
139,288,7000,1,2,3:3:0:0:
311,262,7182,2,0,L|407:262,2,90.5,2|2|2,2:3|3:3|2:3,0:0:0:0:
139,252,7727,6,0,L|34:252,2,90.5,2|2|2,3:3|2:3|2:3,0:0:0:0:
312,142,8273,2,0,B|334:91|311:57|311:57|208:56,1,181,2|2,3:3|0:3,0:0:0:0:
128,57,8818,1,2,0:3:0:0:
300,177,9000,6,0,B|128:177|128:177|105:267|131:352,1,343.899990816879,2|2,3:3|2:3,0:0:0:0:
302,347,9545,2,0,L|206:347,1,90.5,2|2,2:3|2:3,0:0:0:0:
385,302,9909,1,2,3:3:0:0:
213,276,10091,2,0,L|117:276,2,90.5,2|2|2,2:3|3:3|2:3,0:0:0:0:
485,185,10636,6,0,L|380:185,2,90.5,4|2|2,3:1|2:3|2:3,0:0:0:0:
312,130,11182,2,0,B|219:130|219:130|196:164|218:215,1,181,2|2,3:3|0:3,0:0:0:0:
310,223,11727,1,2,0:3:0:0:
138,299,11909,6,0,B|310:299|310:299|333:209|307:124,1,343.899990816879,2|2,3:3|2:3,0:0:0:0:
135,118,12455,2,0,L|231:118,1,90.5,2|2,2:3|2:3,0:0:0:0:
398,119,12818,1,2,3:3:0:0:
226,194,13000,2,0,L|322:194,2,90.5,2|2|2,2:3|3:3|2:3,0:0:0:0:
54,270,13545,6,0,L|159:270,2,90.5,2|2|2,3:3|2:3|2:3,0:0:0:0:
227,215,14091,2,0,B|320:215|320:215|343:249|321:300,1,181,2|2,3:3|0:3,0:0:0:0:
229,308,14636,1,2,0:3:0:0:
401,308,14818,1,2,3:3:0:0:
229,308,15000,5,4,0:3:0:0:
496,189,15182,2,0,L|398:189,1,90.5,12|2,1:1|3:2,0:0:0:0:
474,163,15455,1,4,2:3:0:0:
317,165,15545,2,0,L|219:165,1,90.5,4|4,3:3|2:3,0:0:0:0:
286,135,15818,1,2,3:2:0:0:
390,132,15909,1,4,0:3:0:0:
118,133,16091,2,0,L|118:232,1,90.5,12|0,1:1|0:0,0:0:0:0:
405,222,16455,6,0,L|495:222,1,90.5,4|0,1:1|3:0,0:0:0:0:
242,283,16818,2,0,L|332:283,1,90.5,8|0,1:1|3:0,0:0:0:0:
264,265,17091,1,8,3:2:0:0:
105,282,17182,2,0,L|15:282,1,90.5,0|0,1:2|3:0,0:0:0:0:
268,183,17545,2,0,L|178:183,1,90.5,8|0,1:1|3:2,0:0:0:0:
246,158,17818,1,8,3:2:0:0:
405,175,17909,5,0,1:2:0:0:
242,137,18091,2,0,L|345:137,1,90.5,0|8,3:2|1:1,0:0:0:0:
159,140,18455,1,0,3:2:0:0:
226,118,18545,1,8,3:2:0:0:
385,113,18636,1,0,1:2:0:0:
113,77,18818,1,0,3:2:0:0:
136,115,18909,1,8,3:2:0:0:
191,120,19000,1,8,1:1:0:0:
91,128,19091,1,8,3:2:0:0:
191,120,19182,1,0,3:1:0:0:
472,127,19364,6,0,L|359:127,1,90.5,0|0,1:2|3:0,0:0:0:0:
209,123,19727,1,8,1:1:0:0:
481,162,19909,1,0,3:1:0:0:
318,165,20091,1,0,1:2:0:0:
481,162,20273,1,0,3:1:0:0:
209,211,20455,2,0,L|96:211,1,90.5,8|0,1:1|3:2,0:0:0:0:
390,268,20818,6,0,L|503:268,1,90.5,0|0,1:2|3:2,0:0:0:0:
307,258,21182,2,0,L|420:258,1,90.5,8|0,1:1|3:1,0:0:0:0:
329,237,21455,1,8,3:2:0:0:
172,226,21545,1,0,1:2:0:0:
444,153,21727,1,0,3:1:0:0:
426,105,21818,1,8,3:2:0:0:
371,85,21909,1,8,1:1:0:0:
476,84,22000,1,8,3:2:0:0:
371,85,22091,1,0,3:1:0:0:
81,168,22273,6,0,L|171:168,1,90.5,4|0,1:1|3:0,0:0:0:0:
353,170,22636,2,0,L|263:170,1,90.5,8|0,1:1|3:0,0:0:0:0:
331,143,22909,1,8,3:2:0:0:
490,142,23000,2,0,L|400:142,1,90.5,0|0,1:2|3:0,0:0:0:0:
218,144,23363,2,0,L|308:144,1,90.5,8|0,1:1|3:2,0:0:0:0:
240,117,23636,1,8,3:2:0:0:
81,196,23727,6,0,L|189:196,1,90.5,0|0,1:2|3:2,0:0:0:0:
343,196,24091,1,8,1:1:0:0:
171,196,24273,1,0,3:2:0:0:
238,195,24363,1,8,3:2:0:0:
399,196,24455,1,0,1:2:0:0:
129,247,24636,1,0,3:2:0:0:
106,210,24727,1,8,3:2:0:0:
129,169,24818,1,8,1:1:0:0:
229,167,24909,1,8,3:2:0:0:
129,169,25000,1,0,3:1:0:0:
405,166,25182,6,0,L|495:166,1,90.5,0|0,1:2|3:0,0:0:0:0:
323,125,25545,1,8,1:1:0:0:
53,247,25727,1,0,3:2:0:0:
216,254,25909,1,0,1:2:0:0:
53,247,26091,1,0,3:2:0:0:
325,260,26273,2,0,L|415:260,1,90.5,8|0,1:1|3:2,0:0:0:0:
140,268,26636,6,0,L|27:268,1,90.5,0|0,1:2|3:2,0:0:0:0:
223,237,27000,2,0,L|110:237,1,90.5,8|0,1:1|3:2,0:0:0:0:
201,203,27273,1,0,3:2:0:0:
382,200,27364,1,6,1:2:0:0:
437,199,27455,1,2,3:2:0:0:
460,151,27545,1,2,3:2:0:0:
437,199,27636,1,2,3:2:0:0:
256,153,27727,1,8,1:1:0:0:
188,153,27818,1,2,3:3:0:0:
342,115,27909,1,2,3:3:0:0:
496,118,28000,1,2,3:3:0:0:
319,307,28091,6,0,L|308:248,1,45.25,6|2,1:2|0:0,0:0:0:0:
473,253,28273,6,0,L|482:209,1,45.25,2|2,3:2|0:0,0:0:0:0:
321,172,28455,6,0,L|412:172,1,90.5,10|2,1:2|3:2,0:0:0:0:
140,317,28818,6,0,L|129:258,1,45.25,2|2,1:2|0:0,0:0:0:0:
294,263,29000,6,0,L|303:219,1,45.25,2|2,3:2|0:0,0:0:0:0:
142,182,29182,6,0,L|41:182,1,90.5,10|2,1:2|3:2,0:0:0:0:
350,94,29545,5,6,1:2:0:0:
187,97,29727,5,2,3:2:0:0:
350,94,29909,5,10,1:2:0:0:
78,229,30091,6,0,P|27:173|101:127,1,181,2|2,3:2|3:2,0:0:0:0:
164,132,30545,5,2,0:0:0:0:
323,137,30636,5,10,1:2:0:0:
160,113,30818,5,2,3:2:0:0:
459,197,31000,5,6,1:2:0:0:
287,200,31182,6,0,L|192:200,2,90.5,2|10|2,3:2|1:2|3:2,0:0:0:0:
448,192,31636,5,2,0:0:0:0:
287,200,31727,6,0,L|192:200,1,90.5,0|0,1:2|3:2,0:0:0:0:
470,102,32091,6,0,L|379:102,1,90.5,14|0,1:2|3:2,0:0:0:0:
79,200,32455,5,6,1:2:0:0:
147,201,32546,5,2,0:0:0:0:
306,203,32637,5,2,3:2:0:0:
374,205,32728,5,2,0:0:0:0:
217,273,32818,6,0,L|324:273,1,90.5,10|2,1:2|3:2,0:0:0:0:
32,171,33182,5,2,1:2:0:0:
100,172,33273,5,2,0:0:0:0:
259,174,33364,5,2,3:2:0:0:
327,176,33455,5,2,0:0:0:0:
169,319,33545,6,0,L|76:320,1,90.5,10|2,1:2|3:2,0:0:0:0:
32,317,33818,5,2,0:2:0:0:
193,307,33909,6,0,L|204:248,1,45.25,6|2,1:2|0:0,0:0:0:0:
39,253,34091,6,0,L|30:209,1,45.25,2|2,3:2|0:2,0:0:0:0:
191,172,34273,6,0,L|100:172,1,90.5,10|2,1:2|3:2,0:0:0:0:
372,317,34636,6,0,L|383:258,1,45.25,2|2,1:2|0:0,0:0:0:0:
218,263,34818,6,0,L|209:219,1,45.25,2|2,3:2|0:0,0:0:0:0:
370,182,35000,6,0,L|471:182,1,90.5,10|2,1:2|3:2,0:0:0:0:
162,94,35363,5,6,1:2:0:0:
325,97,35545,5,2,3:2:0:0:
162,94,35727,5,10,1:2:0:0:
434,229,35909,6,0,P|485:173|411:127,1,181,2|2,3:2|3:2,0:0:0:0:
348,132,36363,5,2,0:0:0:0:
189,137,36454,5,10,1:2:0:0:
352,113,36636,5,2,3:2:0:0:
53,193,36818,5,6,1:2:0:0:
225,196,37000,6,0,L|320:196,2,90.5,2|10|2,3:2|1:2|3:2,0:0:0:0:
64,192,37454,5,2,0:0:0:0:
225,196,37545,6,0,L|320:196,1,90.5,0|0,1:2|3:2,0:0:0:0:
42,98,37909,6,0,L|133:98,1,90.5,14|0,1:2|3:2,0:0:0:0:
433,200,38273,5,6,1:2:0:0:
365,201,38364,5,2,0:0:0:0:
206,203,38455,5,2,3:2:0:0:
138,205,38546,5,2,0:0:0:0:
295,273,38636,6,0,L|188:273,1,90.5,10|2,1:2|3:2,0:0:0:0:
480,171,39000,5,2,1:2:0:0:
412,172,39091,5,2,0:0:0:0:
253,174,39182,5,2,3:2:0:0:
185,176,39273,5,2,0:0:0:0:
343,319,39363,6,0,L|436:320,1,90.5,10|2,1:2|3:2,0:0:0:0:
480,321,39636,5,2,0:0:0:0:
310,268,39727,6,0,P|265:206|344:166,1,181,6|10,1:2|1:2,0:0:0:0:
164,117,40273,2,0,L|345:116,1,181,2|2,3:2|3:2,0:0:0:0:
173,156,40818,1,10,1:2:0:0:
344,116,41000,1,2,3:2:0:0:
72,220,41182,6,0,L|253:219,1,181,2|10,1:2|1:2,0:0:0:0:
72,220,41727,2,0,P|17:176|86:120,1,181,2|2,3:2|3:2,0:0:0:0:
254,121,42273,1,10,1:2:0:0:
82,119,42455,1,2,3:2:0:0:
352,256,42636,6,0,P|418:212|362:154,1,181,2|10,1:2|1:2,0:0:0:0:
190,180,43182,2,0,L|371:181,1,181,2|2,3:2|3:2,0:0:0:0:
199,213,43727,2,0,L|191:317,1,90.5,10|0,1:2|3:2,0:0:0:0:
480,302,44091,6,0,L|297:302,1,181,2|10,1:2|1:2,0:0:0:0:
471,272,44636,1,2,3:2:0:0:
199,246,44818,1,2,1:3:0:0:
144,245,44909,1,2,0:3:0:0:
124,208,45000,1,2,3:3:0:0:
144,245,45091,1,2,0:3:0:0:
199,246,45182,1,8,1:2:0:0:
371,237,45364,1,0,3:2:0:0:
86,152,45545,6,0,L|182:152,2,90.5,6|2|10,1:2|3:2|1:2,0:0:0:0:
259,200,46091,2,0,L|440:200,1,181,2|2,3:2|3:2,0:0:0:0:
268,179,46636,2,0,L|369:179,1,90.5,10|2,1:2|3:2,0:0:0:0:
84,113,47000,5,2,1:2:0:0:
247,108,47182,1,2,3:2:0:0:
410,103,47364,1,10,1:2:0:0:
140,171,47545,2,0,P|77:209|143:265,1,181,2|2,3:2|3:2,0:0:0:0:
309,276,48091,1,10,1:2:0:0:
136,266,48273,1,2,3:2:0:0:
417,180,48455,6,0,L|316:180,1,90.5,2|2,1:2|3:2,0:0:0:0:
154,182,48818,1,10,1:2:0:0:
326,222,49000,2,0,L|145:222,1,181,2|2,3:2|3:2,0:0:0:0:
317,185,49545,2,0,L|325:81,1,90.5,10|0,1:2|3:2,0:0:0:0:
42,71,49909,5,2,1:3:0:0:
110,73,50000,1,2,0:3:0:0:
269,74,50091,1,2,3:3:0:0:
201,76,50182,1,2,0:3:0:0:
42,71,50273,2,0,L|34:175,1,90.5,10|0,1:2|3:2,0:0:0:0:
307,191,50636,5,2,1:3:0:0:
239,193,50727,1,2,0:3:0:0:
80,194,50818,1,2,3:3:0:0:
148,196,50909,1,2,0:3:0:0:
307,191,51000,1,10,1:2:0:0:
144,183,51182,1,0,3:2:0:0:
416,294,51364,6,0,L|271:294,2,135.75,6|2|2,1:2|0:2|3:2,0:0:0:0:
316,271,52091,1,2,2:2:0:0:
153,268,52273,1,0,1:2:0:0:
425,238,52455,1,8,2:1:0:0:
172,151,52818,6,0,L|27:151,2,135.75,6|2|2,1:2|0:2|3:2,0:0:0:0:
263,154,53545,1,2,0:2:0:0:
91,131,53727,1,0,1:2:0:0:
363,114,53909,2,0,L|453:114,1,90.5,8|0,2:1|3:0,0:0:0:0:
180,297,54273,6,0,P|117:259|183:203,1,181,6|8,1:2|2:1,0:0:0:0:
349,302,54818,2,0,P|412:264|346:208,1,181,2|0,3:2|1:2,0:0:0:0:
180,297,55364,2,0,L|90:297,1,90.5,8|0,2:1|3:0,0:0:0:0:
361,201,55727,6,0,L|157:201,1,181,6|8,1:2|2:1,0:0:0:0:
487,141,56455,2,0,L|390:141,1,90.5,6|0,0:2|1:2,0:0:0:0:
225,100,56818,1,8,2:1:0:0:
397,101,57000,1,8,2:1:0:0:
125,200,57182,6,0,L|275:200,2,135.75,6|2|2,1:2|0:2|3:2,0:0:0:0:
225,176,57909,1,2,0:2:0:0:
388,179,58091,1,0,1:2:0:0:
116,143,58273,1,8,2:1:0:0:
351,144,58636,6,0,L|496:144,2,135.75,6|2|2,1:2|0:2|3:2,0:0:0:0:
260,147,59363,1,2,0:2:0:0:
432,124,59545,1,0,1:2:0:0:
160,116,59727,1,8,2:1:0:0:
416,192,60091,5,4,1:2:0:0:
96,192,60272,1,4,1:2:0:0:
352,192,60636,1,4,1:2:0:0:
160,192,60818,1,4,1:2:0:0:
416,192,61181,1,4,1:2:0:0:
96,192,61363,1,4,1:2:0:0:
96,192,61545,5,4,0:3:0:0:
402,251,61727,1,8,0:1:0:0:
425,213,61818,1,2,0:3:0:0:
402,251,61909,1,2,3:3:0:0:
347,251,62000,1,10,0:3:0:0:
188,249,62091,1,10,0:3:0:0:
120,251,62182,1,2,0:3:0:0:
301,177,62273,1,6,0:3:0:0:
369,179,62364,1,2,0:3:0:0:
165,117,62455,1,6,0:3:0:0:
97,119,62546,1,2,3:3:0:0:
321,226,62636,1,6,0:2:0:0:
344,188,62727,1,2,0:2:0:0:
321,226,62818,1,2,0:2:0:0:
266,226,62909,1,2,0:2:0:0:
107,222,63000,6,0,L|17:222,1,90.5,4|0,1:1|3:0,0:0:0:0:
270,283,63363,2,0,L|180:283,1,90.5,8|0,1:1|3:0,0:0:0:0:
248,265,63636,1,8,3:2:0:0:
407,282,63727,2,0,L|497:282,1,90.5,0|0,1:2|3:0,0:0:0:0:
244,183,64090,2,0,L|334:183,1,90.5,8|0,1:1|3:2,0:0:0:0:
266,158,64363,1,8,3:2:0:0:
107,175,64454,5,0,1:2:0:0:
270,137,64636,2,0,L|167:137,1,90.5,0|8,3:2|1:1,0:0:0:0:
353,140,65000,1,0,3:2:0:0:
286,118,65090,1,8,3:2:0:0:
127,113,65181,1,0,1:2:0:0:
399,77,65363,1,0,3:2:0:0:
376,115,65454,1,8,3:2:0:0:
321,120,65545,1,8,1:1:0:0:
421,128,65636,1,8,3:2:0:0:
321,120,65727,1,0,3:1:0:0:
49,126,65909,6,0,L|162:126,1,90.5,0|0,1:2|3:0,0:0:0:0:
312,122,66272,1,8,1:1:0:0:
40,161,66454,1,0,3:1:0:0:
203,164,66636,1,0,1:2:0:0:
40,161,66818,1,0,3:1:0:0:
312,210,67000,2,0,L|425:210,1,90.5,8|0,1:1|3:2,0:0:0:0:
131,267,67363,6,0,L|18:267,1,90.5,0|0,1:2|3:2,0:0:0:0:
214,257,67727,2,0,L|101:257,1,90.5,8|0,1:1|3:1,0:0:0:0:
192,236,68000,1,8,3:2:0:0:
349,225,68090,5,0,1:2:0:0:
77,152,68272,1,0,3:1:0:0:
95,104,68363,1,8,3:2:0:0:
150,84,68454,1,8,1:1:0:0:
45,83,68545,1,8,3:2:0:0:
150,84,68636,1,0,3:1:0:0:
431,168,68818,6,0,L|341:168,1,90.5,4|0,1:1|3:0,0:0:0:0:
159,170,69181,2,0,L|249:170,1,90.5,8|0,1:1|3:0,0:0:0:0:
181,143,69454,1,8,3:2:0:0:
22,142,69545,2,0,L|112:142,1,90.5,0|0,1:2|3:0,0:0:0:0:
294,144,69908,2,0,L|204:144,1,90.5,8|0,1:1|3:2,0:0:0:0:
272,117,70181,1,8,3:2:0:0:
431,196,70272,6,0,L|323:196,1,90.5,0|0,1:2|3:2,0:0:0:0:
169,196,70636,1,8,1:1:0:0:
341,196,70818,1,0,3:2:0:0:
274,195,70908,1,8,3:2:0:0:
113,196,71000,1,0,1:2:0:0:
383,247,71181,1,0,3:2:0:0:
406,210,71272,1,8,3:2:0:0:
383,169,71363,1,8,1:1:0:0:
283,167,71454,1,8,3:2:0:0:
383,169,71545,1,0,3:1:0:0:
107,166,71727,6,0,L|17:166,1,90.5,0|0,1:2|3:0,0:0:0:0:
189,125,72090,1,8,1:1:0:0:
459,247,72272,1,0,3:2:0:0:
296,254,72454,1,0,1:2:0:0:
459,247,72636,1,0,3:2:0:0:
187,260,72818,2,0,L|97:260,1,90.5,8|0,1:1|3:2,0:0:0:0:
372,268,73181,6,0,L|485:268,1,90.5,0|0,1:2|3:2,0:0:0:0:
289,237,73545,2,0,L|402:237,1,90.5,8|0,1:1|3:2,0:0:0:0:
311,203,73818,1,0,3:2:0:0:
152,201,73909,1,6,1:2:0:0:
97,200,74000,1,2,3:2:0:0:
74,152,74090,5,2,3:2:0:0:
97,200,74181,1,2,3:2:0:0:
256,153,74272,1,8,1:1:0:0:
324,153,74363,1,2,3:3:0:0:
170,115,74454,1,2,3:3:0:0:
16,118,74545,1,2,3:3:0:0:
193,161,74636,5,6,1:1:0:0:
463,157,74817,1,2,3:1:0:0:
193,161,75000,1,10,1:1:0:0:
463,157,75181,1,0,3:1:0:0:
394,157,75273,1,8,3:2:0:0:
207,144,75364,2,0,L|107:144,1,90.5,0|0,1:2|3:0,0:0:0:0:
397,235,75727,2,0,L|296:235,1,90.5,8|0,1:1|3:2,0:0:0:0:
375,208,75999,1,8,3:2:0:0:
205,208,76091,6,0,L|306:208,1,90.5,0|0,1:2|3:2,0:0:0:0:
22,176,76455,2,0,L|118:176,1,90.5,8|0,1:1|3:2,0:0:0:0:
44,151,76727,1,8,3:2:0:0:
201,140,76817,1,0,1:2:0:0:
474,139,76999,1,0,3:2:0:0:
451,170,77091,1,8,3:2:0:0:
397,188,77181,1,8,1:1:0:0:
291,198,77273,1,8,3:2:0:0:
397,188,77363,1,0,3:1:0:0:
125,124,77545,6,0,L|238:124,1,90.5,0|0,1:2|3:0,0:0:0:0:
388,120,77908,1,8,1:1:0:0:
116,159,78090,1,0,3:1:0:0:
279,162,78272,1,0,1:2:0:0:
116,159,78454,1,0,3:1:0:0:
388,208,78636,2,0,L|501:208,1,90.5,8|0,1:1|3:2,0:0:0:0:
205,268,79000,6,0,L|92:268,1,90.5,0|0,1:2|3:2,0:0:0:0:
288,258,79364,2,0,L|175:258,1,90.5,8|0,1:1|3:1,0:0:0:0:
266,237,79637,1,8,3:2:0:0:
423,226,79727,1,0,1:2:0:0:
143,85,79909,1,0,3:1:0:0:
166,114,80001,1,8,3:2:0:0:
220,134,80091,1,8,1:1:0:0:
326,144,80183,1,8,3:2:0:0:
220,134,80273,1,0,3:1:0:0:
492,186,80455,6,0,L|401:186,1,90.5,4|0,1:1|3:0,0:0:0:0:
130,194,80818,2,0,L|220:194,1,90.5,8|0,1:1|3:0,0:0:0:0:
152,175,81091,1,8,3:2:0:0:
311,176,81182,2,0,L|401:176,1,90.5,0|0,1:2|3:0,0:0:0:0:
130,130,81545,2,0,L|40:130,1,90.5,8|0,1:1|3:2,0:0:0:0:
108,104,81818,1,8,3:2:0:0:
293,154,81909,6,0,L|192:154,1,90.5,0|0,1:2|3:2,0:0:0:0:
492,123,82273,2,0,L|396:123,1,90.5,8|0,1:1|3:2,0:0:0:0:
470,98,82545,1,8,3:2:0:0:
313,87,82635,1,0,1:2:0:0:
40,141,82818,1,0,3:2:0:0:
17,168,82910,1,8,3:2:0:0:
40,141,83000,1,8,1:1:0:0:
146,151,83092,1,8,3:2:0:0:
40,141,83182,1,0,3:1:0:0:
309,137,83364,6,0,L|399:137,1,90.5,0|0,1:2|3:0,0:0:0:0:
227,104,83727,1,8,1:1:0:0:
496,169,83909,1,0,3:2:0:0:
333,172,84091,1,0,1:2:0:0:
496,169,84273,1,0,3:2:0:0:
224,217,84455,2,0,L|111:217,1,90.5,8|0,1:1|3:2,0:0:0:0:
404,220,84817,5,0,1:2:0:0:
313,141,84999,1,0,3:2:0:0:
244,142,85091,1,2,0:2:0:0:
65,150,85181,1,8,1:1:0:0:
42,186,85273,1,2,0:2:0:0:
65,150,85363,1,0,3:2:0:0:
120,148,85455,1,2,0:2:0:0:
299,93,85545,1,6,1:2:0:0:
367,89,85636,1,2,3:2:0:0:
186,81,85727,1,2,3:2:0:0:
118,77,85818,1,2,3:2:0:0:
322,115,85909,1,8,1:1:0:0:
390,111,86000,1,2,3:3:0:0:
164,133,86091,1,2,3:3:0:0:
96,129,86182,1,2,3:3:0:0:
343,201,86272,5,4,1:2:0:0:
184,198,86455,1,4,1:2:0:0:
454,174,86636,1,4,1:2:0:0:
182,322,86818,2,0,P|126:269|206:234,1,181,4|4,1:2|1:2,0:0:0:0:
468,243,87364,1,4,1:2:0:0:
96,192,87545,1,4,1:2:0:0:
