osu file format v14

[General]
AudioFilename: audio.mp3
AudioLeadIn: 0
PreviewTime: 16455
Countdown: 0
SampleSet: Soft
StackLeniency: 0.7
Mode: 2
LetterboxInBreaks: 0
WidescreenStoryboard: 0

[Editor]
Bookmarks: 4818,10636,15000,16455,28091,39727,51364,60091,63000,74636,86273
DistanceSpacing: 2.2
BeatDivisor: 4
GridSize: 16
TimelineZoom: 1

[Metadata]
Title:resonance (TV Size)
TitleUnicode:resonance (TV Size)
Artist:T.M.Revolution
ArtistUnicode:T.M.Revolution
Creator:Mniam
Version:Cup
Source:ソウルイーター
Tags:soul eater opening op 1 貴教が革命を起こす takanori makes nishikawa 西川貴教 japanese pop j-pop anime animestyle
BeatmapID:4540616
BeatmapSetID:2154456

[Difficulty]
HPDrainRate:2
CircleSize:2
OverallDifficulty:4
ApproachRate:4
SliderMultiplier:1.55
SliderTickRate:0.5

[Events]
//Background and Video events
0,0,"a1.png",0,0
Video,-100,"video.mp4"
//Break Periods
//Storyboard Layer 0 (Background)
//Storyboard Layer 1 (Fail)
//Storyboard Layer 2 (Pass)
//Storyboard Layer 3 (Foreground)
//Storyboard Layer 4 (Overlay)
//Storyboard Sound Samples

[TimingPoints]
455,363.636363636364,4,2,3,70,1,0
2636,-100,4,2,3,50,0,0
3364,-100,4,2,3,60,0,0
3545,-100,4,2,2,45,0,0
4818,-100,4,2,2,70,0,0
10636,-100,4,2,2,75,0,0
15000,-100,4,2,1,75,0,0
16455,-100,4,2,1,80,0,1
27364,-100,4,2,1,70,0,1
27727,-100,4,2,1,75,0,1
28091,-100,4,2,12,75,0,0
28182,-100,4,2,6,75,0,0
29545,-100,4,2,14,75,0,0
29636,-100,4,2,6,75,0,0
31000,-100,4,2,13,75,0,0
31091,-100,4,2,6,75,0,0
32091,-100,4,2,11,75,0,0
32182,-100,4,2,6,75,0,0
32455,-100,4,2,12,75,0,0
32545,-100,4,2,6,75,0,0
33909,-100,4,2,12,75,0,0
34000,-100,4,2,6,75,0,0
35363,-100,4,2,14,75,0,0
35454,-100,4,2,6,75,0,0
36818,-100,4,2,13,75,0,0
36909,-100,4,2,6,75,0,0
37909,-100,4,2,15,75,0,0
38000,-100,4,2,6,75,0,0
38273,-100,4,2,12,75,0,0
38363,-100,4,2,6,75,0,0
39727,-100,4,2,3,70,0,0
49909,-100,4,2,3,75,0,0
51364,-100,4,2,4,70,0,0
52818,-100,4,2,24,70,0,0
52909,-100,4,2,4,70,0,0
53909,-100,4,2,5,70,0,0
54000,-100,4,2,4,70,0,0
54273,-100,4,2,26,70,0,0
54364,-100,4,2,4,70,0,0
55364,-100,4,2,5,70,0,0
55455,-100,4,2,25,70,0,0
56545,-100,4,2,4,70,0,0
56818,-100,4,2,5,70,0,0
56909,-100,4,2,4,70,0,0
58636,-100,4,2,24,70,0,0
58727,-100,4,2,4,70,0,0
59727,-100,4,2,5,70,0,0
59818,-100,4,2,4,70,0,0
60091,-100,4,2,1,70,0,0
61545,-100,4,2,1,60,0,0
61909,-100,4,2,1,65,0,0
62273,-100,4,2,1,70,0,0
62636,-100,4,2,1,75,0,0
63000,-100,4,2,1,80,0,1
74636,-100,4,2,1,65,0,1
74818,-100,4,2,10,65,0,1
75000,-100,4,2,1,65,0,1
75182,-100,4,2,1,80,0,1
86273,-100,4,2,3,70,0,0

[Colours]
Combo1 : 169,223,235
Combo2 : 255,255,0
Combo3 : 192,192,192
Combo4 : 47,148,223
Combo5 : 128,128,128
Combo6 : 151,0,0

[HitObjects]
141,192,455,6,0,L|375:192,2,232.5,4|4|4,1:2|1:2|1:2,0:0:0:0:
218,192,1727,1,4,1:2:0:0:
256,192,2636,12,6,3364,0:0:0:0:
372,199,4818,5,2,3:3:0:0:
346,152,5000,1,2,0:3:0:0:
294,107,5182,1,2,0:3:0:0:
217,104,5364,1,2,3:3:0:0:
370,104,5727,1,2,0:3:0:0:
447,108,5909,1,2,0:3:0:0:
370,104,6091,1,2,3:3:0:0:
217,104,6455,5,2,2:3:0:0:
191,166,6637,1,2,2:3:0:0:
217,104,6818,1,2,2:3:0:0:
294,104,7000,1,2,3:3:0:0:
371,104,7182,1,2,2:3:0:0:
294,104,7364,1,2,3:3:0:0:
140,199,7727,5,2,3:3:0:0:
166,152,7909,1,2,2:3:0:0:
218,107,8091,1,2,2:3:0:0:
295,104,8273,1,2,3:3:0:0:
142,104,8636,1,2,0:3:0:0:
65,108,8818,1,2,0:3:0:0:
142,104,9000,1,2,3:3:0:0:
295,104,9364,5,2,2:3:0:0:
321,166,9546,1,2,2:3:0:0:
295,104,9727,1,2,2:3:0:0:
218,104,9909,1,2,3:3:0:0:
141,104,10091,1,2,2:3:0:0:
218,104,10273,1,2,3:3:0:0:
64,202,10636,6,0,P|41:125|91:67,1,155,4|2,3:1|2:3,0:0:0:0:
160,65,11182,1,2,3:3:0:0:
313,136,11545,1,2,0:3:0:0:
236,140,11727,1,2,0:3:0:0:
159,144,11909,1,2,3:3:0:0:
313,208,12273,5,2,2:3:0:0:
287,255,12455,1,2,2:3:0:0:
235,300,12637,1,2,2:3:0:0:
158,303,12819,1,2,3:3:0:0:
235,300,13000,1,2,2:3:0:0:
312,303,13182,1,2,3:3:0:0:
159,227,13545,6,0,P|136:150|186:92,1,155,2|2,3:3|2:3,0:0:0:0:
255,87,14091,1,2,3:3:0:0:
102,227,14455,1,2,0:3:0:0:
179,231,14637,1,2,0:3:0:0:
256,235,14819,1,2,3:3:0:0:
256,192,15091,12,12,16091,1:1:0:0:
256,192,16455,6,0,L|436:192,1,155,4|8,1:1|1:1,0:0:0:0:
411,192,17182,2,0,L|256:192,1,155,0|8,1:2|1:1,0:0:0:0:
102,189,17909,5,0,1:2:0:0:
179,159,18091,1,0,3:2:0:0:
256,153,18273,1,8,1:1:0:0:
290,83,18455,1,0,3:2:0:0:
256,153,18636,1,0,1:2:0:0:
179,159,18818,1,0,3:2:0:0:
179,159,19182,1,0,3:1:0:0:
256,160,19364,6,0,L|411:160,1,155,0|8,1:2|1:1,0:0:0:0:
411,160,19909,2,0,L|256:160,1,155,0|0,3:1|3:1,0:0:0:0:
333,162,20455,1,8,1:1:0:0:
256,192,20818,12,0,21545,1:2:0:0:
256,192,21909,5,8,1:1:0:0:
333,193,22091,1,0,3:1:0:0:
436,131,22273,6,0,L|256:131,1,155,4|8,1:1|1:1,0:0:0:0:
281,131,23000,2,0,L|436:131,1,155,0|8,1:2|1:1,0:0:0:0:
282,190,23727,5,0,1:2:0:0:
129,191,24091,1,8,1:1:0:0:
282,190,24455,1,0,1:2:0:0:
358,191,24636,1,0,3:2:0:0:
205,190,25000,1,0,3:1:0:0:
128,191,25182,6,0,P|75:147|128:101,1,155,0|8,1:2|1:1,0:0:0:0:
202,100,25727,2,0,L|357:100,1,155,0|0,3:2|3:2,0:0:0:0:
280,99,26273,1,8,1:1:0:0:
256,192,26636,12,8,27727,1:1:0:0:
256,192,28091,5,6,1:2:0:0:
333,193,28273,5,2,3:2:0:0:
372,193,28455,5,10,1:2:0:0:
219,192,28818,5,2,1:2:0:0:
142,193,29000,5,2,3:2:0:0:
103,193,29182,5,10,1:2:0:0:
256,192,29545,6,0,L|416:192,1,155,6|10,1:2|1:2,0:0:0:0:
334,190,30091,6,0,P|286:149|335:88,1,155,2|2,3:2|3:2,0:0:0:0:
410,81,30636,5,10,1:2:0:0:
256,192,31000,6,0,L|96:192,1,155,6|10,1:2|1:2,0:0:0:0:
178,190,31545,6,0,P|261:148|176:91,1,232.5,2|14,3:2|1:2,0:0:0:0:
333,190,32455,5,6,1:2:0:0:
298,147,32636,5,2,3:2:0:0:
221,141,32818,5,10,1:2:0:0:
68,185,33182,5,2,1:2:0:0:
103,142,33363,5,2,3:2:0:0:
180,136,33545,5,10,1:2:0:0:
387,189,33909,5,6,1:2:0:0:
464,190,34091,5,2,3:2:0:0:
503,190,34273,5,10,1:2:0:0:
350,189,34636,5,2,1:2:0:0:
273,190,34818,5,2,3:2:0:0:
234,190,35000,5,10,1:2:0:0:
387,189,35364,6,0,L|227:189,1,155,6|10,1:2|1:2,0:0:0:0:
309,187,35910,6,0,P|357:146|308:85,1,155,2|2,3:2|3:2,0:0:0:0:
233,78,36455,5,10,1:2:0:0:
157,78,36636,5,2,3:2:0:0:
234,78,36818,6,0,L|389:78,1,155,6|10,1:2|1:2,0:0:0:0:
312,102,37364,6,0,P|229:144|314:201,1,232.5,2|14,3:2|1:2,0:0:0:0:
464,183,38273,5,6,1:2:0:0:
429,140,38454,5,2,3:2:0:0:
352,134,38636,5,10,1:2:0:0:
199,178,39000,5,2,1:2:0:0:
234,135,39181,5,2,3:2:0:0:
311,129,39363,5,10,1:2:0:0:
125,268,39727,6,0,P|61:215|119:183,1,155,6|10,1:2|1:2,0:0:0:0:
174,180,40273,1,2,3:2:0:0:
327,180,40636,1,2,3:2:0:0:
251,180,40817,1,10,1:2:0:0:
328,180,41000,1,2,3:2:0:0:
405,268,41182,6,0,P|458:210|407:182,1,155,2|10,1:2|1:2,0:0:0:0:
335,181,41727,1,2,3:2:0:0:
181,185,42091,1,2,3:2:0:0:
257,185,42272,1,10,1:2:0:0:
180,185,42455,1,2,3:2:0:0:
104,173,42636,6,0,L|263:170,1,155,2|10,1:2|1:2,0:0:0:0:
336,168,43182,1,2,3:2:0:0:
183,113,43545,1,2,3:2:0:0:
106,114,43727,1,10,1:2:0:0:
259,113,44091,6,0,L|260:283,1,155,2|10,1:2|1:2,0:0:0:0:
337,276,44636,2,0,B|414:277|414:277|337:262|337:262|293:194,1,232.5,2|8,3:2|1:2,0:0:0:0:
448,179,45545,5,6,1:2:0:0:
422,132,45727,1,2,3:2:0:0:
370,87,45909,1,10,1:2:0:0:
293,84,46091,1,2,3:2:0:0:
140,84,46455,1,2,3:2:0:0:
106,22,46636,1,10,1:2:0:0:
140,84,46818,1,2,3:2:0:0:
217,84,47000,5,2,1:2:0:0:
140,84,47182,1,2,3:2:0:0:
217,84,47364,1,10,1:2:0:0:
293,84,47545,1,2,3:2:0:0:
446,84,47909,1,2,3:2:0:0:
480,22,48090,1,10,1:2:0:0:
446,84,48272,1,2,3:2:0:0:
369,122,48455,5,2,1:2:0:0:
293,84,48636,1,2,3:2:0:0:
258,178,48818,1,10,1:2:0:0:
293,84,49000,2,0,L|457:84,1,155,2|2,3:2|3:2,0:0:0:0:
371,122,49545,1,10,1:2:0:0:
256,192,49909,12,10,51000,1:2:0:0:
410,288,51364,6,0,P|485:243|407:76,1,310,6|2,1:2|2:2,0:0:0:0:
102,288,52818,2,0,P|27:243|105:76,1,310,6|2,1:2|0:2,0:0:0:0:
256,192,53909,1,8,2:1:0:0:
410,288,54273,6,0,L|160:288,2,232.5,6|2|8,1:2|3:2|2:1,0:0:0:0:
256,192,55727,1,6,1:2:0:0:
64,192,56455,2,0,L|229:192,1,155,6|8,0:2|2:1,0:0:0:0:
373,273,57182,6,0,P|478:243|426:70,1,310,6|2,1:2|0:2,0:0:0:0:
139,273,58636,2,0,P|34:243|86:70,1,310,6|2,1:2|0:2,0:0:0:0:
371,192,60091,6,0,L|137:192,2,232.5,4|4|4,1:2|1:2|1:2,0:0:0:0:
294,192,61363,5,4,1:2:0:0:
256,192,61636,12,6,62636,0:2:0:0:
256,192,63000,6,0,L|76:192,1,155,4|8,1:1|1:1,0:0:0:0:
101,192,63727,2,0,L|256:192,1,155,0|8,1:2|1:1,0:0:0:0:
410,189,64454,5,0,1:2:0:0:
333,159,64636,1,0,3:2:0:0:
256,153,64818,1,8,1:1:0:0:
222,83,65000,1,0,3:2:0:0:
256,153,65181,1,0,1:2:0:0:
333,159,65363,1,0,3:2:0:0:
333,159,65727,1,0,3:1:0:0:
256,160,65909,6,0,L|101:160,1,155,0|8,1:2|1:1,0:0:0:0:
101,160,66454,2,0,L|256:160,1,155,0|0,3:1|3:1,0:0:0:0:
179,162,67000,1,8,1:1:0:0:
256,192,67363,12,0,68090,1:2:0:0:
256,192,68454,5,8,1:1:0:0:
179,193,68636,1,0,3:1:0:0:
76,131,68818,6,0,L|256:131,1,155,4|8,1:1|1:1,0:0:0:0:
231,131,69545,2,0,L|76:131,1,155,0|8,1:2|1:1,0:0:0:0:
230,190,70272,5,0,1:2:0:0:
383,191,70636,1,8,1:1:0:0:
230,190,71000,1,0,1:2:0:0:
154,191,71181,1,0,3:2:0:0:
307,190,71545,1,0,3:1:0:0:
384,191,71727,6,0,P|437:147|384:101,1,155,0|8,1:2|1:1,0:0:0:0:
310,100,72272,2,0,L|155:100,1,155,0|0,3:2|3:2,0:0:0:0:
232,99,72818,1,8,1:1:0:0:
256,192,73182,12,8,74273,1:1:0:0:
256,192,74636,5,6,1:1:0:0:
256,192,74818,1,2,3:1:0:0:
179,192,75000,1,10,1:1:0:0:
179,192,75182,1,0,3:1:0:0:
102,192,75364,2,0,P|54:155|102:92,1,155,0|8,1:2|1:1,0:0:0:0:
255,92,76091,6,0,L|410:92,1,155,0|8,1:2|1:1,0:0:0:0:
256,92,76818,1,0,1:2:0:0:
256,92,77000,1,0,3:2:0:0:
410,92,77364,1,0,3:1:0:0:
486,90,77545,6,0,L|331:90,1,155,0|8,1:2|1:1,0:0:0:0:
331,90,78090,2,0,L|486:90,1,155,0|0,3:1|3:1,0:0:0:0:
409,92,78636,1,8,1:1:0:0:
256,192,79000,12,0,79727,1:2:0:0:
256,192,80091,5,8,1:1:0:0:
333,193,80273,1,0,3:1:0:0:
436,131,80455,6,0,L|256:131,1,155,4|8,1:1|1:1,0:0:0:0:
281,131,81182,2,0,L|436:131,1,155,0|8,1:2|1:1,0:0:0:0:
282,190,81909,5,0,1:2:0:0:
129,191,82273,1,8,1:1:0:0:
282,190,82637,1,0,1:2:0:0:
358,191,82818,1,0,3:2:0:0:
204,137,83182,1,0,3:1:0:0:
128,135,83363,6,0,L|283:135,1,155,0|8,1:2|1:1,0:0:0:0:
283,135,83908,2,0,L|128:135,1,155,0|0,3:2|3:2,0:0:0:0:
205,137,84454,1,8,1:1:0:0:
256,192,84818,12,8,85909,1:1:0:0:
256,192,86273,5,4,1:2:0:0:
332,192,86454,1,4,1:2:0:0:
255,192,86636,1,4,1:2:0:0:
178,189,86818,2,0,P|132:168|176:100,1,155,4|4,1:2|1:2,0:0:0:0:
254,102,87364,1,4,1:2:0:0:
178,100,87545,1,4,1:2:0:0:
