osu file format v14

[General]
AudioFilename: audio.mp3
AudioLeadIn: 0
PreviewTime: 49435
Countdown: 0
SampleSet: Soft
StackLeniency: 0.7
Mode: 0
LetterboxInBreaks: 0
WidescreenStoryboard: 1

[Editor]
DistanceSpacing: 1.1
BeatDivisor: 4
GridSize: 8
TimelineZoom: 1

[Metadata]
Title:INVOKE (TV Size)
TitleUnicode:INVOKE -インヴォーク- (TV Size)
Artist:T.M.Revolution
ArtistUnicode:T.M.Revolution
Creator:Satou Kazuma01
Version:Normal
Source:機動戦士ガンダムSEED
Tags:mobile suit Gundam Seed strike freedom Opening 1
BeatmapID:1572971
BeatmapSetID:746295

[Difficulty]
HPDrainRate:3
CircleSize:4
OverallDifficulty:3
ApproachRate:2
SliderMultiplier:1.1
SliderTickRate:1

[Events]
//Background and Video events
Video,-280,"Video.mp4"
0,0,"bgbls.png",0,0
//Break Periods
2,8771,10178
//Storyboard Layer 0 (Background)
//Storyboard Layer 1 (Fail)
//Storyboard Layer 2 (Pass)
//Storyboard Layer 3 (Foreground)
//Storyboard Sound Samples

[TimingPoints]
0,612.244897959184,4,2,1,55,1,0
10069,394.736842105263,4,2,1,40,1,0
11738,394.736842105263,4,2,1,60,1,0
18053,-100,4,2,1,50,0,0
49632,-100,4,2,1,80,0,1
65224,-100,4,2,1,80,0,0
65422,-100,4,2,1,80,0,1
81211,-100,4,2,1,80,0,0
87922,-100,4,2,1,60,0,0
88316,-100,4,2,1,40,0,0
88711,-100,4,2,1,20,0,0
89106,-100,4,2,1,5,0,0

[HitObjects]
104,184,0,6,2,B|200:224|200:224|328:176,1,220
272,80,1836,1,2,0:0:0:0:
192,40,2448,2,2,B|104:112|104:112|192:208,1,220
256,144,4285,1,0,0:0:0:0:
360,208,4897,6,2,B|432:112|432:112|352:48,1,220
248,192,6734,1,2,0:0:0:0:
168,72,7346,2,2,B|96:112|96:112|136:144,1,110
256,192,8571,1,2,0:0:0:0:
248,72,11738,6,10,P|176:80|136:120,1,110,14|10,0:0|0:0,0:0:0:0:
96,176,12527,2,10,L|216:184,1,110
288,224,13316,5,10,0:0:0:0:
376,80,13711,2,10,L|376:208,1,110
336,304,14501,1,10,0:0:0:0:
352,64,14895,6,10,B|192:48|192:48|120:64,1,220
256,192,16474,12,10,17659,0:0:0:0:
408,176,18053,6,10,B|336:96|336:96|176:136|176:136|240:168,1,330,14|0,0:0|0:0,0:0:0:0:
288,320,19632,2,10,B|192:312|192:312|136:200|136:200|192:96,1,330,10|0,0:0|0:0,0:0:0:0:
392,240,21211,6,10,B|320:64|320:64|272:80,3,220,10|0|10|0,0:0|0:0|0:0|0:0,0:0:0:0:
376,64,24369,6,10,B|256:64|256:64|168:128|168:128|256:200,1,330
120,272,25948,2,10,B|360:312|360:312|376:208,1,330
160,72,27527,2,10,B|280:96|280:96|352:176|352:176|288:280,1,330
208,184,29106,6,10,B|336:32|336:32|400:160,1,330
256,192,30685,5,14,0:0:0:0:
424,328,31080,2,10,L|80:328,2,330
256,192,33843,5,0,0:0:0:0:
408,48,34237,2,10,L|72:48,2,330
256,192,37001,5,0,0:0:0:0:
394,26,37396,2,10,L|388:370,2,330
256,192,40159,5,0,0:0:0:0:
114,37,40553,2,10,L|108:373,2,330
384,88,43316,6,10,B|296:64|296:64|152:96,1,220,14|10,0:0|0:0,0:0:0:0:
406,201,44895,2,10,B|120:224|120:224|96:168,1,330
184,104,46474,2,10,P|272:80|296:96,1,110,10|0,0:0|0:0,0:0:0:0:
240,160,47264,2,10,P|312:160|336:120,1,110,10|0,0:0|0:0,0:0:0:0:
256,192,48053,12,10,49237,0:0:0:0:
392,120,49632,6,10,B|352:96|352:96|232:120|232:128|240:208,1,220,14|10,0:0|0:0,0:0:0:0:
176,272,50816,1,0,0:0:0:0:
200,336,51211,2,10,B|320:304|320:304|368:200,2,220,10|0|10,0:0|0:0|0:0,0:0:0:0:
392,64,53185,6,10,L|272:56,2,110,10|0|10,0:0|0:0|0:0,0:0:0:0:
368,144,54369,1,10,0:0:0:0:
368,200,54764,2,10,L|248:216,2,110,10|0|10,0:0|0:0|0:0,0:0:0:0:
120,144,55948,6,10,B|152:88|152:88|312:64,1,220
248,152,57132,1,0,0:0:0:0:
344,152,57527,2,10,B|328:224|328:224|184:256,2,220,10|0|10,0:0|0:0|0:0,0:0:0:0:
88,112,59501,6,10,L|80:224,2,110,10|0|10,0:0|0:0|0:0,0:0:0:0:
168,112,60685,1,10,0:0:0:0:
240,120,61080,2,10,L|240:232,2,110,10|0|10,0:0|0:0|0:0,0:0:0:0:
376,72,62264,6,10,B|272:184|272:184|232:240,2,220,10|0|10,0:0|0:0|0:0,0:0:0:0:
256,192,64040,12,10,65027,0:0:0:0:
160,96,65422,6,10,B|240:40|240:40|352:56|352:56|368:64,1,220,14|10,0:0|0:0,0:0:0:0:
256,152,66606,1,0,0:0:0:0:
152,200,67001,2,10,B|232:304|232:304|328:280,2,220,10|0|10,0:0|0:0|0:0,0:0:0:0:
256,120,68974,6,10,L|256:0,2,110,10|0|10,0:0|0:0|0:0,0:0:0:0:
256,200,70159,1,0,0:0:0:0:
256,272,70553,2,10,L|256:384,2,110,10|0|10,0:0|0:0|0:0,0:0:0:0:
160,96,71737,6,10,P|224:64|368:104,1,220
384,264,72922,1,0,0:0:0:0:
104,240,73316,2,10,P|176:304|304:304,2,220,10|0|10,0:0|0:0|0:0,0:0:0:0:
152,168,75290,6,10,L|152:48,2,110,10|0|10,0:0|0:0|0:0,0:0:0:0:
256,168,76474,1,10,0:0:0:0:
368,168,76869,2,10,L|368:280,2,110,10|0|10,0:0|0:0|0:0,0:0:0:0:
72,224,78053,6,10,P|224:160|272:168,2,220,10|0|10,0:0|0:0|0:0,0:0:0:0:
256,192,79830,12,10,80816,0:0:0:0:
440,80,81211,6,10,L|320:80,2,110,4|10|0,0:0|0:0|0:0,0:0:0:0:
440,168,82395,1,10,0:0:0:0:
440,248,82790,2,10,L|320:248,2,110,0|10|0,0:0|0:0|0:0,0:0:0:0:
440,336,83974,1,10,0:0:0:0:
72,80,84369,6,10,L|192:80,2,110,0|10|0,0:0|0:0|0:0,0:0:0:0:
72,168,85553,1,10,0:0:0:0:
72,248,85948,2,10,L|192:248,2,110,0|10|0,0:0|0:0|0:0,0:0:0:0:
72,336,87132,1,10,0:0:0:0:
256,192,87527,1,14,0:0:0:0:
