osu file format v14

[General]
AudioFilename: audio.mp3
AudioLeadIn: 0
PreviewTime: 49435
Countdown: 0
SampleSet: Soft
StackLeniency: 0.7
Mode: 0
LetterboxInBreaks: 0
WidescreenStoryboard: 1

[Editor]
DistanceSpacing: 1.1
BeatDivisor: 4
GridSize: 8
TimelineZoom: 1

[Metadata]
Title:INVOKE (TV Size)
TitleUnicode:INVOKE -インヴォーク- (TV Size)
Artist:T.M.Revolution
ArtistUnicode:T.M.Revolution
Creator:Satou Kazuma01
Version:Hard
Source:機動戦士ガンダムSEED
Tags:mobile suit Gundam Seed strike freedom Opening 1
BeatmapID:1572969
BeatmapSetID:746295

[Difficulty]
HPDrainRate:6
CircleSize:5
OverallDifficulty:4
ApproachRate:5
SliderMultiplier:1.4
SliderTickRate:1

[Events]
//Background and Video events
Video,-280,"Video.mp4"
0,0,"bgnnt.jpg",0,0
//Break Periods
2,8771,10538
//Storyboard Layer 0 (Background)
//Storyboard Layer 1 (Fail)
//Storyboard Layer 2 (Pass)
//Storyboard Layer 3 (Foreground)
//Storyboard Sound Samples

[TimingPoints]
0,612.244897959184,4,2,1,55,1,0
10069,394.736842105263,4,2,1,40,1,0
11738,394.736842105263,4,2,1,60,1,0
18053,-100,4,2,1,50,0,0
49632,-100,4,2,1,80,0,1
65224,-100,4,2,1,80,0,0
65422,-100,4,2,1,80,0,1
81211,-100,4,2,1,80,0,0
87922,-100,4,2,1,60,0,0
88316,-100,4,2,1,40,0,0
88711,-100,4,2,1,20,0,0
89106,-100,4,2,1,5,0,0

[HitObjects]
104,240,0,6,2,P|168:208|232:192,2,105
168,288,1224,2,2,P|256:304|304:272,1,140
336,264,2142,1,0,0:0:0:0:
360,240,2448,2,2,B|408:160|408:160|352:120,1,140
304,160,3367,1,0,0:0:0:0:
248,192,3673,1,2,0:0:0:0:
288,112,3979,6,0,L|240:96,2,35
192,72,4591,6,2,P|136:88|144:112,1,70
32,120,5204,2,0,L|32:208,1,70
96,264,5816,2,2,P|152:280|160:280,1,35
192,232,6122,5,2,0:0:0:0:
192,232,6428,1,0,0:0:0:0:
312,232,6734,1,2,0:0:0:0:
312,232,7040,1,0,0:0:0:0:
400,144,7346,6,2,P|344:104|296:96,2,105
256,192,8571,1,2,0:0:0:0:
288,232,11738,6,10,P|328:208|352:120,1,140,4|10,0:0|0:0,0:0:0:0:
336,32,12330,1,10,0:0:0:0:
280,104,12527,2,10,P|200:104|160:168,1,140,0|10,0:0|0:0,0:0:0:0:
160,216,13119,1,10,0:0:0:0:
192,320,13316,6,10,L|344:304,1,140,0|10,0:0|0:0,0:0:0:0:
416,192,14106,2,10,L|368:136,2,70,0|10|10,0:0|0:0|0:0,0:0:0:0:
272,64,14895,6,10,P|152:120|152:128,1,140,0|10,0:0|0:0,0:0:0:0:
136,200,15685,2,10,B|224:208|224:208|256:160,1,140,0|10,0:0|0:0,0:0:0:0:
352,160,16474,2,10,P|336:104|288:64,2,105,0|10|10,0:0|0:0|0:0,0:0:0:0:
256,216,17659,1,10,0:0:0:0:
112,128,18053,6,10,P|160:80|224:96,1,140,4|10,0:0|0:0,0:0:0:0:
224,216,18645,2,10,L|376:200,2,140,0|10|0,0:0|0:0|0:0,0:0:0:0:
192,112,19830,6,10,P|224:40|232:24,1,70,0|10,0:0|0:0,0:0:0:0:
312,64,20224,2,10,P|352:72|368:104,1,70,0|0,0:0|0:0,0:0:0:0:
271,162,20816,1,10,0:0:0:0:
320,80,21014,1,0,0:0:0:0:
320,80,21211,6,10,P|264:64|184:112,1,140,0|10,0:0|0:0,0:0:0:0:
184,208,21803,2,10,L|320:264,1,140,0|10,0:0|0:0,0:0:0:0:
392,218,22593,2,0,P|448:194|456:162,1,70,0|10,0:0|0:0,0:0:0:0:
384,72,22987,6,10,P|304:56|288:56,1,70,0|10,0:0|0:0,0:0:0:0:
344,136,23382,2,10,P|328:192|184:224,1,210,0|10,0:0|0:0,0:0:0:0:
264,104,24172,1,10,0:0:0:0:
144,136,24369,6,10,P|176:104|208:96,2,70,0|10|10,0:0|0:0|0:0,0:0:0:0:
104,232,24961,2,10,P|168:288|232:264,1,140,0|10,0:0|0:0,0:0:0:0:
320,272,25553,1,10,0:0:0:0:
432,224,25751,6,0,P|392:176|336:112,1,140,10|0,0:0|0:0,0:0:0:0:
256,48,26343,1,10,0:0:0:0:
168,64,26540,2,10,B|80:80|80:80|129:196,1,210,0|10,0:0|0:0,0:0:0:0:
80,264,27330,1,0,0:0:0:0:
176,286,27527,6,10,P|256:286|312:238,1,140,0|10,0:0|0:0,0:0:0:0:
336,160,28119,2,10,P|312:96|232:64,1,140,0|10,0:0|0:0,0:0:0:0:
104,43,28909,6,10,P|112:155|200:203,2,210,0|10|10,0:0|0:0|0:0,0:0:0:0:
288,80,30290,1,10,0:0:0:0:
288,80,30487,1,0,0:0:0:0:
401,104,30685,6,10,P|449:192|433:224,1,140,4|10,0:0|0:0,0:0:0:0:
334,263,31277,2,10,L|174:255,1,140,0|10,0:0|0:0,0:0:0:0:
120,184,32066,6,10,L|120:32,1,140,0|10,0:0|0:0,0:0:0:0:
236,52,32856,2,10,P|316:36|316:36,1,70,10|0,0:0|0:0,0:0:0:0:
328,160,33448,1,10,0:0:0:0:
40,80,33843,6,10,P|64:192|80:192,1,140,0|10,0:0|0:0,0:0:0:0:
144,200,34435,2,10,L|288:208,1,140,0|10,0:0|0:0,0:0:0:0:
399,193,35224,6,10,B|455:81|447:41|447:41|383:41,2,210,0|10|10,0:0|0:0|0:0,0:0:0:0:
325,184,36606,1,10,0:0:0:0:
248,144,36803,1,0,0:0:0:0:
272,72,37001,6,10,P|168:80|160:104,1,140,0|10,0:0|0:0,0:0:0:0:
136,198,37593,2,10,P|176:230|272:214,1,140,0|10,0:0|0:0,0:0:0:0:
379,124,38382,2,10,B|443:220|443:220|427:260,1,140,0|10,0:0|0:0,0:0:0:0:
290,104,39172,2,10,P|242:104|218:120,1,70,10|0,0:0|0:0,0:0:0:0:
256,192,39764,1,10,0:0:0:0:
113,82,40159,6,10,B|120:144|120:144|191:193,1,140,0|10,0:0|0:0,0:0:0:0:
248,240,40751,2,10,B|352:248|352:248|384:192,1,140,0|10,0:0|0:0,0:0:0:0:
416,64,41540,6,10,L|200:64,2,210,0|10|10,0:0|0:0|0:0,0:0:0:0:
256,128,42922,1,10,0:0:0:0:
256,128,43119,1,0,0:0:0:0:
256,128,43316,6,10,P|200:136|184:160,2,70,4|10|10,0:0|0:0|0:0,0:0:0:0:
360,144,43909,2,10,B|408:168|408:168|416:256,1,140,0|10,0:0|0:0,0:0:0:0:
296,304,44698,6,10,P|240:272|232:248,1,70,10|0,0:0|0:0,0:0:0:0:
305,159,45093,2,10,P|241:167|217:183,1,70,0|10,0:0|0:0,0:0:0:0:
89,198,45487,2,10,P|73:158|81:110,1,70,0|10,0:0|0:0,0:0:0:0:
208,100,45882,2,10,P|256:116|352:84,1,140,0|10,0:0|0:0,0:0:0:0:
390,169,46376,1,10,0:0:0:0:
390,169,46474,6,10,B|454:281|454:281|430:297,1,140,0|10,0:0|0:0,0:0:0:0:
313,147,47264,2,10,L|201:243,1,140,0|10,0:0|0:0,0:0:0:0:
191,33,48053,2,0,B|303:97|303:97|287:249,1,280
288,248,49237,1,0,0:0:0:0:
129,94,49632,6,10,P|174:46|241:38,2,105,4|10|10,0:0|0:0|0:0,0:0:0:0:
164,160,50422,2,10,P|236:200|300:160,1,140,0|10,0:0|0:0,0:0:0:0:
402,227,51014,1,10,0:0:0:0:
426,152,51211,6,10,B|410:72|410:72|330:64,1,140,0|10,0:0|0:0,0:0:0:0:
240,120,52001,1,0,0:0:0:0:
180,198,52395,1,10,0:0:0:0:
98,260,52593,1,0,0:0:0:0:
104,264,52691,1,10,0:0:0:0:
104,264,52790,6,0,B|128:152|128:152|240:152,1,210
256,184,53481,1,10,0:0:0:0:
296,224,53580,2,0,P|344:184|344:104,1,140,0|10,0:0|0:0,0:0:0:0:
336,32,54369,6,10,P|280:32|216:48,2,105,0|10|10,0:0|0:0|0:0,0:0:0:0:
256,176,55159,1,0,0:0:0:0:
208,128,55553,1,0,0:0:0:0:
208,128,55751,1,10,0:0:0:0:
208,128,55948,6,10,P|152:152|136:208,2,105,0|10|10,0:0|0:0|0:0,0:0:0:0:
251,238,56737,2,10,L|387:294,1,140,0|10,0:0|0:0,0:0:0:0:
416,176,57527,6,10,P|443:126|408:64,2,105,0|10|10,0:0|0:0|0:0,0:0:0:0:
416,176,58316,1,0,0:0:0:0:
334,192,58711,1,10,0:0:0:0:
269,193,58909,1,0,0:0:0:0:
208,192,59106,6,10,P|144:176|136:96,1,140,0|10,0:0|0:0,0:0:0:0:
217,49,59698,2,10,L|369:49,2,140,0|0|10,0:0|0:0|0:0,0:0:0:0:
121,175,60685,6,10,B|161:231|161:231|321:247,1,210,0|10,0:0|0:0,0:0:0:0:
408,192,61474,6,10,P|400:144|304:96,1,140,0|10,0:0|0:0,0:0:0:0:
328,94,62066,1,10,0:0:0:0:
280,200,62264,6,10,B|283:261|283:261|191:262,1,140,0|10,0:0|0:0,0:0:0:0:
163,215,62856,2,10,L|163:127,1,70,10|0,0:0|0:0,0:0:0:0:
280,112,63448,1,10,0:0:0:0:
272,42,63843,6,10,L|184:42,1,70,0|10,0:0|0:0,0:0:0:0:
112,72,64237,2,10,P|88:112|232:248,1,280
336,224,65224,1,0,0:0:0:0:
425,165,65422,6,10,P|385:77|377:77,2,105,4|10|10,0:0|0:0|0:0,0:0:0:0:
280,72,66211,2,10,P|232:80|152:136,1,140,0|10,0:0|0:0,0:0:0:0:
157,129,66803,1,0,0:0:0:0:
136,248,67001,6,10,P|200:256|280:200,1,140,0|10,0:0|0:0,0:0:0:0:
306,201,67790,1,0,0:0:0:0:
364,135,68185,1,10,0:0:0:0:
419,74,68382,6,10,L|371:58,1,35,0|10,0:0|0:0,0:0:0:0:
304,49,68580,6,0,B|264:49|264:49|136:169,1,210,10|10,0:0|0:0,0:0:0:0:
144,168,69270,1,10,0:0:0:0:
144,168,69369,2,10,P|156:281|172:289,1,140,0|10,0:0|0:0,0:0:0:0:
312,312,70159,6,10,P|392:272|400:240,2,105,0|10|10,0:0|0:0|0:0,0:0:0:0:
144,272,70948,2,10,P|112:256|104:144,1,140,0|10,0:0|0:0,0:0:0:0:
224,168,71540,1,10,0:0:0:0:
224,88,71737,6,10,P|288:88|352:112,2,105,0|10|10,0:0|0:0|0:0,0:0:0:0:
128,104,72527,2,10,P|160:168|240:216,1,140,0|10,0:0|0:0,0:0:0:0:
376,168,73316,6,10,P|392:240|384:240,2,105,0|10|10,0:0|0:0|0:0,0:0:0:0:
346,143,74106,2,10,B|306:143|306:143|258:55,1,140,0|10,0:0|0:0,0:0:0:0:
208,96,74698,1,10,0:0:0:0:
91,100,74895,6,10,B|139:188|139:188|179:196,1,140,0|10,0:0|0:0,0:0:0:0:
272,232,75487,2,10,L|416:224,1,140,0|10,0:0|0:0,0:0:0:0:
480,168,76277,6,10,B|480:96|480:96|328:88,2,210,0|10|0,0:0|0:0|0:0,0:0:0:0:
435,183,77659,1,10,0:0:0:0:
394,178,77757,1,10,0:0:0:0:
336,153,77856,1,0,0:0:0:0:
280,128,77955,1,10,0:0:0:0:
336,88,78053,6,10,P|272:64|176:64,1,140,0|10,0:0|0:0,0:0:0:0:
108,111,78645,2,10,P|108:175|132:191,1,70,10|0,0:0|0:0,0:0:0:0:
224,208,79237,1,10,0:0:0:0:
322,233,79632,6,10,P|378:225|378:217,1,70,0|10,0:0|0:0,0:0:0:0:
408,128,80027,2,10,P|304:80|136:64,1,280
256,128,81014,1,0,0:0:0:0:
350,108,81211,6,10,P|350:172|342:188,1,70,4|10,0:0|0:0,0:0:0:0:
291,268,81606,2,10,L|211:276,1,70
178,170,82001,2,10,L|178:98,1,70,0|10,0:0|0:0,0:0:0:0:
112,96,82395,2,10,L|112:176,1,70
108,283,82790,6,10,P|180:315|204:291,2,105,0|10|10,0:0|0:0|0:0,0:0:0:0:
58,143,83580,2,10,P|106:95|146:87,2,105,0|10|10,0:0|0:0|0:0,0:0:0:0:
364,231,84369,6,10,P|396:191|396:159,1,70,0|10,0:0|0:0,0:0:0:0:
386,53,84764,2,10,L|314:53,1,70
212,105,85159,2,10,P|196:153|212:169,1,70,0|10,0:0|0:0,0:0:0:0:
151,292,85553,2,10,P|199:332|223:332,1,70
326,271,85948,6,10,P|382:207|382:199,1,70,0|10,0:0|0:0,0:0:0:0:
368,72,86343,2,10,P|328:80|288:96,1,70
240,104,86639,1,0,0:0:0:0:
176,112,86737,5,10,0:0:0:0:
136,144,86836,1,0,0:0:0:0:
104,176,86935,1,10,0:0:0:0:
104,208,87034,1,0,0:0:0:0:
128,248,87132,5,10,0:0:0:0:
184,264,87231,1,0,0:0:0:0:
232,240,87330,1,10,0:0:0:0:
248,208,87428,1,0,0:0:0:0:
256,192,87527,5,14,0:0:0:0:
