osu file format v14

[General]
AudioFilename: audio.mp3
AudioLeadIn: 0
PreviewTime: 49435
Countdown: 0
SampleSet: Soft
StackLeniency: 0.7
Mode: 0
LetterboxInBreaks: 0
WidescreenStoryboard: 1

[Editor]
DistanceSpacing: 1.1
BeatDivisor: 4
GridSize: 8
TimelineZoom: 1

[Metadata]
Title:INVOKE (TV Size)
TitleUnicode:INVOKE -インヴォーク- (TV Size)
Artist:T.M.Revolution
ArtistUnicode:T.M.Revolution
Creator:Satou Kazuma01
Version:Expert
Source:機動戦士ガンダムSEED
Tags:mobile suit Gundam Seed strike freedom Opening 1
BeatmapID:1572968
BeatmapSetID:746295

[Difficulty]
HPDrainRate:8
CircleSize:6
OverallDifficulty:8
ApproachRate:9
SliderMultiplier:2
SliderTickRate:1

[Events]
//Background and Video events
Video,-280,"Video.mp4"
0,0,"bghn.jpg",0,0
//Break Periods
2,8771,11138
//Storyboard Layer 0 (Background)
//Storyboard Layer 1 (Fail)
//Storyboard Layer 2 (Pass)
//Storyboard Layer 3 (Foreground)
//Storyboard Sound Samples

[TimingPoints]
0,612.244897959184,4,2,1,55,1,0
10069,394.736842105263,4,2,1,40,1,0
11738,394.736842105263,4,2,1,60,1,0
18053,-100,4,2,1,50,0,0
49632,-100,4,2,1,80,0,1
65224,-100,4,2,1,80,0,0
65422,-100,4,2,1,80,0,1
81211,-100,4,2,1,80,0,0
87922,-100,4,2,1,60,0,0
88316,-100,4,2,1,40,0,0
88711,-100,4,2,1,20,0,0
89106,-100,4,2,1,5,0,0

[HitObjects]
72,176,0,6,2,P|120:144|224:120,1,150
232,64,612,2,0,P|288:64|328:80,1,100,0|2,0:0|0:0,0:0:0:0:
320,144,1071,1,0,0:0:0:0:
334,219,1224,5,2,0:0:0:0:
432,80,1377,1,0,0:0:0:0:
440,200,1530,2,0,P|472:216|464:256,1,50
424,304,1836,2,0,L|368:320,1,50,2|0,0:0|0:0,0:0:0:0:
412,249,2142,1,0,0:0:0:0:
340,268,2295,1,0,0:0:0:0:
352,168,2448,6,0,P|368:112|336:80,1,100,2|0,0:0|0:0,0:0:0:0:
248,144,2908,1,0,0:0:0:0:
160,64,3061,2,0,P|120:120|144:160,1,100,2|0,0:0|0:0,0:0:0:0:
168,192,3520,1,0,0:0:0:0:
232,328,3673,2,0,P|296:312|328:288,1,100,2|0,0:0|0:0,0:0:0:0:
349,169,4132,1,0,0:0:0:0:
344,112,4285,2,0,P|288:120|240:144,1,100,0|2,0:0|0:0,0:0:0:0:
196,126,4744,1,0,0:0:0:0:
152,144,4897,6,0,P|192:200|224:208,2,100,2|0|0,0:0|0:0|0:0,0:0:0:0:
64,88,5663,1,0,0:0:0:0:
152,56,5816,2,2,P|192:24|232:24,1,50
288,56,6122,2,2,P|355:93|432:192,1,200
426,243,6887,1,0,0:0:0:0:
374,249,7040,2,0,L|314:259,1,50
264,258,7346,6,2,P|191:260|126:196,2,150
256,177,8418,1,0,0:0:0:0:
256,177,8571,5,2,0:0:0:0:
390,105,11738,6,0,P|314:89|265:106,1,100,4|0,0:0|0:0,0:0:0:0:
227,97,12034,1,0,0:0:0:0:
153,120,12132,2,0,P|200:168|234:163,1,100,10|0,0:0|0:0,0:0:0:0:
288,240,12527,6,0,P|384:210|402:189,2,100,0|0|10,0:0|0:0|0:0,0:0:0:0:
200,136,13119,2,0,L|241:92,1,50
385,60,13316,6,0,P|316:42|261:61,2,100,0|0|8,0:0|0:0|0:0,0:0:0:0:
408,128,13909,2,0,B|382:172|382:172|334:181,1,100
295,87,14303,2,0,P|223:89|199:120,1,100,0|8,0:0|0:0,0:0:0:0:
147,178,14698,1,0,0:0:0:0:
194,299,14895,6,0,P|258:283|286:243,1,100
384,224,15290,2,0,B|436:219|436:219|434:158,1,100,8|0,0:0|0:0,0:0:0:0:
315,133,15685,5,0,0:0:0:0:
232,176,15784,1,0,0:0:0:0:
168,176,15882,1,8,0:0:0:0:
64,128,15981,1,0,0:0:0:0:
104,56,16080,1,8,0:0:0:0:
152,48,16178,1,0,0:0:0:0:
208,48,16277,1,8,0:0:0:0:
272,64,16376,1,0,0:0:0:0:
265,122,16474,6,0,B|318:170|318:170|324:262,2,150,0|10|10,0:0|0:0|0:0,0:0:0:0:
184,200,17264,2,0,P|118:196|23:158,2,150,0|10|10,0:0|0:0|0:0,0:0:0:0:
395,47,18053,6,0,B|454:87|454:87|436:137,1,100,4|0,0:0|0:0,0:0:0:0:
391,162,18448,2,0,L|270:157,1,100,10|0,0:0|0:0,0:0:0:0:
243,190,18843,2,0,P|168:195|135:241,1,100
88,152,19237,2,0,B|43:130|43:130|46:77,1,100,10|0,0:0|0:0,0:0:0:0:
136,48,19632,6,0,P|233:46|267:55,1,100
296,88,20027,2,0,P|358:118|384:152,1,100,10|0,0:0|0:0,0:0:0:0:
434,200,20323,1,0,0:0:0:0:
431,197,20422,2,0,P|374:222|345:260,1,100
280,152,20816,2,0,B|226:126|226:126|204:173,1,100,10|0,0:0|0:0,0:0:0:0:
174,237,21211,6,0,P|232:254|272:233,1,100
320,208,21606,2,0,L|434:176,1,100,10|0,0:0|0:0,0:0:0:0:
320,88,22001,2,0,P|279:136|220:146,1,100
176,56,22395,2,0,P|248:40|312:40,1,100,10|0,0:0|0:0,0:0:0:0:
392,88,22790,6,0,P|385:163|342:187,1,100
342,226,23185,2,0,P|281:231|239:228,2,100,10|0|0,0:0|0:0|0:0,0:0:0:0:
342,226,23678,2,0,L|357:278,1,50
286,293,23974,1,10,0:0:0:0:
217,213,24172,1,0,0:0:0:0:
160,32,24369,6,0,P|76:47|53:61,2,100,0|0|10,0:0|0:0|0:0,0:0:0:0:
227,27,24961,2,0,B|283:79|283:79|322:61,2,100
173,85,25553,1,10,0:0:0:0:
274,133,25751,1,0,0:0:0:0:
414,139,25948,6,0,B|410:206|410:206|370:205,2,100,0|0|10,0:0|0:0|0:0,0:0:0:0:
288,320,26540,2,0,P|272:264|288:216,2,100
360,168,27034,1,0,0:0:0:0:
320,160,27132,1,10,0:0:0:0:
288,160,27231,1,0,0:0:0:0:
288,160,27330,1,10,0:0:0:0:
248,128,27428,1,0,0:0:0:0:
195,89,27527,6,0,P|125:137|130:153,2,100,0|0|10,0:0|0:0|0:0,0:0:0:0:
195,89,28119,2,0,P|261:103|348:205,1,200
321,235,28711,2,0,P|257:237|226:200,2,100,10|10|0,0:0|0:0|0:0,0:0:0:0:
406,172,29303,6,0,B|447:118|447:118|415:67,1,100,0|10,0:0|0:0,0:0:0:0:
362,77,29698,2,0,L|306:76,2,50
362,77,30093,2,0,P|353:148|306:178,1,100,0|10,0:0|0:0,0:0:0:0:
304,80,30487,1,0,0:0:0:0:
268,134,30685,6,0,P|246:188|193:209,1,100,4|0,0:0|0:0,0:0:0:0:
160,192,30981,1,0,0:0:0:0:
124,161,31080,2,0,B|112:102|112:102|157:70,1,100,10|0,0:0|0:0,0:0:0:0:
208,64,31474,2,0,B|276:64|277:64|277:64|320:7,1,100
280,168,31869,2,0,B|324:205|324:205|402:213,1,100,10|0,0:0|0:0,0:0:0:0:
417,141,32165,1,0,0:0:0:0:
352,104,32264,5,0,0:0:0:0:
280,112,32461,2,0,L|256:56,2,50,2|0|8,0:0|0:0|0:0,0:0:0:0:
248,256,32856,2,0,L|288:288,2,50,2|0|8,0:0|0:0|0:0,0:0:0:0:
160,168,33251,2,0,L|200:208,2,50
80,208,33645,1,0,0:0:0:0:
48,160,33744,1,0,0:0:0:0:
96,32,33843,6,0,L|199:32,1,100
96,352,34237,2,0,L|212:349,1,100,10|0,0:0|0:0,0:0:0:0:
296,32,34632,2,0,L|178:32,1,100
295,353,35027,2,0,L|177:348,1,100,10|0,0:0|0:0,0:0:0:0:
352,344,35422,6,0,L|468:346,1,100
352,32,35816,2,0,L|463:33,1,100,10|0,0:0|0:0,0:0:0:0:
352,344,36211,2,0,L|248:342,1,100
352,32,36606,2,0,L|232:32,1,100,10|0,0:0|0:0,0:0:0:0:
70,42,37001,6,0,P|81:99|109:148,1,100
280,88,37395,1,10,0:0:0:0:
328,224,37593,1,10,0:0:0:0:
328,224,37691,1,0,0:0:0:0:
328,224,37790,1,10,0:0:0:0:
195,147,37987,1,0,0:0:0:0:
199,87,38185,2,0,P|275:76|311:83,1,100,10|0,0:0|0:0,0:0:0:0:
351,87,38481,1,0,0:0:0:0:
440,32,38580,6,0,P|456:82|430:137,1,100
400,224,38974,2,0,P|332:212|299:232,1,100,10|0,0:0|0:0,0:0:0:0:
241,133,39369,2,10,P|211:178|226:242,1,100
269,297,39764,2,0,L|170:298,1,100,10|0,0:0|0:0,0:0:0:0:
134,224,40159,6,0,P|76:187|75:155,2,100,0|0|10,0:0|0:0|0:0,0:0:0:0:
256,227,40751,1,0,0:0:0:0:
354,229,40948,2,0,P|417:227|438:264,2,100,0|0|10,0:0|0:0|0:0,0:0:0:0:
256,227,41540,1,0,0:0:0:0:
224,174,41737,6,0,L|163:89,1,100
284,175,42132,2,0,L|349:79,1,100,10|0,0:0|0:0,0:0:0:0:
262,33,42527,2,0,L|261:85,3,50,0|0|10|0,0:0|0:0|0:0|0:0,0:0:0:0:
260,188,42922,2,0,L|261:125,3,50,10|0|10|0,0:0|0:0|0:0|0:0,0:0:0:0:
206,53,43316,6,0,P|150:66|116:130,1,100,4|0,0:0|0:0,0:0:0:0:
36,196,43711,2,0,P|96:206|156:184,1,100,10|0,0:0|0:0,0:0:0:0:
313,183,44106,2,0,P|407:177|445:193,2,100,0|0|10,0:0|0:0|0:0,0:0:0:0:
262,189,44698,1,0,0:0:0:0:
262,189,44895,6,0,B|263:239|263:239|195:244,1,100
121,224,45290,2,0,P|73:186|54:126,1,100,10|0,0:0|0:0,0:0:0:0:
113,67,45685,2,0,P|200:54|243:59,1,100
276,130,46080,2,0,P|324:97|372:82,1,100,8|0,0:0|0:0,0:0:0:0:
414,55,46474,6,0,P|475:97|479:141,1,100,4|0,0:0|0:0,0:0:0:0:
487,160,46869,2,0,L|485:275,1,100,10|0,0:0|0:0,0:0:0:0:
424,304,47264,5,4,0:0:0:0:
320,312,47362,1,0,0:0:0:0:
240,304,47461,1,10,0:0:0:0:
112,288,47560,1,0,0:0:0:0:
160,248,47659,5,10,0:0:0:0:
184,248,47708,1,0,0:0:0:0:
208,248,47757,1,0,0:0:0:0:
224,248,47807,1,0,0:0:0:0:
240,256,47856,1,10,0:0:0:0:
272,256,47905,1,0,0:0:0:0:
288,256,47955,1,0,0:0:0:0:
307,234,48053,6,14,P|263:191|170:171,2,150,4|14|14,0:0|0:0|0:0,0:0:0:0:
164,243,48843,2,14,P|123:302|31:305,2,150,4|14|14,0:0|0:0|0:0,0:0:0:0:
284,88,49632,6,0,P|225:107|205:137,1,100,4|0,0:0|0:0,0:0:0:0:
206,142,50027,1,10,0:0:0:0:
265,223,50224,1,10,0:0:0:0:
265,223,50422,6,0,P|316:207|362:129,1,100
401,50,50816,2,10,L|314:52,3,50
231,52,51211,6,0,P|160:72|108:135,2,150,0|10|10,0:0|0:0|0:0,0:0:0:0:
295,72,52001,5,0,0:0:0:0:
299,168,52198,1,10,0:0:0:0:
413,111,52395,1,10,0:0:0:0:
450,163,52593,1,10,0:0:0:0:
363,223,52790,6,0,P|277:277|164:232,1,200,0|10,0:0|0:0,0:0:0:0:
215,207,53382,1,10,0:0:0:0:
244,167,53481,1,0,0:0:0:0:
281,127,53580,1,0,0:0:0:0:
281,127,53777,2,0,P|362:139|412:170,2,100,0|10|0,0:0|0:0|0:0,0:0:0:0:
53,44,54369,6,0,L|50:208,2,150,0|8|10,0:0|0:0|0:0,0:0:0:0:
122,52,55159,2,0,P|186:62|223:91,1,100
256,122,55553,1,10,0:0:0:0:
326,105,55652,1,0,0:0:0:0:
280,176,55751,1,10,0:0:0:0:
344,170,55849,1,0,0:0:0:0:
441,165,55948,6,0,P|417:263|367:292,2,150,4|10|10,0:0|0:0|0:0,0:0:0:0:
472,125,56737,2,0,P|422:73|369:78,1,100
250,49,57132,2,0,P|154:51|116:70,1,100,10|0,0:0|0:0,0:0:0:0:
307,201,57527,6,0,P|274:247|169:263,2,150,0|10|10,0:0|0:0|0:0,0:0:0:0:
210,130,58316,1,0,0:0:0:0:
314,173,58514,1,10,0:0:0:0:
314,173,58612,1,0,0:0:0:0:
314,173,58711,1,10,0:0:0:0:
311,70,58909,1,0,0:0:0:0:
261,214,59106,6,0,P|177:210|151:229,1,100
95,142,59501,2,0,B|101:72|101:72|145:56,1,100,10|0,0:0|0:0,0:0:0:0:
185,129,59895,2,0,L|243:136,3,50,0|0|10|0,0:0|0:0|0:0|0:0,0:0:0:0:
260,35,60290,2,0,L|322:46,3,50,10|0|10|0,0:0|0:0|0:0|0:0,0:0:0:0:
288,128,60685,5,0,0:0:0:0:
400,216,60882,1,0,0:0:0:0:
168,216,61080,1,10,0:0:0:0:
288,312,61277,1,10,0:0:0:0:
168,320,61474,6,0,P|112:320|80:312,3,50,0|0|10|0,0:0|0:0|0:0|0:0,0:0:0:0:
208,208,61869,2,0,L|208:152,3,50,0|0|10|0,0:0|0:0|0:0|0:0,0:0:0:0:
63,187,62264,6,0,B|13:154|13:154|25:111,1,100
128,160,62659,2,0,P|222:158|241:139,1,100,10|0,0:0|0:0,0:0:0:0:
199,20,63053,2,0,L|312:26,1,100
276,165,63448,2,0,P|354:209|394:216,1,100,10|0,0:0|0:0,0:0:0:0:
363,211,63843,5,0,0:0:0:0:
363,211,63941,1,0,0:0:0:0:
367,313,64040,1,10,0:0:0:0:
367,313,64139,1,0,0:0:0:0:
296,216,64237,1,10,0:0:0:0:
296,216,64336,1,0,0:0:0:0:
224,328,64435,1,10,0:0:0:0:
224,328,64534,1,0,0:0:0:0:
129,288,64632,6,0,L|74:266,3,50,0|0|10|0,0:0|0:0|0:0|0:0,0:0:0:0:
35,194,65027,2,0,L|14:135,3,50,10|0|10|0,0:0|0:0|0:0|0:0,0:0:0:0:
94,103,65422,6,0,P|148:60|157:28,1,100,4|0,0:0|0:0,0:0:0:0:
238,84,65718,2,0,L|300:88,1,50,0|8,0:0|0:0,0:0:0:0:
376,80,66014,2,0,B|457:107|457:107|453:146,1,100
400,143,66409,1,8,0:0:0:0:
361,193,66507,1,0,0:0:0:0:
309,242,66606,2,0,P|241:239|209:221,1,100,8|0,0:0|0:0,0:0:0:0:
249,93,67001,6,0,P|172:102|91:153,2,150,0|10|10,0:0|0:0|0:0,0:0:0:0:
376,40,67790,2,0,L|443:71,1,50
456,152,67987,2,0,L|490:220,1,50,10|0,0:0|0:0,0:0:0:0:
417,276,68185,2,0,L|357:286,1,50,10|0,0:0|0:0,0:0:0:0:
233,258,68382,2,0,L|180:227,1,50,10|0,0:0|0:0,0:0:0:0:
214,112,68580,5,0,0:0:0:0:
304,48,68777,1,10,0:0:0:0:
400,104,68974,2,0,P|434:144|412:223,1,100,10|0,0:0|0:0,0:0:0:0:
377,241,69270,2,0,L|335:280,1,50,0|10,0:0|0:0,0:0:0:0:
200,296,69566,2,0,P|143:293|101:258,2,100,0|10|0,0:0|0:0|0:0,0:0:0:0:
332,153,70159,6,0,P|340:87|278:9,2,150,0|10|10,0:0|0:0|0:0,0:0:0:0:
288,232,70948,2,0,P|198:198|148:212,2,150,0|10|10,0:0|0:0|0:0,0:0:0:0:
400,304,71737,6,0,P|470:293|492:265,1,100
472,144,72132,2,0,B|457:98|454:94|398:67,1,100,10|0,0:0|0:0,0:0:0:0:
272,120,72428,1,0,0:0:0:0:
272,120,72527,2,0,P|286:192|310:217,3,100,0|0|10|0,0:0|0:0|0:0|0:0,0:0:0:0:
344,280,73316,6,0,B|394:281|394:281|459:198,2,150,0|10|10,0:0|0:0|0:0,0:0:0:0:
321,138,74106,2,0,L|202:141,3,100,0|0|10|0,0:0|0:0|0:0|0:0,0:0:0:0:
161,249,74895,6,0,P|128:201|161:153,1,100
199,130,75290,1,10,0:0:0:0:
301,136,75487,1,10,0:0:0:0:
404,135,75685,2,0,L|452:247,1,100
373,232,76080,1,10,0:0:0:0:
333,228,76178,1,0,0:0:0:0:
298,230,76277,6,0,P|206:247|95:206,1,200
158,165,76869,2,0,P|153:122|128:58,1,100,10|0,0:0|0:0,0:0:0:0:
220,31,77264,2,0,P|235:63|226:139,1,100
158,144,77659,1,10,0:0:0:0:
163,176,77757,1,0,0:0:0:0:
171,208,77856,1,10,0:0:0:0:
208,213,77955,1,0,0:0:0:0:
297,243,78053,6,0,P|374:205|401:161,2,100,0|0|10,0:0|0:0|0:0,0:0:0:0:
297,243,78645,1,0,0:0:0:0:
297,243,78843,2,0,P|248:244|184:282,2,100,0|0|10,0:0|0:0|0:0,0:0:0:0:
297,243,79435,1,0,0:0:0:0:
248,244,79632,5,0,0:0:0:0:
248,244,79731,1,0,0:0:0:0:
72,232,79830,1,10,0:0:0:0:
72,232,79928,1,0,0:0:0:0:
48,160,80027,2,0,L|58:106,3,50,10|0|10|0,0:0|0:0|0:0|0:0,0:0:0:0:
168,112,80422,5,0,0:0:0:0:
168,112,80520,1,0,0:0:0:0:
240,32,80619,1,10,0:0:0:0:
240,32,80718,1,0,0:0:0:0:
288,120,80816,1,10,0:0:0:0:
288,120,80915,1,0,0:0:0:0:
368,40,81014,1,10,0:0:0:0:
368,40,81112,1,0,0:0:0:0:
404,97,81211,6,0,B|453:133|453:133|454:173,1,100,4|0,0:0|0:0,0:0:0:0:
426,252,81606,2,0,P|369:242|297:267,1,100,10|0,0:0|0:0,0:0:0:0:
296,144,81902,1,0,0:0:0:0:
296,144,82001,2,0,P|229:124|172:126,3,100,0|0|10|0,0:0|0:0|0:0|0:0,0:0:0:0:
199,122,82691,1,0,0:0:0:0:
256,56,82790,5,0,0:0:0:0:
184,104,82987,1,0,0:0:0:0:
320,104,83185,1,10,0:0:0:0:
240,177,83382,1,0,0:0:0:0:
80,344,83580,5,0,0:0:0:0:
128,356,83678,1,0,0:0:0:0:
179,352,83777,1,10,0:0:0:0:
213,341,83876,1,0,0:0:0:0:
274,335,83974,1,10,0:0:0:0:
311,339,84073,1,0,0:0:0:0:
359,351,84172,1,10,0:0:0:0:
400,353,84270,1,0,0:0:0:0:
496,296,84369,6,0,B|475:230|475:230|448:192,1,100
376,200,84764,2,0,P|341:139|295:108,1,100,10|0,0:0|0:0,0:0:0:0:
248,48,85159,2,0,P|247:121|240:160,1,100
248,296,85553,2,0,L|132:294,1,100,10|0,0:0|0:0,0:0:0:0:
133,205,85948,5,0,0:0:0:0:
233,104,86145,1,0,0:0:0:0:
344,185,86343,1,10,0:0:0:0:
233,104,86540,1,0,0:0:0:0:
155,180,86737,5,0,0:0:0:0:
200,136,86836,1,0,0:0:0:0:
272,112,86935,1,10,0:0:0:0:
332,143,87034,1,0,0:0:0:0:
408,168,87132,1,10,0:0:0:0:
408,264,87231,1,0,0:0:0:0:
328,264,87330,1,10,0:0:0:0:
256,264,87428,1,0,0:0:0:0:
256,192,87527,5,4,0:0:0:0:
