osu file format v14

[General]
AudioFilename: audio.mp3
AudioLeadIn: 0
PreviewTime: -1
Countdown: 1
SampleSet: None
StackLeniency: 0.7
Mode: 1
LetterboxInBreaks: 0
WidescreenStoryboard: 0

[Editor]
DistanceSpacing: 0.9
BeatDivisor: 4
GridSize: 8
TimelineZoom: 1

[Metadata]
Title:Turkish March
TitleUnicode:トルコ行進曲
Artist:T.M. Orchestra
ArtistUnicode:T.M. Orchestra
Creator:LZD
Version:Oni
Source:
Tags:
BeatmapID:2105300
BeatmapSetID:1005927

[Difficulty]
HPDrainRate:3
CircleSize:5
OverallDifficulty:5
ApproachRate:5
SliderMultiplier:1.4
SliderTickRate:1

[Events]
//Background and Video events
//Break Periods
//Storyboard Layer 0 (Background)
//Storyboard Layer 1 (Fail)
//Storyboard Layer 2 (Pass)
//Storyboard Layer 3 (Foreground)
//Storyboard Sound Samples

[TimingPoints]
631,400,4,2,0,80,1,0
10231,400,2,3,0,80,1,0
16631,397.350993377483,2,3,0,80,1,0
18220,394.736842105263,2,3,0,80,1,0
19798,392.156862745098,2,3,0,80,1,0
21366,389.61038961039,2,3,0,80,1,0
22924,387.096774193548,2,3,0,80,1,0
24473,384.615384615385,2,3,0,80,1,0
26011,382.165605095541,2,3,0,80,1,0
27540,379.746835443038,2,3,0,80,1,0
29058,377.358490566038,2,3,0,80,1,0
30568,375,2,3,0,80,1,0
32068,372.670807453416,2,3,0,80,1,0
33559,370.37037037037,2,3,0,80,1,0
35040,368.098159509202,2,3,0,80,1,0
36513,365.853658536585,2,3,0,80,1,0
37976,363.636363636364,2,3,0,80,1,0
39431,361.44578313253,2,3,0,80,1,0
40876,359.281437125748,2,3,0,80,1,0
42314,357.142857142857,2,3,0,80,1,0
43742,355.029585798817,2,3,0,80,1,0
45163,352.941176470588,2,3,0,80,1,0
46574,350.877192982456,2,2,1,80,1,1
47978,348.837209302326,2,2,1,80,1,1
49373,346.820809248555,2,2,1,80,1,1
52147,344.827586206897,2,2,1,80,1,1
63182,342.857142857143,2,3,0,80,1,0
64554,340.909090909091,2,3,0,80,1,0
65917,338.983050847458,2,3,0,80,1,0
67273,337.078651685393,2,3,0,80,1,0
68621,335.195530726257,2,3,0,80,1,0
69962,333.333333333333,2,3,0,80,1,0
71295,331.491712707182,2,3,0,80,1,0
72621,329.67032967033,2,3,0,80,1,0
73939,327.868852459016,2,3,0,80,1,0
75251,326.086956521739,2,3,0,80,1,0
76555,324.324324324324,2,3,0,80,1,0
77853,322.58064516129,2,3,0,80,1,0
79143,320.855614973262,2,3,0,80,1,0
80426,319.148936170213,2,3,0,80,1,0
81702,317.460317460317,2,3,0,80,1,0
82972,315.789473684211,2,3,0,80,1,0
84235,314.13612565445,2,3,0,80,1,0
85491,312.5,2,3,0,80,1,0
86741,310.880829015544,2,3,0,80,1,0
87984,309.278350515464,2,3,0,80,1,0
89221,307.692307692308,2,3,0,80,1,0
90452,306.122448979592,2,3,0,80,1,0
91676,304.568527918782,2,3,0,80,1,0
92894,303.030303030303,2,3,0,80,1,0
94106,301.507537688442,2,3,0,80,1,0

[Colours]
Combo1 : 170,170,255
Combo2 : 0,128,192

[HitObjects]
256,192,631,12,0,3431,0:0:0:0:
24,304,3831,6,0,L|248:104,7,280
164,43,9831,5,0,0:0:0:0:
164,43,9931,1,0,0:0:0:0:
164,43,10031,1,0,0:0:0:0:
164,43,10131,1,0,0:0:0:0:
128,168,10231,1,8,0:0:0:0:
136,160,10631,1,0,0:0:0:0:
136,160,10731,1,0,0:0:0:0:
136,160,10831,1,0,0:0:0:0:
128,168,11031,1,8,0:0:0:0:
136,160,11431,1,0,0:0:0:0:
136,160,11531,1,0,0:0:0:0:
136,160,11631,1,0,0:0:0:0:
136,160,11831,1,8,0:0:0:0:
48,136,11931,1,8,0:0:0:0:
88,160,12031,1,0,0:0:0:0:
180,111,12131,1,0,0:0:0:0:
88,160,12231,1,8,0:0:0:0:
48,136,12331,1,8,0:0:0:0:
88,160,12431,1,0,0:0:0:0:
48,136,12531,1,0,0:0:0:0:
48,136,12631,1,8,0:0:0:0:
80,152,13031,1,0,0:0:0:0:
80,152,13231,1,0,0:0:0:0:
104,48,13431,1,8,0:0:0:0:
96,80,13531,1,8,0:0:0:0:
80,128,13631,1,8,0:0:0:0:
96,80,13831,1,0,0:0:0:0:
96,80,14031,1,0,0:0:0:0:
96,80,14231,1,8,0:0:0:0:
160,72,14331,1,8,0:0:0:0:
160,72,14431,1,8,0:0:0:0:
160,72,14631,1,0,0:0:0:0:
160,72,14831,1,0,0:0:0:0:
160,72,15031,1,8,0:0:0:0:
160,72,15131,1,8,0:0:0:0:
160,72,15231,1,8,0:0:0:0:
160,72,15431,1,0,0:0:0:0:
160,72,15631,1,0,0:0:0:0:
160,72,15831,1,8,0:0:0:0:
167,101,16231,1,0,0:0:0:0:
167,101,16331,1,0,0:0:0:0:
167,101,16431,1,0,0:0:0:0:
167,101,16531,1,0,0:0:0:0:
167,101,16631,1,8,0:0:0:0:
167,101,17028,1,0,0:0:0:0:
167,101,17127,1,0,0:0:0:0:
167,101,17227,1,0,0:0:0:0:
167,101,17425,1,8,0:0:0:0:
167,101,17823,1,0,0:0:0:0:
167,101,17922,1,0,0:0:0:0:
167,101,18021,1,0,0:0:0:0:
167,101,18220,1,8,0:0:0:0:
167,101,18318,1,8,0:0:0:0:
167,101,18417,1,0,0:0:0:0:
167,101,18516,1,0,0:0:0:0:
167,101,18614,1,8,0:0:0:0:
167,101,18713,1,8,0:0:0:0:
167,101,18812,1,0,0:0:0:0:
167,101,18910,1,0,0:0:0:0:
167,101,19009,1,8,0:0:0:0:
64,136,19404,1,0,0:0:0:0:
64,136,19601,1,0,0:0:0:0:
64,136,19798,1,8,0:0:0:0:
64,136,19896,1,8,0:0:0:0:
64,136,19994,1,8,0:0:0:0:
64,136,20190,1,0,0:0:0:0:
64,136,20386,1,0,0:0:0:0:
64,136,20582,1,8,0:0:0:0:
64,136,20680,1,8,0:0:0:0:
64,136,20778,1,8,0:0:0:0:
64,136,20974,1,0,0:0:0:0:
64,136,21170,1,0,0:0:0:0:
64,136,21366,1,8,0:0:0:0:
64,136,21463,1,8,0:0:0:0:
64,136,21560,1,8,0:0:0:0:
64,136,21755,1,0,0:0:0:0:
64,136,21950,1,0,0:0:0:0:
64,136,22145,1,8,0:0:0:0:
96,104,22534,1,8,0:0:0:0:
96,104,22729,1,8,0:0:0:0:
96,104,22924,1,0,0:0:0:0:
96,104,23117,1,0,0:0:0:0:
96,104,23311,1,8,0:0:0:0:
96,104,23407,1,8,0:0:0:0:
96,104,23504,1,0,0:0:0:0:
96,104,23601,1,8,0:0:0:0:
96,104,23698,1,8,0:0:0:0:
96,112,24085,1,0,0:0:0:0:
96,112,24278,1,0,0:0:0:0:
96,112,24472,1,8,0:0:0:0:
96,112,24665,1,8,0:0:0:0:
96,112,24857,1,0,0:0:0:0:
96,112,24953,1,0,0:0:0:0:
96,112,25049,1,8,0:0:0:0:
96,112,25146,1,0,0:0:0:0:
96,112,25242,1,8,0:0:0:0:
96,128,25626,1,8,0:0:0:0:
96,128,25819,1,8,0:0:0:0:
112,144,26011,1,0,0:0:0:0:
112,144,26202,1,0,0:0:0:0:
112,144,26393,1,8,0:0:0:0:
112,144,26488,1,8,0:0:0:0:
112,144,26584,1,0,0:0:0:0:
112,144,26679,1,8,0:0:0:0:
112,144,26775,1,8,0:0:0:0:
128,128,27157,1,0,0:0:0:0:
128,128,27348,1,0,0:0:0:0:
128,128,27539,1,8,0:0:0:0:
120,144,27729,1,8,0:0:0:0:
120,144,27919,1,0,0:0:0:0:
120,144,28014,1,0,0:0:0:0:
120,144,28109,1,8,0:0:0:0:
120,144,28204,1,0,0:0:0:0:
120,144,28299,1,0,0:0:0:0:
112,136,28679,1,0,0:0:0:0:
112,136,28774,1,0,0:0:0:0:
112,136,28869,1,0,0:0:0:0:
112,136,28964,1,0,0:0:0:0:
112,136,29058,1,8,0:0:0:0:
112,128,29435,1,0,0:0:0:0:
112,128,29529,1,0,0:0:0:0:
112,128,29624,1,0,0:0:0:0:
112,128,29812,1,8,0:0:0:0:
112,128,30190,1,0,0:0:0:0:
112,128,30284,1,0,0:0:0:0:
112,128,30378,1,0,0:0:0:0:
112,128,30567,1,8,0:0:0:0:
112,128,30661,1,8,0:0:0:0:
112,128,30755,1,0,0:0:0:0:
112,128,30849,1,0,0:0:0:0:
112,128,30943,1,8,0:0:0:0:
112,128,31036,1,8,0:0:0:0:
112,128,31130,1,0,0:0:0:0:
112,128,31224,1,0,0:0:0:0:
112,128,31318,1,8,0:0:0:0:
128,120,31693,1,0,0:0:0:0:
128,120,31880,1,0,0:0:0:0:
128,120,32068,1,8,0:0:0:0:
128,120,32254,1,8,0:0:0:0:
128,128,32440,1,0,0:0:0:0:
128,128,32627,1,0,0:0:0:0:
128,128,32813,1,8,0:0:0:0:
136,128,32999,1,0,0:0:0:0:
136,128,33186,1,8,0:0:0:0:
136,128,33372,1,0,0:0:0:0:
144,128,33559,1,8,0:0:0:0:
144,120,33929,1,0,0:0:0:0:
144,120,33991,1,0,0:0:0:0:
144,120,34052,1,0,0:0:0:0:
144,120,34114,1,0,0:0:0:0:
144,120,34176,1,0,0:0:0:0:
144,120,34238,1,0,0:0:0:0:
144,120,34299,1,8,0:0:0:0:
136,160,34670,1,0,0:0:0:0:
136,160,34855,1,0,0:0:0:0:
136,160,35040,1,8,0:0:0:0:
136,160,35408,1,0,0:0:0:0:
136,160,35592,1,0,0:0:0:0:
136,160,35776,1,8,0:0:0:0:
136,168,35960,1,0,0:0:0:0:
136,168,36144,1,8,0:0:0:0:
136,168,36328,1,8,0:0:0:0:
136,168,36513,1,0,0:0:0:0:
136,176,36695,1,8,0:0:0:0:
144,176,36878,1,8,0:0:0:0:
144,176,37061,1,8,0:0:0:0:
144,184,37244,1,8,0:0:0:0:
144,184,37427,1,0,0:0:0:0:
136,168,37610,1,0,0:0:0:0:
136,168,37793,1,0,0:0:0:0:
136,160,37976,1,8,0:0:0:0:
144,184,38339,1,0,0:0:0:0:
144,184,38521,1,0,0:0:0:0:
144,184,38703,1,8,0:0:0:0:
144,192,38885,1,0,0:0:0:0:
144,192,39066,1,8,0:0:0:0:
144,192,39248,1,8,0:0:0:0:
144,176,39431,1,0,0:0:0:0:
144,176,39611,1,8,0:0:0:0:
144,176,39792,1,0,0:0:0:0:
144,176,39973,1,0,0:0:0:0:
144,176,40153,1,8,0:0:0:0:
144,184,40515,1,0,0:0:0:0:
144,184,40696,1,0,0:0:0:0:
144,184,40876,1,8,0:0:0:0:
144,176,41235,1,0,0:0:0:0:
144,176,41414,1,0,0:0:0:0:
144,176,41594,1,8,0:0:0:0:
144,176,41774,1,0,0:0:0:0:
144,176,41953,1,8,0:0:0:0:
144,176,42133,1,8,0:0:0:0:
144,176,42313,1,0,0:0:0:0:
144,176,42492,1,8,0:0:0:0:
144,176,42671,1,8,0:0:0:0:
144,176,42849,1,8,0:0:0:0:
144,176,43028,1,8,0:0:0:0:
144,176,43206,1,0,0:0:0:0:
144,176,43385,1,0,0:0:0:0:
144,176,43564,1,0,0:0:0:0:
144,176,43742,1,8,0:0:0:0:
40,136,44097,1,0,0:0:0:0:
64,144,44274,1,0,0:0:0:0:
64,144,44452,1,8,0:0:0:0:
64,144,44629,1,0,0:0:0:0:
64,144,44807,1,8,0:0:0:0:
64,144,44984,1,8,0:0:0:0:
64,144,45163,1,0,0:0:0:0:
64,144,45339,1,8,0:0:0:0:
64,144,45515,1,0,0:0:0:0:
64,144,45692,1,0,0:0:0:0:
64,144,45868,1,8,0:0:0:0:
224,240,46221,1,0,0:0:0:0:
224,240,46310,1,0,0:0:0:0:
224,240,46398,1,0,0:0:0:0:
216,248,46574,1,8,0:0:0:0:
216,248,46749,1,8,0:0:0:0:
224,248,46924,1,0,0:0:0:0:
224,248,47012,1,0,0:0:0:0:
224,248,47100,1,0,0:0:0:0:
224,248,47188,1,0,0:0:0:0:
224,248,47275,1,8,0:0:0:0:
224,264,47451,1,8,0:0:0:0:
224,264,47626,1,0,0:0:0:0:
224,264,47714,1,0,0:0:0:0:
224,264,47802,1,0,0:0:0:0:
224,264,47978,1,8,0:0:0:0:
224,264,48152,1,0,0:0:0:0:
224,272,48326,1,8,0:0:0:0:
224,272,48501,1,8,0:0:0:0:
224,272,48675,1,0,0:0:0:0:
224,272,48850,1,8,0:0:0:0:
224,280,49024,1,8,0:0:0:0:
224,272,49198,1,8,0:0:0:0:
224,272,49373,1,0,0:0:0:0:
224,272,49459,1,0,0:0:0:0:
224,272,49546,1,0,0:0:0:0:
224,272,49719,1,8,0:0:0:0:
224,272,49893,1,8,0:0:0:0:
224,272,50066,1,0,0:0:0:0:
224,272,50153,1,0,0:0:0:0:
224,272,50240,1,0,0:0:0:0:
224,272,50413,1,8,0:0:0:0:
224,272,50500,1,8,0:0:0:0:
104,160,50586,1,8,0:0:0:0:
112,208,50760,1,0,0:0:0:0:
112,208,50933,1,0,0:0:0:0:
112,208,51107,1,8,0:0:0:0:
112,208,51280,1,0,0:0:0:0:
112,208,51453,1,8,0:0:0:0:
120,224,51800,1,0,0:0:0:0:
120,224,51887,1,0,0:0:0:0:
120,224,51974,1,8,0:0:0:0:
120,224,52060,1,0,0:0:0:0:
120,224,52147,1,8,0:0:0:0:
236,138,52319,1,8,0:0:0:0:
236,138,52491,1,0,0:0:0:0:
236,138,52664,1,0,0:0:0:0:
236,138,52836,1,8,0:0:0:0:
236,138,53009,1,8,0:0:0:0:
241,134,53181,1,0,0:0:0:0:
236,138,53267,1,0,0:0:0:0:
236,138,53353,1,0,0:0:0:0:
236,138,53440,1,0,0:0:0:0:
240,134,53526,1,8,0:0:0:0:
234,88,53698,1,8,0:0:0:0:
234,88,53871,1,0,0:0:0:0:
234,88,54043,1,0,0:0:0:0:
216,112,54215,1,8,0:0:0:0:
216,112,54560,1,0,0:0:0:0:
120,112,54647,1,0,0:0:0:0:
120,112,54733,1,8,0:0:0:0:
120,112,54819,1,0,0:0:0:0:
120,112,54905,1,8,0:0:0:0:
218,82,55078,1,8,0:0:0:0:
218,82,55250,1,0,0:0:0:0:
235,73,55336,1,0,0:0:0:0:
218,82,55422,1,0,0:0:0:0:
218,82,55595,1,8,0:0:0:0:
218,82,55767,1,8,0:0:0:0:
218,82,55940,1,0,0:0:0:0:
218,82,56112,1,0,0:0:0:0:
245,87,56284,1,8,0:0:0:0:
245,87,56371,1,8,0:0:0:0:
245,87,56457,1,8,0:0:0:0:
245,87,56629,1,0,0:0:0:0:
245,87,56715,1,0,0:0:0:0:
145,146,56802,1,0,0:0:0:0:
156,143,56888,1,0,0:0:0:0:
245,87,56974,1,8,0:0:0:0:
173,130,57319,1,0,0:0:0:0:
173,130,57405,1,0,0:0:0:0:
173,130,57491,1,8,0:0:0:0:
173,130,57578,1,0,0:0:0:0:
173,130,57664,1,8,0:0:0:0:
107,117,57836,1,8,0:0:0:0:
107,117,58009,1,0,0:0:0:0:
107,117,58181,1,0,0:0:0:0:
107,117,58353,1,8,0:0:0:0:
107,117,58526,1,8,0:0:0:0:
107,117,58698,1,0,0:0:0:0:
107,117,58784,1,0,0:0:0:0:
107,117,58871,1,0,0:0:0:0:
107,117,58957,1,0,0:0:0:0:
107,117,59043,1,8,0:0:0:0:
107,117,59215,1,8,0:0:0:0:
107,117,59388,1,0,0:0:0:0:
107,117,59560,1,0,0:0:0:0:
192,128,59733,1,8,0:0:0:0:
192,128,59819,1,8,0:0:0:0:
192,128,59905,1,8,0:0:0:0:
192,128,59991,1,8,0:0:0:0:
192,128,60078,1,8,0:0:0:0:
192,128,60164,1,8,0:0:0:0:
192,128,60250,1,8,0:0:0:0:
192,128,60422,1,8,0:0:0:0:
53,154,60509,1,8,0:0:0:0:
58,145,60595,1,8,0:0:0:0:
58,145,60681,1,8,0:0:0:0:
58,145,60767,1,8,0:0:0:0:
58,145,60940,1,8,0:0:0:0:
101,147,61026,1,8,0:0:0:0:
58,145,61112,1,8,0:0:0:0:
101,147,61284,1,0,0:0:0:0:
101,147,61371,1,0,0:0:0:0:
101,147,61457,1,8,0:0:0:0:
125,132,61629,1,8,0:0:0:0:
125,132,61802,1,0,0:0:0:0:
125,132,61974,1,8,0:0:0:0:
125,132,62147,1,0,0:0:0:0:
125,132,62233,1,0,0:0:0:0:
125,132,62319,1,0,0:0:0:0:
125,132,62405,1,0,0:0:0:0:
122,109,62491,1,8,0:0:0:0:
131,125,62836,1,0,0:0:0:0:
131,125,62922,1,0,0:0:0:0:
131,125,63009,1,0,0:0:0:0:
131,125,63095,1,0,0:0:0:0:
131,125,63181,1,8,0:0:0:0:
131,125,63524,1,0,0:0:0:0:
131,125,63610,1,0,0:0:0:0:
131,125,63696,1,0,0:0:0:0:
131,125,63867,1,8,0:0:0:0:
153,150,64210,1,0,0:0:0:0:
147,150,64296,1,0,0:0:0:0:
145,152,64382,1,0,0:0:0:0:
144,149,64554,1,8,0:0:0:0:
144,149,64639,1,8,0:0:0:0:
144,149,64724,1,0,0:0:0:0:
144,149,64809,1,0,0:0:0:0:
144,149,64894,1,8,0:0:0:0:
144,149,64980,1,8,0:0:0:0:
144,149,65065,1,0,0:0:0:0:
144,149,65150,1,0,0:0:0:0:
144,149,65235,1,8,0:0:0:0:
159,137,65576,1,0,0:0:0:0:
155,140,65747,1,0,0:0:0:0:
161,141,65917,1,8,0:0:0:0:
155,140,66086,1,8,0:0:0:0:
155,140,66255,1,0,0:0:0:0:
159,137,66425,1,0,0:0:0:0:
159,137,66594,1,8,0:0:0:0:
160,136,66764,1,0,0:0:0:0:
161,141,66933,1,8,0:0:0:0:
160,136,67103,1,0,0:0:0:0:
160,136,67273,1,8,0:0:0:0:
159,137,67610,1,0,0:0:0:0:
160,136,67694,1,0,0:0:0:0:
160,136,67778,1,0,0:0:0:0:
161,141,67862,1,0,0:0:0:0:
161,141,67947,1,8,0:0:0:0:
159,89,68284,1,0,0:0:0:0:
159,89,68452,1,0,0:0:0:0:
159,89,68621,1,8,0:0:0:0:
159,89,68956,1,0,0:0:0:0:
159,89,69123,1,0,0:0:0:0:
159,89,69291,1,8,0:0:0:0:
159,89,69458,1,0,0:0:0:0:
159,89,69626,1,8,0:0:0:0:
159,89,69794,1,8,0:0:0:0:
159,89,69961,1,0,0:0:0:0:
159,89,70128,1,8,0:0:0:0:
159,89,70295,1,8,0:0:0:0:
159,89,70462,1,8,0:0:0:0:
159,89,70628,1,8,0:0:0:0:
159,89,70795,1,0,0:0:0:0:
159,89,70962,1,0,0:0:0:0:
159,89,71128,1,0,0:0:0:0:
159,89,71295,1,8,0:0:0:0:
159,89,71626,1,0,0:0:0:0:
159,89,71792,1,0,0:0:0:0:
159,89,71957,1,8,0:0:0:0:
159,89,72123,1,0,0:0:0:0:
159,89,72289,1,8,0:0:0:0:
159,89,72455,1,8,0:0:0:0:
159,89,72621,1,0,0:0:0:0:
159,89,72785,1,8,0:0:0:0:
159,89,72950,1,0,0:0:0:0:
159,89,73115,1,0,0:0:0:0:
158,89,73280,1,8,0:0:0:0:
159,89,73610,1,0,0:0:0:0:
159,89,73774,1,0,0:0:0:0:
159,89,73939,1,8,0:0:0:0:
158,89,74266,1,0,0:0:0:0:
159,89,74430,1,0,0:0:0:0:
159,89,74594,1,8,0:0:0:0:
159,89,74758,1,0,0:0:0:0:
159,89,74922,1,8,0:0:0:0:
158,89,75086,1,8,0:0:0:0:
158,89,75250,1,0,0:0:0:0:
159,89,75414,1,8,0:0:0:0:
159,89,75577,1,8,0:0:0:0:
159,89,75740,1,8,0:0:0:0:
159,89,75903,1,8,0:0:0:0:
158,89,76066,1,0,0:0:0:0:
158,89,76229,1,0,0:0:0:0:
159,89,76392,1,0,0:0:0:0:
159,89,76555,1,8,0:0:0:0:
159,89,76879,1,0,0:0:0:0:
158,89,77041,1,0,0:0:0:0:
158,89,77203,1,8,0:0:0:0:
159,89,77365,1,0,0:0:0:0:
159,89,77527,1,8,0:0:0:0:
159,89,77690,1,8,0:0:0:0:
159,89,77852,1,0,0:0:0:0:
158,89,78014,1,8,0:0:0:0:
158,89,78175,1,0,0:0:0:0:
159,89,78336,1,0,0:0:0:0:
159,89,78498,1,8,0:0:0:0:
149,103,78820,1,0,0:0:0:0:
149,103,78982,1,0,0:0:0:0:
137,103,79143,1,8,0:0:0:0:
139,107,79624,1,0,0:0:0:0:
139,107,79704,1,0,0:0:0:0:
139,107,79784,1,8,0:0:0:0:
142,114,80426,1,8,0:0:0:0:
142,114,80505,1,8,0:0:0:0:
139,107,80585,1,0,0:0:0:0:
139,107,80665,1,0,0:0:0:0:
139,107,80745,1,8,0:0:0:0:
139,107,80824,1,8,0:0:0:0:
142,114,80904,1,0,0:0:0:0:
142,114,80984,1,0,0:0:0:0:
142,114,81064,1,8,0:0:0:0:
139,107,81702,1,12,0:0:0:0:
139,107,81860,1,12,0:0:0:0:
142,114,82019,1,12,0:0:0:0:
139,107,82178,1,12,0:0:0:0:
139,107,82336,1,12,0:0:0:0:
139,107,82813,1,0,0:0:0:0:
139,107,82892,1,0,0:0:0:0:
141,104,82971,1,8,0:0:0:0:
71,134,83445,1,0,0:0:0:0:
71,134,83524,1,0,0:0:0:0:
71,134,83603,1,8,0:0:0:0:
71,134,84235,1,8,0:0:0:0:
71,134,84313,1,8,0:0:0:0:
71,134,84392,1,0,0:0:0:0:
71,134,84470,1,0,0:0:0:0:
71,134,84549,1,8,0:0:0:0:
71,134,84627,1,8,0:0:0:0:
71,134,84706,1,0,0:0:0:0:
71,134,84784,1,0,0:0:0:0:
71,134,84863,1,8,0:0:0:0:
100,155,85334,1,0,0:0:0:0:
100,155,85413,1,0,0:0:0:0:
100,155,85491,1,8,0:0:0:0:
100,155,86116,1,12,0:0:0:0:
93,156,86272,1,12,0:0:0:0:
93,156,86428,1,12,0:0:0:0:
93,156,86584,1,12,0:0:0:0:
100,155,86741,1,12,0:0:0:0:
82,162,87207,1,0,0:0:0:0:
82,162,87285,1,0,0:0:0:0:
82,162,87362,1,8,0:0:0:0:
38,164,87829,1,0,0:0:0:0:
38,164,87906,1,0,0:0:0:0:
38,164,87984,1,8,0:0:0:0:
38,164,88602,1,8,0:0:0:0:
38,164,88679,1,8,0:0:0:0:
38,164,88757,1,0,0:0:0:0:
38,164,88834,1,0,0:0:0:0:
38,164,88911,1,8,0:0:0:0:
38,164,88989,1,8,0:0:0:0:
38,164,89066,1,0,0:0:0:0:
38,164,89143,1,0,0:0:0:0:
38,164,89221,1,8,0:0:0:0:
38,164,89836,1,12,0:0:0:0:
38,164,89990,1,12,0:0:0:0:
38,164,90144,1,12,0:0:0:0:
38,164,90297,1,12,0:0:0:0:
38,164,90451,1,12,0:0:0:0:
60,150,90911,1,0,0:0:0:0:
60,150,90987,1,0,0:0:0:0:
60,150,91064,1,8,0:0:0:0:
69,129,91523,1,0,0:0:0:0:
69,129,91599,1,0,0:0:0:0:
69,129,91676,1,8,0:0:0:0:
60,131,92285,1,8,0:0:0:0:
60,131,92361,1,8,0:0:0:0:
60,131,92437,1,0,0:0:0:0:
60,131,92513,1,0,0:0:0:0:
60,131,92589,1,8,0:0:0:0:
60,131,92665,1,8,0:0:0:0:
60,131,92741,1,0,0:0:0:0:
60,131,92818,1,0,0:0:0:0:
60,131,92894,1,8,0:0:0:0:
54,133,93500,1,12,0:0:0:0:
54,133,94106,1,12,0:0:0:0:
54,133,94256,1,12,0:0:0:0:
54,133,94407,1,12,0:0:0:0:
54,133,94558,1,12,0:0:0:0:
54,133,94709,1,12,0:0:0:0:
74,163,95161,1,12,0:0:0:0:
74,163,95312,1,0,0:0:0:0:
74,163,95764,1,12,0:0:0:0:
74,163,95915,1,0,0:0:0:0:
74,163,96367,1,12,0:0:0:0:
109,115,96518,1,12,0:0:0:0:
131,134,96668,1,12,0:0:0:0:
105,138,96819,1,12,0:0:0:0:
107,107,96970,1,12,0:0:0:0:
107,107,97121,1,12,0:0:0:0:
109,115,97422,1,4,0:0:0:0:
105,119,97724,1,12,0:0:0:0:
