osu file format v14

[General]
AudioFilename: audio.mp3
AudioLeadIn: 0
PreviewTime: 22781
Countdown: 1
SampleSet: Normal
StackLeniency: 0.7
Mode: 0
LetterboxInBreaks: 0
WidescreenStoryboard: 1

[Editor]
DistanceSpacing: 1.5
BeatDivisor: 4
GridSize: 8
TimelineZoom: 1.800001

[Metadata]
Title:Big Shit Poppin
TitleUnicode:Big Shit Poppin
Artist:T.I.
ArtistUnicode:T.I.
Creator:Clappy
Version:CLP
Source:
Tags:
BeatmapID:1119355
BeatmapSetID:527639

[Difficulty]
HPDrainRate:7
CircleSize:4
OverallDifficulty:8
ApproachRate:9
SliderMultiplier:2
SliderTickRate:1

[Events]
//Background and Video events
0,0,"bg.png",0,0
//Break Periods
//Storyboard Layer 0 (Background)
//Storyboard Layer 1 (Fail)
//Storyboard Layer 2 (Pass)
//Storyboard Layer 3 (Foreground)
//Storyboard Sound Samples

[TimingPoints]
2900,355.029585798817,4,1,1,50,1,0
2900,-133.333333333333,4,1,1,50,0,0
10710,-200,4,1,1,50,0,0
10799,-133.333333333333,4,1,1,50,0,0
13905,-200,4,1,1,50,0,0
13994,-133.333333333333,4,1,1,50,0,0
16746,-200,4,1,1,50,0,0
16834,-133.333333333333,4,1,1,50,0,0
19586,-200,4,1,1,50,0,0
19675,-133.333333333333,4,1,1,50,0,0
22071,-200,4,1,1,50,0,0
22781,-100,4,1,1,50,0,0
33077,-200,4,1,1,50,0,0
33166,-100,4,1,69,50,0,0
33610,-100,4,1,1,50,0,0
36627,-200,4,1,1,50,0,0
36716,-100,4,1,1,50,0,0
39468,-200,4,1,1,50,0,0
39556,-100,4,1,1,50,0,0
44793,-200,4,1,1,50,0,0
44882,-125,4,1,1,50,0,0

[HitObjects]
287,141,2900,6,0,P|374:96|502:117,1,225.000008583069,8|0,0:0|0:0,0:0:0:0:
182,155,3610,2,0,L|99:133,1,75.0000028610231,2|0,0:0|0:0,0:0:0:0:
266,283,3965,2,0,P|336:323|414:324,1,150.000005722046,8|0,0:0|0:0,0:0:0:0:
403,326,4497,1,8,0:0:0:0:
167,219,4675,2,0,L|179:299,1,75.0000028610231,8|0,0:0|0:0,0:0:0:0:
259,133,5030,2,0,P|156:95|35:114,1,225.000008583069,2|0,0:0|0:0,0:0:0:0:
425,124,5740,6,0,B|441:207|396:257|396:257|400:341,1,225.000008583069,8|0,0:0|0:0,0:0:0:0:
216,264,6450,2,0,L|133:243,1,75.0000028610231,2|0,0:0|0:0,0:0:0:0:
280,139,6805,2,0,P|349:117|436:128,1,150.000005722046,8|0,0:0|0:0,0:0:0:0:
244,57,7337,1,8,0:0:0:0:
216,264,7515,2,0,L|222:188,1,75.0000028610231,8|0,0:0|0:0,0:0:0:0:
408,155,7870,1,2,0:0:0:0:
236,118,8047,1,8,0:0:0:0:
209,111,8580,6,0,B|156:169|206:249|206:249|190:326,1,225.000008583069,8|0,0:0|0:0,0:0:0:0:
120,248,9290,2,0,P|109:210|107:169,1,75.0000028610231,2|0,0:0|0:0,0:0:0:0:
222,42,9645,1,8,0:0:0:0:
231,34,10178,1,8,0:0:0:0:
351,141,10355,2,0,L|430:135,1,75.0000028610231,8|0,0:0|0:0,0:0:0:0:
258,237,10710,6,0,P|218:155|244:66,1,175,2|0,0:0|2:2,0:0:0:0:
246,81,11420,5,8,0:0:0:0:
124,64,11775,1,0,0:0:0:0:
54,150,12130,1,2,0:0:0:0:
54,150,12308,1,0,0:0:0:0:
218,268,12485,2,0,P|281:237|368:232,1,150.000005722046,8|0,0:0|0:0,0:0:0:0:
99,207,13018,5,8,0:0:0:0:
99,207,13195,2,0,L|108:285,1,75.0000028610231,8|0,0:0|0:0,0:0:0:0:
292,310,13550,1,2,0:0:0:0:
114,348,13728,1,8,0:0:0:0:
281,235,13905,6,0,L|270:154,1,75,4|0,0:0|2:2,0:0:0:0:
281,152,14260,5,8,0:0:0:0:
156,103,14615,1,0,0:0:0:0:
53,171,14971,1,2,0:0:0:0:
53,171,15148,1,0,0:0:0:0:
239,116,15326,2,0,P|171:87|96:81,1,150.000005722046,8|0,0:0|0:0,0:0:0:0:
366,88,15858,5,8,0:0:0:0:
366,88,16036,2,0,L|361:169,1,75.0000028610231,8|0,0:0|0:0,0:0:0:0:
196,118,16391,2,0,P|160:101|114:94,1,75.0000028610231,2|0,0:0|0:0,0:0:0:0:
221,280,16746,6,0,P|225:320|240:365,1,75,4|0,0:0|2:2,0:0:0:0:
250,361,17101,5,8,0:0:0:0:
344,284,17456,1,0,0:0:0:0:
449,345,17811,1,2,0:0:0:0:
449,345,17988,1,0,0:0:0:0:
288,212,18166,2,0,P|344:176|432:165,1,150.000005722046,8|0,0:0|0:0,0:0:0:0:
143,153,18698,5,8,0:0:0:0:
143,153,18876,2,0,L|158:235,1,75.0000028610231,8|0,0:0|0:0,0:0:0:0:
328,236,19231,1,2,0:0:0:0:
170,293,19408,1,8,0:0:0:0:
300,148,19586,6,0,P|331:131|373:124,1,75,4|0,0:0|2:2,0:0:0:0:
394,111,19941,6,0,B|378:168|378:168|435:281|340:348,1,262.500010013581,8|0,0:0|2:2,0:0:0:0:
326,353,20651,2,0,P|300:329|262:310,1,75.0000028610231,2|0,0:0|0:0,0:0:0:0:
69,296,21006,1,8,0:0:0:0:
61,290,21539,1,8,0:0:0:0:
61,290,21716,2,0,P|93:266|133:255,1,75.0000028610231,8|0,0:0|0:0,0:0:0:0:
244,148,22071,6,0,L|215:314,1,150,2|0,0:0|2:2,0:0:0:0:
46,185,22781,5,12,0:0:0:0:
46,185,22870,1,0,0:0:0:0:
46,185,22959,2,0,L|25:284,1,100
165,136,23314,1,8,0:0:0:0:
92,352,23491,1,6,0:0:0:0:
92,352,23580,1,0,0:0:0:0:
92,352,23669,1,8,0:0:0:0:
165,136,23846,2,0,P|214:120|267:123,1,100,8|0,0:0|0:0,0:0:0:0:
458,71,24201,5,4,0:0:0:0:
458,71,24290,1,0,0:0:0:0:
458,71,24379,1,8,0:0:0:0:
330,192,24556,2,0,P|281:208|228:205,1,100,8|0,0:0|0:0,0:0:0:0:
339,49,24911,1,2,0:0:0:0:
163,192,25089,1,8,0:0:0:0:
159,201,25444,1,8,0:0:0:0:
364,78,25621,5,12,0:0:0:0:
364,78,25710,1,0,0:0:0:0:
364,78,25799,2,0,P|424:57|467:60,1,100
179,177,26154,1,8,0:0:0:0:
371,162,26331,1,6,0:0:0:0:
416,143,26419,1,0,0:0:0:0:
466,142,26508,1,8,0:0:0:0:
176,261,26686,2,0,L|77:240,1,100,8|0,0:0|0:0,0:0:0:0:
379,247,27042,5,4,0:0:0:0:
424,228,27130,1,0,0:0:0:0:
474,227,27219,1,12,0:0:0:0:
198,351,27397,2,0,L|99:330,1,100,8|4,0:0|0:0,0:0:0:0:
169,168,27752,2,0,L|70:147,1,100,2|4,0:0|0:0,0:0:0:0:
63,142,28284,1,4,0:0:0:0:
321,74,28462,5,12,0:0:0:0:
321,74,28550,1,0,0:0:0:0:
321,74,28639,2,0,P|277:59|220:61,1,100
468,179,28994,1,8,0:0:0:0:
252,156,29172,1,6,0:0:0:0:
202,158,29260,1,0,0:0:0:0:
154,142,29349,1,8,0:0:0:0:
386,106,29527,2,0,L|492:95,1,100,8|0,0:0|0:0,0:0:0:0:
252,156,29882,5,4,0:0:0:0:
210,128,29970,1,0,0:0:0:0:
180,88,30059,1,8,0:0:0:0:
310,284,30237,1,8,0:0:0:0:
316,286,30592,1,10,0:0:0:0:
89,293,30769,1,8,0:0:0:0:
268,156,30947,1,8,0:0:0:0:
205,371,31124,1,8,0:0:0:0:
127,158,31302,5,12,0:0:0:0:
120,150,31391,1,0,0:0:0:0:
112,140,31479,2,0,L|125:251,1,100
254,357,31834,1,8,0:0:0:0:
201,142,32012,1,6,0:0:0:0:
187,117,32100,1,0,0:0:0:0:
174,93,32189,1,8,0:0:0:0:
346,267,32367,2,0,P|366:224|409:190,1,100,8|0,0:0|0:0,0:0:0:0:
284,120,32722,1,4,0:0:0:0:
272,87,32810,1,0,0:0:0:0:
247,63,32899,1,8,0:0:0:0:
81,141,33077,6,0,B|70:210|70:210|23:224|9:266|31:300|72:315|105:306|130:280|124:243|101:227,1,275,8|0,0:0|2:2,0:0:0:0:
134,233,34142,6,0,L|228:270,1,100,8|0,0:0|0:0,0:0:0:0:
394,208,34497,2,0,L|300:171,1,100,0|8,0:0|0:0,0:0:0:0:
125,90,34852,1,2,0:0:0:0:
125,90,35030,1,8,0:0:0:0:
386,116,35207,2,0,P|296:70|213:117,1,200,8|0,0:0|0:0,0:0:0:0:
109,291,35740,5,8,0:0:0:0:
109,291,35917,2,0,L|59:195,1,100,8|0,0:0|0:0,0:0:0:0:
218,76,36272,1,2,0:0:0:0:
31,141,36450,1,8,0:0:0:0:
131,112,36627,6,0,L|149:144,1,25,4|0,0:0|2:2,0:0:0:0:
224,275,36805,1,8,0:0:0:0:
266,119,36982,2,0,P|307:94|374:91,1,100,8|0,0:0|0:0,0:0:0:0:
406,284,37337,2,0,L|351:188,1,100,0|8,0:0|0:0,0:0:0:0:
158,220,37692,1,2,0:0:0:0:
320,137,37870,1,8,0:0:0:0:
125,143,38047,2,0,P|170:72|284:74,1,200,8|0,0:0|0:0,0:0:0:0:
432,186,38580,5,8,0:0:0:0:
235,344,38757,2,0,L|246:234,1,100,8|0,0:0|0:0,0:0:0:0:
134,43,39113,2,0,L|123:153,1,100,2|0,0:0|0:0,0:0:0:0:
160,343,39468,6,0,P|197:346|237:343,1,75,4|0,0:0|2:2,0:0:0:0:
255,335,39823,2,0,P|299:311|350:307,1,100,8|0,0:0|0:0,0:0:0:0:
168,189,40178,2,0,L|63:175,1,100,0|8,0:0|0:0,0:0:0:0:
228,85,40533,1,2,0:0:0:0:
402,293,40710,1,8,0:0:0:0:
402,293,40888,2,0,P|428:192|392:103,1,200,8|0,0:0|0:0,0:0:0:0:
267,205,41420,5,8,0:0:0:0:
136,77,41598,2,0,L|120:175,1,100,8|0,0:0|0:0,0:0:0:0:
199,326,41953,1,10,0:0:0:0:
390,128,42130,1,8,0:0:0:0:
119,175,42308,1,8,0:0:0:0:
366,296,42485,1,8,0:0:0:0:
237,53,42663,6,0,P|226:136|255:248,1,200,8|0,0:0|0:0,0:0:0:0:
363,333,43195,1,8,0:0:0:0:
143,332,43373,1,2,0:0:0:0:
363,333,43550,1,8,0:0:0:0:
363,333,43728,2,0,P|365:233|329:140,1,200,8|0,0:0|0:0,0:0:0:0:
139,64,44260,5,8,0:0:0:0:
177,301,44438,2,0,L|187:196,1,100,8|0,0:0|0:0,0:0:0:0:
286,90,44793,2,0,B|266:70|266:70|207:88|152:69|152:69|128:94,1,175,2|0,0:0|2:2,0:0:0:0:
115,93,45503,6,0,L|155:181,1,80,8|0,0:0|0:0,0:0:0:0:
255,220,45858,1,0,0:0:0:0:
138,249,46036,1,8,0:0:0:0:
219,161,46213,1,2,0:0:0:0:
277,339,46391,1,8,0:0:0:0:
277,339,46568,2,0,P|326:305|433:308,1,160,8|0,0:0|0:0,0:0:0:0:
