osu file format v14

[General]
AudioFilename: 01. Yayaya.mp3
AudioLeadIn: 0
PreviewTime: -1
Countdown: 1
SampleSet: Normal
StackLeniency: 0.7
Mode: 0
LetterboxInBreaks: 1
WidescreenStoryboard: 0

[Editor]
DistanceSpacing: 1
BeatDivisor: 4
GridSize: 16
TimelineZoom: 0.9999999

[Metadata]
Title:Yayaya
TitleUnicode:Yayaya
Artist:T-ara
ArtistUnicode:T-ara
Creator:Touchette
Version:Retard Hard
Source:
Tags:
BeatmapID:890932
BeatmapSetID:410535

[Difficulty]
HPDrainRate:7
CircleSize:4
OverallDifficulty:8
ApproachRate:9
SliderMultiplier:2
SliderTickRate:1

[Events]
//Background and Video events
0,0,"girls-band-korea.jpg",0,0
//Break Periods
2,24354,25042
2,84927,100843
//Storyboard Layer 0 (Background)
//Storyboard Layer 1 (Fail)
//Storyboard Layer 2 (Pass)
//Storyboard Layer 3 (Foreground)
//Storyboard Sound Samples

[TimingPoints]
452,458.015267175573,4,1,0,100,1,0
44319,-66.6666666666667,4,1,0,100,0,0
44891,-100,4,1,0,100,0,0
51749,-100,4,1,0,100,0,1
84726,-100,4,1,0,100,0,0
119535,-100,4,1,0,100,0,0
119993,-100,4,1,0,100,0,0

[HitObjects]
403,80,8925,5,0,0:0:0:0:
387,132,9039,1,0,0:0:0:0:
344,166,9154,2,0,P|291:183|250:169,1,100
92,66,9611,5,0,0:0:0:0:
109,251,9840,1,0,0:0:0:0:
271,135,10069,1,0,0:0:0:0:
36,101,10299,1,0,0:0:0:0:
20,148,10413,1,0,0:0:0:0:
40,193,10528,1,0,0:0:0:0:
140,300,10757,1,0,0:0:0:0:
167,258,10871,1,0,0:0:0:0:
155,209,10986,1,0,0:0:0:0:
67,79,11214,1,0,0:0:0:0:
257,115,11444,5,0,0:0:0:0:
342,305,11673,1,0,0:0:0:0:
468,123,11902,1,0,0:0:0:0:
283,305,12131,1,0,0:0:0:0:
254,264,12245,1,0,0:0:0:0:
270,216,12360,1,0,0:0:0:0:
381,106,12589,1,0,0:0:0:0:
395,153,12703,1,0,0:0:0:0:
368,195,12818,1,0,0:0:0:0:
223,317,13047,1,0,0:0:0:0:
128,96,13276,5,0,0:0:0:0:
384,288,13505,1,0,0:0:0:0:
384,96,13734,1,0,0:0:0:0:
139,284,13963,2,0,L|198:238,2,50
380,103,14421,2,0,L|336:138,2,50
271,49,14879,5,0,0:0:0:0:
267,354,15108,1,0,0:0:0:0:
463,159,15337,1,0,0:0:0:0:
446,206,15451,1,0,0:0:0:0:
400,227,15566,1,0,0:0:0:0:
249,68,15795,1,0,0:0:0:0:
42,142,16024,2,0,P|62:190|119:224,1,100
149,217,16367,1,0,0:0:0:0:
198,223,16482,2,0,B|241:263|236:323|238:323,1,100
57,332,16940,5,0,0:0:0:0:
165,130,17169,1,0,0:0:0:0:
130,351,17398,1,0,0:0:0:0:
94,184,17627,1,0,0:0:0:0:
89,134,17742,1,0,0:0:0:0:
108,88,17856,1,0,0:0:0:0:
328,109,18085,1,0,0:0:0:0:
330,158,18199,1,0,0:0:0:0:
307,203,18314,1,0,0:0:0:0:
304,343,18543,1,0,0:0:0:0:
257,39,18772,1,0,0:0:0:0:
292,280,19001,5,0,0:0:0:0:
282,231,19115,1,0,0:0:0:0:
270,182,19230,1,0,0:0:0:0:
311,359,19459,1,0,0:0:0:0:
423,173,19688,2,0,B|457:211|457:211|443:281,1,100
411,293,20031,1,0,0:0:0:0:
363,309,20146,2,0,B|313:272|313:272|310:204,1,100
124,75,20604,5,0,0:0:0:0:
82,102,20718,1,0,0:0:0:0:
55,144,20833,1,0,0:0:0:0:
63,193,20947,1,0,0:0:0:0:
100,226,21062,1,0,0:0:0:0:
149,232,21176,1,0,0:0:0:0:
190,203,21291,1,0,0:0:0:0:
202,154,21405,1,0,0:0:0:0:
241,123,21520,5,0,0:0:0:0:
287,140,21634,1,0,0:0:0:0:
313,182,21749,1,0,0:0:0:0:
297,229,21863,1,0,0:0:0:0:
249,245,21978,1,0,0:0:0:0:
202,226,22092,1,0,0:0:0:0:
180,180,22207,1,0,0:0:0:0:
194,132,22321,1,0,0:0:0:0:
241,123,22436,5,0,0:0:0:0:
286,142,22550,1,0,0:0:0:0:
320,178,22665,1,0,0:0:0:0:
369,186,22779,1,0,0:0:0:0:
417,172,22894,1,0,0:0:0:0:
441,127,23009,1,0,0:0:0:0:
419,81,23123,1,0,0:0:0:0:
370,69,23238,1,0,0:0:0:0:
326,93,23352,5,0,0:0:0:0:
298,135,23467,1,0,0:0:0:0:
292,184,23581,1,0,0:0:0:0:
276,231,23696,1,0,0:0:0:0:
237,262,23810,1,0,0:0:0:0:
186,264,23925,1,0,0:0:0:0:
141,241,24039,1,0,0:0:0:0:
119,195,24154,1,0,0:0:0:0:
256,192,25642,5,0,0:0:0:0:
425,81,26100,5,0,0:0:0:0:
346,255,26329,1,0,0:0:0:0:
327,47,26558,1,0,0:0:0:0:
443,253,26787,1,0,0:0:0:0:
278,115,27016,1,0,0:0:0:0:
488,244,27245,1,0,0:0:0:0:
476,292,27360,1,0,0:0:0:0:
429,310,27474,1,0,0:0:0:0:
496,158,27703,1,0,0:0:0:0:
291,94,27932,5,0,0:0:0:0:
347,327,28161,1,0,0:0:0:0:
123,226,28390,1,0,0:0:0:0:
413,224,28619,1,0,0:0:0:0:
233,317,28848,1,0,0:0:0:0:
272,103,29077,1,0,0:0:0:0:
294,147,29192,1,0,0:0:0:0:
280,194,29306,1,0,0:0:0:0:
181,331,29535,1,0,0:0:0:0:
163,283,29650,1,0,0:0:0:0:
183,237,29764,1,0,0:0:0:0:
393,180,29993,2,0,B|366:229|313:260,1,100
397,102,30451,1,0,0:0:0:0:
220,213,30680,5,0,0:0:0:0:
334,316,30909,1,0,0:0:0:0:
266,138,31138,1,0,0:0:0:0:
280,354,31367,1,0,0:0:0:0:
423,201,31596,1,0,0:0:0:0:
227,259,31825,1,0,0:0:0:0:
267,228,31940,1,0,0:0:0:0:
307,198,32054,1,0,0:0:0:0:
87,347,32283,1,0,0:0:0:0:
137,101,32512,6,0,P|176:150|223:174,1,100
395,259,32971,2,0,P|356:308|309:332,1,100
133,193,33429,1,0,0:0:0:0:
404,360,33658,1,0,0:0:0:0:
94,309,33887,1,0,0:0:0:0:
422,227,34116,1,0,0:0:0:0:
147,363,34345,1,0,0:0:0:0:
359,185,34574,1,0,0:0:0:0:
367,234,34688,1,0,0:0:0:0:
347,280,34803,1,0,0:0:0:0:
81,339,35032,1,0,0:0:0:0:
322,320,35261,5,0,0:0:0:0:
115,86,35490,1,0,0:0:0:0:
255,339,35719,1,0,0:0:0:0:
417,116,35948,1,0,0:0:0:0:
309,339,36177,1,0,0:0:0:0:
116,156,36406,1,0,0:0:0:0:
115,205,36520,1,0,0:0:0:0:
153,237,36635,1,0,0:0:0:0:
422,296,36864,1,0,0:0:0:0:
426,83,37093,5,0,0:0:0:0:
464,115,37207,1,0,0:0:0:0:
476,163,37322,1,0,0:0:0:0:
458,209,37436,1,0,0:0:0:0:
413,232,37551,1,0,0:0:0:0:
365,216,37665,1,0,0:0:0:0:
315,206,37780,1,0,0:0:0:0:
268,222,37894,1,0,0:0:0:0:
245,266,38009,5,0,0:0:0:0:
272,307,38123,1,0,0:0:0:0:
321,317,38238,1,0,0:0:0:0:
361,287,38352,1,0,0:0:0:0:
372,238,38467,1,0,0:0:0:0:
359,189,38581,1,0,0:0:0:0:
320,157,38696,1,0,0:0:0:0:
270,159,38810,1,0,0:0:0:0:
242,117,38925,5,0,0:0:0:0:
204,83,39039,1,0,0:0:0:0:
154,75,39154,1,0,0:0:0:0:
105,94,39268,1,0,0:0:0:0:
86,140,39383,1,0,0:0:0:0:
101,187,39497,1,0,0:0:0:0:
141,217,39612,1,0,0:0:0:0:
190,218,39726,1,0,0:0:0:0:
229,249,39841,5,0,0:0:0:0:
224,298,39955,1,0,0:0:0:0:
179,320,40070,1,0,0:0:0:0:
130,309,40184,1,0,0:0:0:0:
91,277,40299,1,0,0:0:0:0:
89,227,40413,1,0,0:0:0:0:
110,181,40528,1,0,0:0:0:0:
154,157,40642,1,0,0:0:0:0:
195,284,40757,5,0,0:0:0:0:
425,191,40986,1,0,0:0:0:0:
229,105,41215,1,0,0:0:0:0:
357,351,41444,1,0,0:0:0:0:
179,214,41673,1,0,0:0:0:0:
407,156,41902,1,0,0:0:0:0:
405,205,42016,1,0,0:0:0:0:
365,235,42131,1,0,0:0:0:0:
388,73,42360,1,0,0:0:0:0:
242,266,42589,5,0,0:0:0:0:
430,46,42818,1,0,0:0:0:0:
141,227,43047,1,0,0:0:0:0:
306,20,43276,1,0,0:0:0:0:
220,298,43505,1,0,0:0:0:0:
375,142,43734,1,0,0:0:0:0:
403,183,43849,1,0,0:0:0:0:
404,232,43963,1,0,0:0:0:0:
241,331,44192,1,0,0:0:0:0:
81,213,44421,6,0,L|295:160,1,200
275,164,44879,1,0,0:0:0:0:
337,319,45108,1,0,0:0:0:0:
383,126,45337,1,0,0:0:0:0:
430,325,45566,1,0,0:0:0:0:
417,276,45681,1,0,0:0:0:0:
404,227,45795,1,0,0:0:0:0:
372,63,46024,1,0,0:0:0:0:
367,321,46253,1,0,0:0:0:0:
103,329,46482,5,0,0:0:0:0:
300,248,46711,1,0,0:0:0:0:
216,52,46940,1,0,0:0:0:0:
8,140,47169,1,0,0:0:0:0:
81,329,47398,1,0,0:0:0:0:
126,307,47513,1,0,0:0:0:0:
172,288,47627,1,0,0:0:0:0:
365,202,47856,1,0,0:0:0:0:
93,219,48085,5,0,0:0:0:0:
428,142,48314,1,0,0:0:0:0:
42,231,48543,1,0,0:0:0:0:
477,132,48772,1,0,0:0:0:0:
93,219,49001,1,0,0:0:0:0:
381,154,49230,2,0,L|299:171,2,50
156,204,49688,1,0,0:0:0:0:
219,345,49917,5,0,0:0:0:0:
449,306,50146,1,0,0:0:0:0:
274,123,50375,1,0,0:0:0:0:
319,314,50604,1,0,0:0:0:0:
172,146,50833,1,0,0:0:0:0:
126,346,51062,1,0,0:0:0:0:
351,307,51291,1,0,0:0:0:0:
172,110,51520,1,0,0:0:0:0:
410,67,51749,5,0,0:0:0:0:
418,121,51864,1,0,0:0:0:0:
409,175,51978,1,0,0:0:0:0:
368,213,52093,1,0,0:0:0:0:
315,227,52207,1,0,0:0:0:0:
261,212,52322,1,0,0:0:0:0:
207,198,52436,1,0,0:0:0:0:
152,207,52551,1,0,0:0:0:0:
141,260,52665,5,0,0:0:0:0:
164,309,52780,1,0,0:0:0:0:
208,341,52895,1,0,0:0:0:0:
262,343,53009,1,0,0:0:0:0:
313,323,53124,1,0,0:0:0:0:
351,284,53238,1,0,0:0:0:0:
362,229,53353,1,0,0:0:0:0:
341,178,53467,1,0,0:0:0:0:
395,184,53582,5,0,0:0:0:0:
443,158,53696,1,0,0:0:0:0:
466,107,53811,1,0,0:0:0:0:
451,54,53925,1,0,0:0:0:0:
398,37,54040,1,0,0:0:0:0:
344,50,54154,1,0,0:0:0:0:
312,95,54269,1,0,0:0:0:0:
324,148,54383,1,0,0:0:0:0:
378,142,54498,5,0,0:0:0:0:
408,187,54612,1,0,0:0:0:0:
401,241,54727,1,0,0:0:0:0:
355,271,54841,1,0,0:0:0:0:
299,268,54956,1,0,0:0:0:0:
249,245,55070,1,0,0:0:0:0:
197,224,55185,1,0,0:0:0:0:
147,246,55299,1,0,0:0:0:0:
115,291,55414,5,0,0:0:0:0:
365,60,55643,1,0,0:0:0:0:
152,323,55872,1,0,0:0:0:0:
396,327,56101,1,0,0:0:0:0:
142,58,56330,1,0,0:0:0:0:
400,192,56559,1,0,0:0:0:0:
95,187,56788,1,0,0:0:0:0:
121,229,56902,1,0,0:0:0:0:
168,243,57017,1,0,0:0:0:0:
384,126,57246,5,0,0:0:0:0:
154,304,57475,1,0,0:0:0:0:
402,106,57704,1,0,0:0:0:0:
367,142,57818,1,0,0:0:0:0:
328,174,57933,1,0,0:0:0:0:
165,320,58162,1,0,0:0:0:0:
384,320,58391,1,0,0:0:0:0:
255,192,58620,1,0,0:0:0:0:
255,192,58734,1,0,0:0:0:0:
255,192,58849,1,0,0:0:0:0:
256,333,59078,5,0,0:0:0:0:
373,176,59307,1,0,0:0:0:0:
259,28,59536,1,0,0:0:0:0:
147,176,59765,1,0,0:0:0:0:
256,368,59994,5,0,0:0:0:0:
432,192,60223,1,0,0:0:0:0:
256,16,60452,1,0,0:0:0:0:
80,192,60681,1,0,0:0:0:0:
415,196,60910,1,0,0:0:0:0:
150,128,61139,1,0,0:0:0:0:
158,182,61253,1,0,0:0:0:0:
200,217,61368,1,0,0:0:0:0:
414,152,61597,5,0,0:0:0:0:
209,328,61826,1,0,0:0:0:0:
442,127,62055,1,0,0:0:0:0:
407,169,62169,1,0,0:0:0:0:
369,209,62284,1,0,0:0:0:0:
262,326,62513,1,0,0:0:0:0:
113,202,62742,5,0,0:0:0:0:
417,207,62971,1,0,0:0:0:0:
177,113,63200,1,0,0:0:0:0:
189,166,63315,1,0,0:0:0:0:
235,194,63429,1,0,0:0:0:0:
356,85,63658,5,0,0:0:0:0:
354,313,63887,1,0,0:0:0:0:
421,92,64116,1,0,0:0:0:0:
398,136,64230,1,0,0:0:0:0:
367,176,64345,1,0,0:0:0:0:
277,311,64574,5,0,0:0:0:0:
465,176,64803,1,0,0:0:0:0:
335,336,65032,1,0,0:0:0:0:
342,286,65146,1,0,0:0:0:0:
349,236,65261,1,0,0:0:0:0:
372,60,65490,5,0,0:0:0:0:
238,265,65719,1,0,0:0:0:0:
307,48,65948,1,0,0:0:0:0:
305,97,66062,1,0,0:0:0:0:
298,146,66177,1,0,0:0:0:0:
426,227,66406,5,0,0:0:0:0:
373,210,66521,1,0,0:0:0:0:
323,233,66635,1,0,0:0:0:0:
273,257,66750,1,0,0:0:0:0:
220,241,66864,1,0,0:0:0:0:
90,140,67093,5,0,0:0:0:0:
418,321,67322,1,0,0:0:0:0:
173,151,67551,1,0,0:0:0:0:
356,302,67780,1,0,0:0:0:0:
158,247,68009,1,0,0:0:0:0:
383,216,68238,5,0,0:0:0:0:
110,145,68467,1,0,0:0:0:0:
157,162,68582,1,0,0:0:0:0:
203,180,68696,1,0,0:0:0:0:
435,242,68925,1,0,0:0:0:0:
76,133,69154,1,0,0:0:0:0:
409,239,69383,5,0,0:0:0:0:
362,220,69498,1,0,0:0:0:0:
315,202,69612,1,0,0:0:0:0:
74,124,69841,1,0,0:0:0:0:
418,129,70070,1,0,0:0:0:0:
406,267,70299,5,0,0:0:0:0:
176,64,70528,1,0,0:0:0:0:
332,244,70757,1,0,0:0:0:0:
242,79,70986,1,0,0:0:0:0:
270,211,71215,1,0,0:0:0:0:
303,103,71444,1,0,0:0:0:0:
285,160,71673,1,0,0:0:0:0:
285,160,71788,1,0,0:0:0:0:
285,160,71902,1,0,0:0:0:0:
106,267,72131,5,0,0:0:0:0:
336,64,72360,1,0,0:0:0:0:
180,244,72589,1,0,0:0:0:0:
270,79,72818,1,0,0:0:0:0:
242,211,73047,1,0,0:0:0:0:
209,103,73276,1,0,0:0:0:0:
227,160,73505,1,0,0:0:0:0:
227,160,73620,1,0,0:0:0:0:
227,160,73735,1,0,0:0:0:0:
249,333,73963,5,0,0:0:0:0:
258,45,74192,1,0,0:0:0:0:
307,327,74421,1,0,0:0:0:0:
210,54,74650,1,0,0:0:0:0:
362,308,74879,1,0,0:0:0:0:
155,81,75108,1,0,0:0:0:0:
418,285,75337,1,0,0:0:0:0:
111,121,75566,1,0,0:0:0:0:
371,325,75796,5,0,0:0:0:0:
215,98,76025,1,0,0:0:0:0:
181,135,76139,1,0,0:0:0:0:
164,182,76254,1,0,0:0:0:0:
312,81,76483,1,0,0:0:0:0:
349,292,76712,1,0,0:0:0:0:
114,248,76941,1,0,0:0:0:0:
129,200,77055,1,0,0:0:0:0:
169,170,77170,1,0,0:0:0:0:
441,99,77399,5,0,0:0:0:0:
432,153,77513,1,0,0:0:0:0:
387,182,77628,1,0,0:0:0:0:
332,187,77742,1,0,0:0:0:0:
288,153,77857,1,0,0:0:0:0:
438,60,78086,1,0,0:0:0:0:
361,329,78315,6,0,P|439:307|457:234,1,150
461,227,78773,1,0,0:0:0:0:
475,58,79002,1,0,0:0:0:0:
420,58,79116,1,0,0:0:0:0:
377,93,79231,1,0,0:0:0:0:
313,240,79460,1,0,0:0:0:0:
480,90,79689,1,0,0:0:0:0:
215,181,79918,1,0,0:0:0:0:
252,141,80032,1,0,0:0:0:0:
307,139,80147,1,0,0:0:0:0:
433,44,80376,5,0,0:0:0:0:
434,288,80605,1,0,0:0:0:0:
160,288,80834,1,0,0:0:0:0:
160,288,81063,1,0,0:0:0:0:
125,330,81177,1,0,0:0:0:0:
69,332,81292,1,0,0:0:0:0:
29,294,81406,1,0,0:0:0:0:
29,238,81521,1,0,0:0:0:0:
242,317,81750,1,0,0:0:0:0:
338,144,81979,6,0,P|410:154|434:243,1,150
440,254,82437,1,0,0:0:0:0:
275,335,82666,1,0,0:0:0:0:
362,181,82895,1,0,0:0:0:0:
184,81,83124,1,0,0:0:0:0:
216,124,83239,1,0,0:0:0:0:
201,177,83353,1,0,0:0:0:0:
90,251,83582,1,0,0:0:0:0:
244,343,83811,5,0,0:0:0:0:
368,213,84040,1,0,0:0:0:0:
355,159,84155,1,0,0:0:0:0:
305,135,84269,1,0,0:0:0:0:
27,287,84498,1,0,0:0:0:0:
453,291,84727,1,0,0:0:0:0:
256,192,101443,6,0,L|256:96,2,50,0|0|0,0:0|0:0|0:0,0:0:0:0:
125,277,101901,1,0,0:0:0:0:
360,146,102130,1,0,0:0:0:0:
206,302,102359,1,0,0:0:0:0:
308,86,102588,1,0,0:0:0:0:
316,300,102817,1,0,0:0:0:0:
207,83,103046,1,0,0:0:0:0:
94,268,103275,5,0,0:0:0:0:
114,313,103390,1,0,0:0:0:0:
162,322,103504,1,0,0:0:0:0:
379,316,103733,1,0,0:0:0:0:
148,99,103962,1,0,0:0:0:0:
325,268,104191,1,0,0:0:0:0:
286,235,104306,1,0,0:0:0:0:
247,203,104420,1,0,0:0:0:0:
94,79,104649,5,0,0:0:0:0:
160,336,104878,1,0,0:0:0:0:
64,192,105107,2,0,L|144:192,2,50,0|0|0,0:0|0:0|0:0,0:0:0:0:
400,197,105565,1,0,0:0:0:0:
173,196,105794,1,0,0:0:0:0:
288,342,106023,1,0,0:0:0:0:
333,320,106138,1,0,0:0:0:0:
356,276,106252,1,0,0:0:0:0:
349,65,106481,5,0,0:0:0:0:
460,265,106710,1,0,0:0:0:0:
223,254,106939,1,0,0:0:0:0:
261,221,107054,1,0,0:0:0:0:
301,191,107168,1,0,0:0:0:0:
128,328,107397,1,0,0:0:0:0:
64,192,107626,1,0,0:0:0:0:
464,192,107855,1,0,0:0:0:0:
112,192,108084,1,0,0:0:0:0:
400,196,108313,1,0,0:0:0:0:
147,294,108542,5,0,0:0:0:0:
362,50,108771,1,0,0:0:0:0:
214,322,109000,1,0,0:0:0:0:
298,31,109229,1,0,0:0:0:0:
277,324,109458,1,0,0:0:0:0:
236,54,109687,1,0,0:0:0:0:
333,290,109916,1,0,0:0:0:0:
178,85,110145,1,0,0:0:0:0:
388,272,110374,5,0,0:0:0:0:
127,122,110603,1,0,0:0:0:0:
382,216,110832,1,0,0:0:0:0:
100,174,111061,1,0,0:0:0:0:
351,170,111290,1,0,0:0:0:0:
95,234,111519,1,0,0:0:0:0:
316,118,111748,1,0,0:0:0:0:
149,278,111977,1,0,0:0:0:0:
417,76,112206,5,0,0:0:0:0:
370,56,112321,1,0,0:0:0:0:
320,59,112435,1,0,0:0:0:0:
279,89,112550,1,0,0:0:0:0:
254,132,112665,1,0,0:0:0:0:
247,181,112779,1,0,0:0:0:0:
266,227,112894,1,0,0:0:0:0:
270,276,113008,1,0,0:0:0:0:
230,306,113123,5,0,0:0:0:0:
186,281,113237,1,0,0:0:0:0:
174,232,113352,1,0,0:0:0:0:
197,188,113466,1,0,0:0:0:0:
243,168,113581,1,0,0:0:0:0:
292,169,113695,1,0,0:0:0:0:
331,199,113810,1,0,0:0:0:0:
349,245,113924,1,0,0:0:0:0:
390,273,114039,5,0,0:0:0:0:
432,247,114153,1,0,0:0:0:0:
453,201,114268,1,0,0:0:0:0:
453,151,114382,1,0,0:0:0:0:
420,112,114497,1,0,0:0:0:0:
374,92,114611,1,0,0:0:0:0:
325,105,114726,1,0,0:0:0:0:
275,108,114840,1,0,0:0:0:0:
242,69,114955,5,0,0:0:0:0:
196,49,115069,1,0,0:0:0:0:
146,58,115184,1,0,0:0:0:0:
109,92,115298,1,0,0:0:0:0:
91,139,115413,1,0,0:0:0:0:
107,186,115527,1,0,0:0:0:0:
140,223,115642,1,0,0:0:0:0:
189,221,115756,1,0,0:0:0:0:
227,188,115871,5,0,0:0:0:0:
273,368,116100,1,0,0:0:0:0:
457,263,116329,1,0,0:0:0:0:
237,256,116558,1,0,0:0:0:0:
439,343,116787,1,0,0:0:0:0:
401,129,117016,1,0,0:0:0:0:
357,104,117130,1,0,0:0:0:0:
307,114,117245,1,0,0:0:0:0:
339,293,117474,1,0,0:0:0:0:
64,192,117703,5,0,0:0:0:0:
276,72,117932,1,0,0:0:0:0:
266,319,118161,1,0,0:0:0:0:
136,146,118390,1,0,0:0:0:0:
338,36,118619,1,0,0:0:0:0:
341,295,118848,1,0,0:0:0:0:
314,252,118962,1,0,0:0:0:0:
287,209,119077,1,0,0:0:0:0:
392,357,119306,1,0,0:0:0:0:
481,236,119535,6,0,P|491:156|383:125,1,200
224,272,120222,5,0,0:0:0:0:
264,301,120336,1,0,0:0:0:0:
314,304,120451,1,0,0:0:0:0:
191,201,120680,1,0,0:0:0:0:
381,332,120909,1,0,0:0:0:0:
154,167,121138,1,0,0:0:0:0:
411,353,121367,1,0,0:0:0:0:
200,111,121596,5,0,0:0:0:0:
195,160,121710,1,0,0:0:0:0:
226,199,121825,1,0,0:0:0:0:
382,81,122054,1,0,0:0:0:0:
259,268,122283,1,0,0:0:0:0:
298,66,122512,1,0,0:0:0:0:
324,108,122627,1,0,0:0:0:0:
319,157,122741,1,0,0:0:0:0:
205,294,122970,1,0,0:0:0:0:
432,336,123199,5,0,0:0:0:0:
496,224,123428,1,0,0:0:0:0:
432,48,123657,1,0,0:0:0:0:
496,160,123886,1,0,0:0:0:0:
224,161,124115,1,0,0:0:0:0:
346,316,124344,1,0,0:0:0:0:
382,281,124459,1,0,0:0:0:0:
377,231,124573,1,0,0:0:0:0:
292,76,124802,1,0,0:0:0:0:
145,312,125031,5,0,0:0:0:0:
112,127,125260,1,0,0:0:0:0:
275,296,125489,1,0,0:0:0:0:
40,241,125718,1,0,0:0:0:0:
287,345,125947,1,0,0:0:0:0:
202,164,126176,1,0,0:0:0:0:
178,208,126291,1,0,0:0:0:0:
151,250,126405,1,0,0:0:0:0:
273,32,126634,1,0,0:0:0:0:
300,345,126863,5,0,0:0:0:0:
347,317,126978,1,0,0:0:0:0:
379,272,127092,1,0,0:0:0:0:
397,220,127207,1,0,0:0:0:0:
394,165,127321,1,0,0:0:0:0:
370,114,127436,1,0,0:0:0:0:
319,93,127550,1,0,0:0:0:0:
263,95,127665,1,0,0:0:0:0:
286,144,127779,5,0,0:0:0:0:
288,199,127894,1,0,0:0:0:0:
260,246,128008,1,0,0:0:0:0:
210,270,128123,1,0,0:0:0:0:
155,264,128237,1,0,0:0:0:0:
121,220,128352,1,0,0:0:0:0:
115,165,128466,1,0,0:0:0:0:
139,115,128581,1,0,0:0:0:0:
181,149,128695,5,0,0:0:0:0:
229,175,128810,1,0,0:0:0:0:
283,175,128924,1,0,0:0:0:0:
337,164,129039,1,0,0:0:0:0:
389,149,129153,1,0,0:0:0:0:
442,164,129268,1,0,0:0:0:0:
473,208,129382,1,0,0:0:0:0:
465,262,129497,1,0,0:0:0:0:
410,266,129611,5,0,0:0:0:0:
356,253,129725,1,0,0:0:0:0:
308,280,129840,1,0,0:0:0:0:
275,324,129954,1,0,0:0:0:0:
221,335,130069,1,0,0:0:0:0:
169,315,130183,1,0,0:0:0:0:
140,267,130298,1,0,0:0:0:0:
151,212,130413,1,0,0:0:0:0:
191,174,130527,5,0,0:0:0:0:
427,170,130756,1,0,0:0:0:0:
266,28,130985,1,0,0:0:0:0:
303,277,131214,1,0,0:0:0:0:
439,136,131443,1,0,0:0:0:0:
489,330,131672,1,0,0:0:0:0:
220,198,131901,1,0,0:0:0:0:
258,158,132016,1,0,0:0:0:0:
312,161,132130,1,0,0:0:0:0:
327,331,132359,5,0,0:0:0:0:
499,209,132589,1,0,0:0:0:0:
292,100,132818,1,0,0:0:0:0:
244,127,132932,1,0,0:0:0:0:
231,180,133047,1,0,0:0:0:0:
391,225,133276,1,0,0:0:0:0:
186,290,133505,1,0,0:0:0:0:
196,72,133734,1,0,0:0:0:0:
249,85,133848,1,0,0:0:0:0:
277,132,133963,1,0,0:0:0:0:
259,291,134192,5,0,0:0:0:0:
359,50,134421,1,0,0:0:0:0:
474,291,134650,1,0,0:0:0:0:
229,145,134879,1,0,0:0:0:0:
486,148,135108,1,0,0:0:0:0:
366,298,135337,1,0,0:0:0:0:
366,298,135451,1,0,0:0:0:0:
366,298,135566,1,0,0:0:0:0:
192,192,135795,5,0,0:0:0:0:
320,192,136024,1,0,0:0:0:0:
112,192,136253,1,0,0:0:0:0:
400,192,136482,1,0,0:0:0:0:
32,192,136711,1,0,0:0:0:0:
480,192,136940,1,0,0:0:0:0:
112,192,137169,1,0,0:0:0:0:
400,192,137398,1,0,0:0:0:0:
192,192,137627,1,0,0:0:0:0:
320,192,137856,1,0,0:0:0:0:
163,274,138085,5,0,0:0:0:0:
369,57,138314,1,0,0:0:0:0:
243,281,138543,1,0,0:0:0:0:
123,69,138772,1,0,0:0:0:0:
109,122,138886,1,0,0:0:0:0:
142,165,139001,1,0,0:0:0:0:
450,73,139230,1,0,0:0:0:0:
256,192,139459,5,0,0:0:0:0:
472,344,139688,1,0,0:0:0:0:
423,318,139802,1,0,0:0:0:0:
374,292,139917,1,0,0:0:0:0:
210,195,140146,1,0,0:0:0:0:
505,360,140375,1,0,0:0:0:0:
370,159,140604,1,0,0:0:0:0:
333,117,140718,1,0,0:0:0:0:
277,111,140833,1,0,0:0:0:0:
237,304,141062,1,0,0:0:0:0:
176,80,141291,5,0,0:0:0:0:
203,328,141520,1,0,0:0:0:0:
385,184,141749,1,0,0:0:0:0:
355,138,141863,1,0,0:0:0:0:
300,130,141978,1,0,0:0:0:0:
101,203,142207,1,0,0:0:0:0:
290,331,142436,1,0,0:0:0:0:
431,128,142665,1,0,0:0:0:0:
222,12,142894,1,0,0:0:0:0:
102,164,143123,5,0,0:0:0:0:
332,155,143352,1,0,0:0:0:0:
224,343,143581,1,0,0:0:0:0:
168,338,143696,1,0,0:0:0:0:
132,296,143810,1,0,0:0:0:0:
275,185,144039,1,0,0:0:0:0:
63,320,144268,1,0,0:0:0:0:
328,226,144497,1,0,0:0:0:0:
275,241,144612,1,0,0:0:0:0:
221,231,144726,1,0,0:0:0:0:
61,202,144955,5,0,0:0:0:0:
470,209,145184,1,0,0:0:0:0:
174,320,145413,1,0,0:0:0:0:
143,75,145642,1,0,0:0:0:0:
238,311,145871,1,0,0:0:0:0:
55,190,146100,1,0,0:0:0:0:
284,130,146329,1,0,0:0:0:0:
76,255,146558,1,0,0:0:0:0:
256,192,146787,1,0,0:0:0:0:
256,192,146902,1,0,0:0:0:0:
256,192,147016,1,0,0:0:0:0:
315,75,147245,5,0,0:0:0:0:
423,312,147474,1,0,0:0:0:0:
372,61,147703,1,0,0:0:0:0:
483,250,147932,1,0,0:0:0:0:
237,160,148161,1,0,0:0:0:0:
448,297,148390,1,0,0:0:0:0:
256,192,148619,1,0,0:0:0:0:
256,192,148734,1,0,0:0:0:0:
256,192,148848,1,0,0:0:0:0:
351,75,149077,5,0,0:0:0:0:
197,278,149306,1,0,0:0:0:0:
315,126,149535,1,0,0:0:0:0:
156,326,149764,1,0,0:0:0:0:
280,176,149993,1,0,0:0:0:0:
119,371,150222,1,0,0:0:0:0:
351,75,150451,1,0,0:0:0:0:
148,80,150680,5,0,0:0:0:0:
345,301,150909,1,0,0:0:0:0:
345,301,151024,1,0,0:0:0:0:
345,301,151138,1,0,0:0:0:0:
157,298,151367,5,0,0:0:0:0:
338,81,151596,1,0,0:0:0:0:
248,298,151825,1,0,0:0:0:0:
248,298,151940,1,0,0:0:0:0:
248,298,152054,1,0,0:0:0:0:
255,65,152284,1,0,0:0:0:0:
451,300,152513,5,0,0:0:0:0:
439,246,152627,1,0,0:0:0:0:
397,210,152742,1,0,0:0:0:0:
343,198,152856,1,0,0:0:0:0:
291,217,152971,1,0,0:0:0:0:
413,353,153200,1,0,0:0:0:0:
239,244,153429,1,0,0:0:0:0:
435,83,153658,1,0,0:0:0:0:
408,130,153772,1,0,0:0:0:0:
378,176,153887,1,0,0:0:0:0:
265,337,154116,1,0,0:0:0:0:
69,338,154345,5,0,0:0:0:0:
168,161,154574,1,0,0:0:0:0:
166,215,154688,1,0,0:0:0:0:
165,270,154803,1,0,0:0:0:0:
410,354,155032,1,0,0:0:0:0:
250,195,155261,1,0,0:0:0:0:
444,301,155490,1,0,0:0:0:0:
395,275,155604,1,0,0:0:0:0:
348,245,155719,1,0,0:0:0:0:
184,130,155948,1,0,0:0:0:0:
53,291,156177,5,0,0:0:0:0:
90,330,156291,1,0,0:0:0:0:
145,334,156406,1,0,0:0:0:0:
190,304,156520,1,0,0:0:0:0:
203,250,156635,1,0,0:0:0:0:
4,309,156864,1,0,0:0:0:0:
245,178,157093,1,0,0:0:0:0:
0,240,157322,1,0,0:0:0:0:
48,214,157436,1,0,0:0:0:0:
96,188,157551,1,0,0:0:0:0:
330,78,157780,5,0,0:0:0:0:
103,271,158009,1,0,0:0:0:0:
398,107,158238,5,0,0:0:0:0:
357,143,158352,1,0,0:0:0:0:
313,177,158467,1,0,0:0:0:0:
152,316,158696,1,0,0:0:0:0:
329,107,158925,1,0,0:0:0:0:
218,325,159154,5,0,0:0:0:0:
295,60,159383,1,0,0:0:0:0:
283,333,159612,1,0,0:0:0:0:
243,28,159841,1,0,0:0:0:0:
