osu file format v14

[General]
AudioFilename: Why Are You Being Like This.mp3
AudioLeadIn: 0
PreviewTime: 61439
Countdown: 0
SampleSet: Soft
StackLeniency: 0.7
Mode: 0
LetterboxInBreaks: 1
WidescreenStoryboard: 0

[Editor]
Bookmarks: 9814,61995,92633,133484,164122,166676,181478,191767,232613
DistanceSpacing: 1
BeatDivisor: 4
GridSize: 8
TimelineZoom: 1

[Metadata]
Title:Why Are You Being Like This
TitleUnicode:Why Are You Being Like This
Artist:T-ara
ArtistUnicode:T-ara
Creator:RobotoRaccoon
Version:Insane
Source:
Tags:tiara temptastic -bakari- kpop k-pop
BeatmapID:129260
BeatmapSetID:40806

[Difficulty]
HPDrainRate:7
CircleSize:4
OverallDifficulty:8
ApproachRate:9
SliderMultiplier:2.2
SliderTickRate:2

[Events]
//Background and Video events
0,0,"T-ara BG.jpg",0,0
//Break Periods
2,181711,189374
//Storyboard Layer 0 (Background)
//Storyboard Layer 1 (Fail)
//Storyboard Layer 2 (Pass)
//Storyboard Layer 3 (Foreground)
//Storyboard Sound Samples

[TimingPoints]
240,319.148936170213,4,2,0,100,1,0
62154,-90.9090909090909,4,2,0,100,0,1
81303,-90.9090909090909,4,1,0,50,0,1
82261,-90.9090909090909,4,2,0,100,0,1
91516,-90.9090909090909,4,1,0,50,0,1
92474,-90.9090909090909,4,2,0,100,0,1
92793,-100,4,2,0,100,0,0
133644,-90.9090909090909,4,2,0,100,0,1
152793,-90.9090909090909,4,1,0,50,0,1
153750,-90.9090909090909,4,2,0,100,0,1
163005,-90.9090909090909,4,1,0,50,0,1
163963,-90.9090909090909,4,2,0,100,0,1
164282,-100,4,2,0,100,0,0
166830,465.03697043915,4,2,0,100,1,0
181715,319.148936170213,4,2,0,100,1,0
191926,-90.9090909090909,4,2,0,100,0,1
211076,-90.9090909090909,4,1,0,50,0,1
212034,-90.9090909090909,4,2,0,100,0,1
221289,-90.9090909090909,4,1,0,50,0,1
222246,-90.9090909090909,4,2,0,100,0,1
231502,-90.9090909090909,4,1,0,50,0,1
232459,-90.9090909090909,4,2,0,100,0,1
232772,-100,4,2,0,100,0,0

[Colours]
Combo1 : 255,94,94
Combo2 : 255,128,0
Combo3 : 255,0,0

[HitObjects]
256,192,9814,12,4,11091,0:0:0:0:
40,192,11410,5,8,0:0:0:0:
112,112,11569,1,8,0:0:0:0:
224,88,11729,1,0,0:0:0:0:
224,304,12048,1,8,0:0:0:0:
336,112,12367,1,0,0:0:0:0:
440,304,12686,1,8,0:0:0:0:
440,192,12846,2,0,B|400:192|368:216|344:248|344:248|320:216|288:192|248:192,1,220,8|8,0:0|0:0,0:0:0:0:
248,304,13325,1,8,0:0:0:0:
248,32,13644,5,0,0:0:0:0:
136,56,13803,1,0,0:0:0:0:
64,136,13963,2,8,B|48:160|40:188|48:216|64:240,1,110
256,136,14442,2,8,B|256:248,1,110
264,352,14920,1,0,0:0:0:0:
376,328,15079,1,0,0:0:0:0:
448,248,15239,2,8,B|464:224|472:196|464:168|448:144,1,110
256,248,15718,2,8,B|256:136,1,110
472,192,16197,5,0,0:0:0:0:
472,192,16516,1,8,0:0:0:0:
400,272,16675,1,8,0:0:0:0:
288,296,16835,1,0,0:0:0:0:
288,80,17154,1,8,0:0:0:0:
176,272,17473,1,0,0:0:0:0:
72,80,17792,1,8,0:0:0:0:
72,192,17952,2,0,B|112:192|144:168|168:136|168:136|192:168|224:192|264:192,1,220,8|8,0:0|0:0,0:0:0:0:
264,80,18431,1,8,0:0:0:0:
432,252,18750,5,0,0:0:0:0:
360,333,18910,1,0,0:0:0:0:
256,363,19069,1,8,0:0:0:0:
151,333,19229,1,8,0:0:0:0:
80,252,19388,1,0,0:0:0:0:
80,144,19548,1,8,0:0:0:0:
92,112,19628,1,0,0:0:0:0:
104,80,19708,1,8,0:0:0:0:
256,192,20027,12,0,20984,0:0:0:0:
80,288,21303,6,0,B|32:256|16:192|32:128|80:96,1,220,4|8,0:0|0:0,0:0:0:0:
144,192,21782,1,8,0:0:0:0:
368,192,22101,1,8,0:0:0:0:
432,96,22261,2,0,B|480:128|496:192|480:256|432:288,1,220,8|0,0:0|0:0,0:0:0:0:
256,160,22899,1,0,0:0:0:0:
364,352,23218,5,2,0:0:0:0:
148,352,23537,1,2,0:0:0:0:
416,288,23857,2,0,B|364:260|312:288,1,110,8|8,0:0|0:0,0:0:0:0:
96,288,24176,2,0,B|148:260|200:288,1,110,0|8,0:0|0:0,0:0:0:0:
152,192,24495,1,8,0:0:0:0:
376,192,24814,1,0,0:0:0:0:
176,100,25133,2,0,B|184:44|256:12|328:44|336:100,1,220
40,80,25771,5,2,0:0:0:0:
40,304,26091,1,2,0:0:0:0:
148,112,26410,2,0,P|84:192|148:272,1,220
256,192,26889,1,8,0:0:0:0:
256,192,27367,1,0,0:0:0:0:
364,112,27686,2,0,P|428:192|364:272,1,220
256,192,28165,1,8,0:0:0:0:
508,156,28963,6,0,P|524:100|508:48,1,110
416,104,29282,1,8,0:0:0:0:
364,228,29442,1,8,0:0:0:0:
256,152,29601,1,0,0:0:0:0:
148,228,29761,1,8,0:0:0:0:
96,104,29920,1,8,0:0:0:0:
1,51,30080,2,0,P|-12:100|4:156,1,110
328,332,30559,6,0,L|364:228,1,110,8|8,0:0|0:0,0:0:0:0:
184,332,31037,2,0,L|148:228,1,110,8|8,0:0|0:0,0:0:0:0:
472,312,31516,5,4,0:0:0:0:
400,232,31675,1,0,0:0:0:0:
456,136,31835,2,0,P|404:128|348:136,1,110,8|8,0:0|0:0,0:0:0:0:
256,192,32154,1,0,0:0:0:0:
56,248,32314,2,0,P|108:256|164:248,1,110,8|8,0:0|0:0,0:0:0:0:
112,152,32633,1,0,0:0:0:0:
40,72,32793,1,4,0:0:0:0:
408,48,33112,5,8,0:0:0:0:
312,96,33271,1,8,0:0:0:0:
408,160,33431,1,0,0:0:0:0:
312,208,33591,1,8,0:0:0:0:
408,264,33750,1,8,0:0:0:0:
312,320,33910,1,0,0:0:0:0:
220,264,34069,2,0,B|136:332,1,110,2|2,0:0|0:0,0:0:0:0:
136,216,34388,2,0,B|52:284,1,110,2|2,0:0|0:0,0:0:0:0:
40,168,34708,5,2,0:0:0:0:
256,8,35027,1,2,0:0:0:0:
472,168,35346,1,2,0:0:0:0:
40,244,35984,5,8,0:0:0:0:
176,296,36144,1,8,0:0:0:0:
256,176,36303,1,0,0:0:0:0:
336,296,36463,1,8,0:0:0:0:
472,244,36622,1,8,0:0:0:0:
472,244,37101,1,0,0:0:0:0:
256,60,37580,5,2,0:0:0:0:
256,176,37740,1,0,0:0:0:0:
372,192,37899,2,0,P|256:292|140:192,2,330,2|0|2,0:0|0:0|0:0,0:0:0:0:
80,252,39176,5,0,0:0:0:0:
151,333,39336,1,0,0:0:0:0:
255,363,39495,1,8,0:0:0:0:
360,333,39655,1,8,0:0:0:0:
431,252,39814,1,0,0:0:0:0:
432,144,39974,1,8,0:0:0:0:
420,112,40054,1,0,0:0:0:0:
408,80,40134,1,8,0:0:0:0:
256,192,40453,12,4,41729,0:0:0:0:
384,8,42048,5,8,0:0:0:0:
464,80,42207,1,8,0:0:0:0:
488,192,42367,1,0,0:0:0:0:
464,304,42527,1,0,0:0:0:0:
384,376,42686,1,8,0:0:0:0:
256,192,43005,1,0,0:0:0:0:
304,112,43325,2,0,B|352:152|344:224,1,110,8|8,0:0|0:0,0:0:0:0:
208,112,43803,2,0,B|160:152|168:224,1,110,8|8,0:0|0:0,0:0:0:0:
0,88,44282,5,0,0:0:0:0:
40,192,44441,1,0,0:0:0:0:
128,264,44601,2,0,P|188:288|232:280,1,110,8|8,0:0|0:0,0:0:0:0:
192,64,45080,2,8,B|192:176,1,110
512,296,45559,1,0,0:0:0:0:
472,192,45718,1,0,0:0:0:0:
384,120,45878,2,0,P|324:96|280:104,1,110,8|8,0:0|0:0,0:0:0:0:
320,320,46357,2,8,B|320:208,1,110
128,376,46835,5,0,0:0:0:0:
128,376,47154,1,8,0:0:0:0:
48,304,47313,1,8,0:0:0:0:
24,192,47473,1,0,0:0:0:0:
48,80,47633,1,0,0:0:0:0:
128,8,47792,1,8,0:0:0:0:
256,192,48111,1,0,0:0:0:0:
208,272,48431,2,0,B|160:232|168:160,1,110,8|8,0:0|0:0,0:0:0:0:
304,272,48909,2,0,B|352:232|344:160,1,110,8|8,0:0|0:0,0:0:0:0:
256,192,49388,1,0,0:0:0:0:
256,192,49708,12,2,51303,0:0:0:0:
48,336,51942,5,4,0:0:0:0:
256,48,52580,1,2,0:0:0:0:
464,336,53218,1,2,0:0:0:0:
120,104,53857,5,2,0:0:0:0:
256,276,54176,1,0,0:0:0:0:
392,104,54495,1,0,0:0:0:0:
136,192,54974,2,0,B|300:236|425:62|255:-32|86:62|210:236|375:192,1,550
76,272,56410,5,2,0:0:0:0:
192,324,56569,1,2,0:0:0:0:
320,324,56728,1,2,0:0:0:0:
436,272,56888,1,2,0:0:0:0:
256,192,57048,12,2,58644,0:0:0:0:
240,32,59282,6,0,B|352:32,1,110
264,112,59601,2,0,B|152:112,1,110
240,192,59920,2,0,B|360:192,1,110,8|8,0:0|0:0,0:0:0:0:
264,272,60240,2,0,B|152:272,1,110
240,352,60559,2,0,B|352:352,1,110
460,192,60878,5,4,0:0:0:0:
460,192,61197,1,4,0:0:0:0:
256,336,62154,5,4,0:0:0:0:
328,104,62474,1,8,0:0:0:0:
184,104,62633,1,8,0:0:0:0:
48,40,62793,1,2,0:0:0:0:
256,336,63112,1,2,0:0:0:0:
464,40,63431,1,2,0:0:0:0:
256,336,63750,6,0,B|256:216,1,120.999996393919,8|8,0:0|0:0,0:0:0:0:
352,144,64069,2,0,B|328:80|256:64|184:80|160:144,1,241.999992787838
256,368,64708,1,0,0:0:0:0:
160,142,65027,1,8,0:0:0:0:
96,40,65186,1,8,0:0:0:0:
352,144,65505,1,8,0:0:0:0:
416,40,65665,1,8,0:0:0:0:
256,224,65984,1,4,0:0:0:0:
200,296,66303,6,8,B|256:328|316:296,1,121.000003692627,8|8,0:0|0:0,0:0:0:0:
408,208,66622,1,2,0:0:0:0:
368,96,66782,1,2,0:0:0:0:
256,64,66941,1,2,0:0:0:0:
136,96,67101,1,2,0:0:0:0:
88,208,67261,1,2,0:0:0:0:
452,156,67580,6,0,P|468:96|452:40,2,121.000003692627,8|8|2,0:0|0:0|0:0,0:0:0:0:
372,244,68059,1,2,0:0:0:0:
316,136,68218,1,2,0:0:0:0:
196,136,68378,1,2,0:0:0:0:
140,244,68537,1,2,0:0:0:0:
60,156,68697,2,0,P|44:96|60:40,2,121.000003692627,2|8|8,0:0|0:0|0:0,0:0:0:0:
100,332,69176,5,0,0:0:0:0:
412,332,69495,1,0,0:0:0:0:
344,40,69814,2,0,B|280:160,1,121.000003692627
168,112,70133,2,0,B|232:232,1,120.999996393919
344,184,70452,2,0,B|280:304,1,120.999996393919
168,256,70771,2,0,B|232:376,1,120.999996393919
344,328,71091,1,0,0:0:0:0:
128,128,71410,6,8,B|72:96|12:128,1,121.000003692627,8|8,0:0|0:0,0:0:0:0:
72,248,71729,1,0,0:0:0:0:
152,320,71889,1,0,0:0:0:0:
256,344,72048,1,8,0:0:0:0:
360,320,72208,1,8,0:0:0:0:
440,248,72367,1,0,0:0:0:0:
384,48,72686,6,8,B|440:16|500:48,1,121.000003692627,8|8,0:0|0:0,0:0:0:0:
440,168,73005,1,0,0:0:0:0:
360,240,73165,1,0,0:0:0:0:
256,176,73324,1,8,0:0:0:0:
152,240,73484,1,8,0:0:0:0:
72,168,73643,1,0,0:0:0:0:
368,80,73963,5,8,0:0:0:0:
256,32,74122,1,8,0:0:0:0:
144,80,74282,1,0,0:0:0:0:
256,296,74601,1,0,0:0:0:0:
256,296,74920,1,0,0:0:0:0:
48,176,75240,1,0,0:0:0:0:
128,264,75399,1,0,0:0:0:0:
464,176,75718,1,0,0:0:0:0:
384,264,75877,1,0,0:0:0:0:
256,32,76197,1,0,0:0:0:0:
200,120,76516,6,8,B|256:152|316:120,1,121.000003692627,8|8,0:0|0:0,0:0:0:0:
432,80,76835,1,0,0:0:0:0:
376,192,76995,1,0,0:0:0:0:
256,224,77154,1,8,0:0:0:0:
136,192,77314,1,0,0:0:0:0:
80,80,77474,1,0,0:0:0:0:
320,32,77793,6,8,B|292:88|320:152,1,121.000003692627,8|8,0:0|0:0,0:0:0:0:
376,264,78112,1,0,0:0:0:0:
256,288,78272,1,0,0:0:0:0:
136,264,78431,1,8,0:0:0:0:
193,149,78591,2,8,B|220:88|192:32,1,121.000003692627,8|0,0:0|0:0,0:0:0:0:
196,344,79069,1,8,0:0:0:0:
316,344,79228,1,8,0:0:0:0:
256,240,79388,5,0,0:0:0:0:
256,0,79708,1,8,0:0:0:0:
64,192,80027,5,0,0:0:0:0:
160,120,80186,1,0,0:0:0:0:
256,192,80346,1,0,0:0:0:0:
352,120,80505,1,0,0:0:0:0:
448,192,80665,1,0,0:0:0:0:
480,312,80825,1,0,0:0:0:0:
448,312,80904,1,0,0:0:0:0:
408,312,80984,1,0,0:0:0:0:
136,192,81303,5,0,0:0:0:0:
142,159,81383,1,0,0:0:0:0:
157,130,81463,1,0,0:0:0:0:
179,106,81543,1,0,0:0:0:0:
208,89,81622,1,0,0:0:0:0:
239,80,81702,1,0,0:0:0:0:
272,80,81782,1,0,0:0:0:0:
304,89,81862,1,0,0:0:0:0:
332,106,81942,1,0,0:0:0:0:
354,130,82021,1,0,0:0:0:0:
369,160,82101,1,0,0:0:0:0:
376,192,82181,1,0,0:0:0:0:
256,344,82580,5,4,0:0:0:0:
72,24,83059,1,0,0:0:0:0:
440,24,83537,1,2,0:0:0:0:
256,184,83857,1,2,0:0:0:0:
256,40,85133,5,0,0:0:0:0:
72,360,85612,1,0,0:0:0:0:
440,360,86090,1,2,0:0:0:0:
256,200,86410,1,2,0:0:0:0:
256,344,87686,5,0,0:0:0:0:
144,296,87846,1,0,0:0:0:0:
88,192,88005,1,8,0:0:0:0:
144,80,88165,1,8,0:0:0:0:
256,40,88325,1,0,0:0:0:0:
256,192,88644,5,0,0:0:0:0:
256,40,88963,5,0,0:0:0:0:
368,88,89123,1,0,0:0:0:0:
424,192,89282,1,8,0:0:0:0:
368,304,89442,1,8,0:0:0:0:
256,344,89602,1,0,0:0:0:0:
256,192,89921,5,0,0:0:0:0:
448,192,90240,5,0,0:0:0:0:
352,120,90399,1,0,0:0:0:0:
256,192,90559,1,0,0:0:0:0:
160,120,90718,1,0,0:0:0:0:
64,192,90878,1,0,0:0:0:0:
32,312,91038,1,0,0:0:0:0:
64,312,91117,1,0,0:0:0:0:
104,312,91197,1,0,0:0:0:0:
376,192,91516,5,0,0:0:0:0:
370,159,91596,1,0,0:0:0:0:
355,130,91676,1,0,0:0:0:0:
333,106,91756,1,0,0:0:0:0:
304,89,91835,1,0,0:0:0:0:
273,80,91915,1,0,0:0:0:0:
240,80,91995,1,0,0:0:0:0:
208,89,92075,1,0,0:0:0:0:
180,106,92155,1,0,0:0:0:0:
158,130,92234,1,0,0:0:0:0:
143,160,92314,1,0,0:0:0:0:
136,192,92394,1,0,0:0:0:0:
256,192,92793,5,4,0:0:0:0:
48,192,94708,5,4,0:0:0:0:
256,16,95027,1,4,0:0:0:0:
464,192,95346,1,4,0:0:0:0:
48,272,97101,5,0,0:0:0:0:
80,312,97180,1,0,0:0:0:0:
112,352,97260,1,0,0:0:0:0:
184,272,97420,1,0,0:0:0:0:
256,352,97579,1,0,0:0:0:0:
328,272,97739,1,0,0:0:0:0:
400,352,97898,1,4,0:0:0:0:
168,44,98218,5,8,0:0:0:0:
80,116,98378,1,8,0:0:0:0:
168,188,98537,1,0,0:0:0:0:
256,116,98697,1,8,0:0:0:0:
344,188,98857,1,8,0:0:0:0:
432,116,99016,1,0,0:0:0:0:
344,44,99176,1,0,0:0:0:0:
168,364,99495,6,0,P|152:312|168:260,1,110,8|8,0:0|0:0,0:0:0:0:
256,316,99814,1,0,0:0:0:0:
344,364,99974,2,0,P|360:312|344:260,1,110,8|8,0:0|0:0,0:0:0:0:
116,52,100452,6,0,P|168:36|220:52,1,110
168,172,100771,1,8,0:0:0:0:
128,300,100931,1,8,0:0:0:0:
256,272,101090,1,0,0:0:0:0:
384,300,101250,1,8,0:0:0:0:
344,172,101409,1,8,0:0:0:0:
396,52,101569,2,0,P|344:36|292:52,1,110
384,300,102048,5,8,0:0:0:0:
460,192,102208,1,8,0:0:0:0:
128,300,102527,1,8,0:0:0:0:
52,192,102687,1,8,0:0:0:0:
328,72,103005,5,4,0:0:0:0:
400,152,103164,1,0,0:0:0:0:
452,252,103325,2,0,P|400:268|348:252,1,110,8|8,0:0|0:0,0:0:0:0:
256,188,103643,1,0,0:0:0:0:
60,252,103803,2,0,P|112:268|164:252,1,110,8|8,0:0|0:0,0:0:0:0:
112,152,104122,1,0,0:0:0:0:
184,72,104282,1,4,0:0:0:0:
256,352,104601,5,8,0:0:0:0:
324,264,104761,2,0,L|384:172,1,110,8|0,0:0|0:0,0:0:0:0:
464,248,105080,2,0,L|404:340,1,110,8|8,0:0|0:0,0:3:0:0:
108,340,105559,6,0,L|48:248,1,110,2|2,0:0|0:0,0:3:0:0:
128,172,105878,2,0,L|188:264,1,110,2|2,0:0|0:0,0:0:0:0:
256,176,106197,1,2,0:0:0:0:
420,28,106516,1,2,0:0:0:0:
92,28,106835,1,2,0:0:0:0:
472,140,107474,5,8,0:0:0:0:
336,88,107634,1,8,0:0:0:0:
256,208,107793,1,0,0:0:0:0:
176,88,107953,1,8,0:0:0:0:
40,140,108112,1,8,0:0:0:0:
40,140,108591,1,0,0:0:0:0:
256,324,109070,5,2,0:0:0:0:
256,208,109230,1,0,0:0:0:0:
372,192,109389,2,0,P|256:92|140:192,2,330,2|0|2,0:0|0:0|0:0,0:0:0:0:
80,132,110665,5,0,0:0:0:0:
151,50,110825,1,0,0:0:0:0:
255,20,110984,1,8,0:0:0:0:
360,50,111144,1,8,0:0:0:0:
431,131,111303,1,0,0:0:0:0:
432,240,111463,1,8,0:0:0:0:
420,272,111543,1,0,0:0:0:0:
408,304,111623,1,8,0:0:0:0:
256,192,111942,12,0,113218,0:0:0:0:
88,136,113537,5,8,0:0:0:0:
152,224,113696,1,8,0:0:0:0:
256,192,113856,1,0,0:0:0:0:
360,224,114016,1,0,0:0:0:0:
424,136,114175,1,8,0:0:0:0:
256,0,114495,1,0,0:0:0:0:
60,96,114814,2,0,P|112:80|164:96,1,110,8|8,0:0|0:0,0:0:0:0:
112,192,115133,1,0,0:0:0:0:
164,288,115293,2,0,P|112:304|60:288,1,110,8|8,0:0|0:0,0:0:0:0:
64,64,115771,5,0,0:0:0:0:
128,152,115930,1,0,0:0:0:0:
64,240,116090,2,8,B|84:259|111:272|140:269|166:258,1,110
256,56,116569,2,8,B|256:168,1,110
448,320,117048,1,0,0:0:0:0:
384,232,117207,1,0,0:0:0:0:
448,144,117367,2,8,B|428:125|401:112|372:115|346:126,1,110
256,328,117846,2,8,B|256:216,1,110
424,248,118325,5,0,0:0:0:0:
424,248,118644,1,8,0:0:0:0:
360,160,118803,1,8,0:0:0:0:
256,192,118963,1,0,0:0:0:0:
152,160,119123,1,0,0:0:0:0:
88,248,119282,1,8,0:0:0:0:
400,192,119601,1,0,0:0:0:0:
452,288,119920,2,0,P|400:304|348:288,1,110,8|8,0:0|0:0,0:0:0:0:
400,192,120239,1,0,0:0:0:0:
348,96,120399,2,0,P|400:80|452:96,1,110,8|8,0:0|0:0,0:0:0:0:
400,192,120878,1,0,0:0:0:0:
256,192,121356,12,2,122792,0:0:0:0:
80,164,123431,6,0,P|256:52|432:168,2,440,4|2|2,0:0|0:0|0:0,0:0:0:0:
348,180,125346,2,0,P|256:128|164:180,2,220,2|2|2,0:0|0:0|0:0,0:0:0:0:
72,180,126463,2,0,P|256:352|440:184,1,550
256,64,127580,5,8,0:0:0:0:
176,136,127739,1,8,0:0:0:0:
256,216,127899,1,2,0:0:0:0:
336,136,128058,1,2,0:0:0:0:
256,64,128217,1,2,0:0:0:0:
256,216,128377,1,2,0:0:0:0:
256,192,128537,12,2,130133,0:0:0:0:
96,232,130771,6,0,B|96:120,1,110
176,208,131090,2,0,B|176:320,1,110
256,232,131409,2,0,B|256:112,1,110,8|8,0:0|0:0,0:0:0:0:
344,208,131729,2,0,B|344:320,1,110
424,232,132048,2,0,B|424:120,1,110
256,48,132367,5,4,0:0:0:0:
256,48,132686,1,4,0:0:0:0:
256,48,133644,5,4,0:0:0:0:
184,280,133964,1,8,0:0:0:0:
328,280,134123,1,8,0:0:0:0:
464,344,134283,1,2,0:0:0:0:
256,48,134602,1,2,0:0:0:0:
48,344,134921,1,2,0:0:0:0:
256,48,135240,6,0,B|256:168,1,120.999996393919,8|8,0:0|0:0,0:0:0:0:
160,240,135559,2,0,B|184:304|256:320|328:304|352:240,1,241.999992787838
256,16,136198,1,0,0:0:0:0:
344,248,136517,1,8,0:0:0:0:
456,192,136676,1,8,0:0:0:0:
168,248,136995,1,8,0:0:0:0:
56,192,137155,1,8,0:0:0:0:
256,160,137474,1,4,0:0:0:0:
316,88,137793,6,8,B|256:56|196:88,1,121.000003692627,8|8,0:0|0:0,0:0:0:0:
104,176,138112,1,2,0:0:0:0:
144,288,138272,1,2,0:0:0:0:
256,320,138431,1,2,0:0:0:0:
376,288,138591,1,2,0:0:0:0:
424,176,138751,1,2,0:0:0:0:
48,188,139070,6,8,B|16:240|48:304,1,121.000003692627,8|8,0:0|0:0,0:0:0:0:
192,356,139389,1,2,0:0:0:0:
136,220,139549,1,2,0:0:0:0:
256,140,139708,1,2,0:0:0:0:
376,220,139868,1,2,0:0:0:0:
320,356,140027,1,2,0:0:0:0:
464,304,140187,1,0,0:0:0:0:
464,304,140346,2,8,B|496:240|464:188,1,121.000003692627,8|8,0:0|0:0,0:0:0:0:
384,88,140666,5,0,0:0:0:0:
128,88,140985,1,0,0:0:0:0:
168,344,141304,2,0,B|232:224,1,120.999996393919
344,272,141623,2,0,B|280:152,1,120.999996393919
168,200,141942,2,0,B|232:80,1,120.999996393919
344,128,142261,2,0,B|280:8,1,120.999996393919
168,56,142581,1,0,0:0:0:0:
384,256,142900,6,8,B|440:288|500:256,1,121.000003692627,8|8,0:0|0:0,0:0:0:0:
440,136,143219,1,0,0:0:0:0:
360,64,143379,1,0,0:0:0:0:
256,40,143538,1,8,0:0:0:0:
152,64,143698,1,8,0:0:0:0:
72,136,143857,1,0,0:0:0:0:
128,336,144176,6,8,B|72:368|12:336,1,121.000003692627,8|8,0:0|0:0,0:0:0:0:
72,216,144495,1,0,0:0:0:0:
152,144,144655,1,0,0:0:0:0:
256,208,144814,1,8,0:0:0:0:
360,144,144974,1,8,0:0:0:0:
440,216,145133,1,0,0:0:0:0:
144,304,145453,5,8,0:0:0:0:
256,352,145612,1,8,0:0:0:0:
368,304,145772,1,0,0:0:0:0:
256,88,146091,1,0,0:0:0:0:
256,88,146410,1,0,0:0:0:0:
464,208,146730,1,0,0:0:0:0:
384,120,146889,1,0,0:0:0:0:
48,208,147208,1,0,0:0:0:0:
128,120,147367,1,0,0:0:0:0:
256,352,147687,1,0,0:0:0:0:
316,264,148006,6,8,B|256:232|196:264,1,121.000003692627,8|8,0:0|0:0,0:0:0:0:
80,304,148325,1,0,0:0:0:0:
136,192,148485,1,0,0:0:0:0:
256,160,148644,1,8,0:0:0:0:
376,192,148804,1,0,0:0:0:0:
432,304,148964,1,0,0:0:0:0:
456,48,149282,6,0,B|396:16|336:48,1,121.000003692627,8|8,0:0|0:0,0:0:0:0:
316,144,149601,2,0,B|256:176|196:144,1,121.000003692627,0|0,0:0|0:0,0:0:0:0:
168,48,149920,2,0,B|108:16|48:48,1,121.000003692627,8|8,0:0|0:0,0:0:0:0:
256,88,150239,1,0,0:0:0:0:
336,320,150559,1,8,0:0:0:0:
168,320,150718,1,8,0:0:0:0:
256,144,150878,5,0,0:0:0:0:
256,384,151198,1,8,0:0:0:0:
448,192,151517,5,0,0:0:0:0:
352,264,151676,1,0,0:0:0:0:
256,192,151836,1,0,0:0:0:0:
160,264,151995,1,0,0:0:0:0:
64,192,152155,1,0,0:0:0:0:
32,72,152315,1,0,0:0:0:0:
64,72,152394,1,0,0:0:0:0:
104,72,152474,1,0,0:0:0:0:
421,188,152793,5,0,0:0:0:0:
410,231,152873,1,0,0:0:0:0:
392,271,152953,1,0,0:0:0:0:
360,299,153033,1,0,0:0:0:0:
320,314,153112,1,0,0:0:0:0:
277,321,153192,1,0,0:0:0:0:
234,321,153272,1,0,0:0:0:0:
191,314,153352,1,0,0:0:0:0:
151,299,153432,1,0,0:0:0:0:
119,271,153511,1,0,0:0:0:0:
101,231,153591,1,0,0:0:0:0:
90,188,153671,1,0,0:0:0:0:
256,40,154070,5,4,0:0:0:0:
440,360,154549,1,0,0:0:0:0:
72,360,155027,1,2,0:0:0:0:
256,200,155347,1,2,0:0:0:0:
256,344,156623,5,0,0:0:0:0:
440,24,157102,1,0,0:0:0:0:
72,24,157580,1,2,0:0:0:0:
256,184,157900,1,2,0:0:0:0:
408,192,159176,5,0,0:0:0:0:
360,80,159336,1,0,0:0:0:0:
256,24,159495,1,8,0:0:0:0:
144,80,159655,1,8,0:0:0:0:
104,192,159815,1,0,0:0:0:0:
256,192,160133,5,0,0:0:0:0:
104,192,160453,37,0,0:0:0:0:
152,304,160613,1,0,0:0:0:0:
256,360,160772,1,8,0:0:0:0:
368,304,160932,1,8,0:0:0:0:
408,192,161092,1,0,0:0:0:0:
256,192,161411,5,0,0:0:0:0:
64,192,161730,5,0,0:0:0:0:
160,264,161889,1,0,0:0:0:0:
256,192,162049,1,0,0:0:0:0:
352,264,162208,1,0,0:0:0:0:
448,192,162368,1,0,0:0:0:0:
480,72,162528,1,0,0:0:0:0:
448,72,162607,1,0,0:0:0:0:
408,72,162687,1,0,0:0:0:0:
90,188,163006,5,0,0:0:0:0:
101,231,163086,1,0,0:0:0:0:
119,271,163166,1,0,0:0:0:0:
151,299,163246,1,0,0:0:0:0:
191,314,163325,1,0,0:0:0:0:
234,321,163405,1,0,0:0:0:0:
277,321,163485,1,0,0:0:0:0:
320,314,163565,1,0,0:0:0:0:
360,299,163645,1,0,0:0:0:0:
392,271,163724,1,0,0:0:0:0:
410,231,163804,1,0,0:0:0:0:
421,188,163884,1,0,0:0:0:0:
256,192,164283,5,4,0:0:0:0:
256,192,165559,5,4,0:0:0:0:
120,48,166830,5,4,0:0:0:0:
160,120,166985,1,0,0:0:0:0:
160,200,167140,1,0,0:0:0:0:
112,264,167295,2,0,B|184:288|256:264,1,146.666666666667,8|0,0:0|0:0,0:0:0:0:
392,336,167760,5,0,0:0:0:0:
352,264,167915,1,0,0:0:0:0:
352,184,168070,1,0,0:0:0:0:
400,120,168225,2,0,B|328:96|256:120,1,146.666666666667,8|0,0:0|0:0,0:0:0:0:
112,328,168690,5,0,0:0:0:0:
184,288,168845,1,0,0:0:0:0:
264,288,169000,1,0,0:0:0:0:
328,336,169155,2,0,B|352:264|328:192,1,146.666666666667,8|0,0:0|0:0,0:0:0:0:
400,56,169620,5,0,0:0:0:0:
328,96,169775,1,0,0:0:0:0:
248,96,169930,1,0,0:0:0:0:
184,48,170085,2,0,B|160:120|184:192,1,146.666666666667,8|0,0:0|0:0,0:0:0:0:
256,312,170550,5,0,0:0:0:0:
112,312,170860,1,0,0:0:0:0:
112,240,171015,2,0,B|184:216|256:240,1,146.666666666667,8|0,0:0|0:0,0:0:0:0:
256,72,171480,5,0,0:0:0:0:
400,72,171790,1,0,0:0:0:0:
400,144,171945,2,0,B|328:168|256:144,1,146.666666666667,8|0,0:0|0:0,0:0:0:0:
255,143,172410,1,0,0:0:0:0:
80,56,172875,21,0,0:0:0:0:
80,64,173030,1,0,0:0:0:0:
80,72,173185,1,0,0:0:0:0:
80,80,173340,1,0,0:0:0:0:
80,88,173495,1,0,0:0:0:0:
80,96,173650,1,0,0:0:0:0:
80,104,173805,1,0,0:0:0:0:
80,112,173960,1,0,0:0:0:0:
80,120,174115,1,0,0:0:0:0:
80,128,174270,1,4,0:0:0:0:
80,272,174580,5,0,0:0:0:0:
56,344,174735,2,0,B|88:360|128:368|168:360|200:344,1,146.666666666667
176,272,175200,1,0,0:0:0:0:
368,48,175665,6,0,B|216:48,1,146.666666666667,8|0,0:0|0:0,0:0:0:0:
176,128,176130,2,0,B|328:128,1,146.666666666667
368,208,176595,2,0,B|216:208,1,146.666666666667,8|0,0:0|0:0,0:0:0:0:
184,288,177060,2,0,B|408:288,1,220,0|12,0:0|0:0,0:0:0:0:
56,48,177990,5,0,0:0:0:0:
120,108,178145,1,0,0:0:0:0:
76,184,178300,1,0,0:0:0:0:
160,216,178455,1,8,0:0:0:0:
456,48,178920,1,0,0:0:0:0:
392,108,179075,1,0,0:0:0:0:
436,184,179230,1,0,0:0:0:0:
352,216,179385,1,8,0:0:0:0:
92,316,179696,5,0,0:0:0:0:
176,292,179851,1,0,0:0:0:0:
256,328,180006,1,0,0:0:0:0:
336,292,180161,1,0,0:0:0:0:
420,316,180316,1,0,0:0:0:0:
144,144,180626,2,0,B|76:108,1,73.3333333333333
368,144,181091,2,0,B|436:108,1,73.3333333333333
256,192,190651,5,8,0:0:0:0:
256,192,190970,1,8,0:0:0:0:
256,48,191927,5,4,0:0:0:0:
256,288,192247,1,8,0:0:0:0:
256,288,192406,1,8,0:0:0:0:
360,216,192566,2,0,P|256:164|152:216,2,242.000007385254,2|2|2,0:0|0:0|0:0,0:0:0:0:
56,80,193523,5,8,0:0:0:0:
16,192,193683,1,8,0:0:0:0:
56,304,193842,1,0,0:0:0:0:
256,152,194161,1,0,0:0:0:0:
148,80,194480,2,0,B|192:32|256:16|320:32|364:80,1,241.999992787838,0|8,0:0|0:0,0:0:0:0:
364,224,194959,2,0,B|320:272|256:288|192:272|148:224,1,241.999992787838,8|8,0:0|0:0,0:0:0:0:
256,152,195438,1,8,0:0:0:0:
256,152,195757,1,4,0:0:0:0:
64,312,196076,6,8,B|120:344|180:312,1,121.000003692627,8|8,0:0|0:0,0:0:0:0:
120,192,196395,1,2,0:0:0:0:
168,80,196555,1,2,0:0:0:0:
256,168,196714,1,2,0:0:0:0:
344,80,196874,1,2,0:0:0:0:
392,192,197034,1,2,0:0:0:0:
8,244,197353,6,8,B|-24:300|8:360,1,121.000003692627,8|8,0:0|0:0,0:0:0:0:
136,328,197672,1,2,0:0:0:0:
248,288,197832,1,2,0:0:0:0:
320,192,197991,1,2,0:0:0:0:
200,192,198151,1,2,0:0:0:0:
272,96,198311,1,2,0:0:0:0:
384,56,198470,1,2,0:0:0:0:
504,24,198629,2,8,B|536:84|504:140,1,121.000003692627,8|8,0:0|0:0,0:0:0:0:
341,277,198949,5,0,0:0:0:0:
170,106,199268,1,0,0:0:0:0:
256,192,199587,2,0,B|344:280,1,120.999996393919
256,192,199906,2,0,B|168:280,1,120.999996393919
256,192,200225,2,0,B|168:104,1,120.999996393919
256,192,200544,2,0,B|344:104,1,120.999996393919
170,277,200863,1,0,0:0:0:0:
412,264,201183,5,8,0:0:0:0:
316,336,201342,1,8,0:0:0:0:
196,336,201502,1,0,0:0:0:0:
100,264,201661,1,0,0:0:0:0:
196,192,201821,1,8,0:0:0:0:
316,192,201980,1,8,0:0:0:0:
256,88,202140,1,4,0:0:0:0:
384,48,202459,6,8,B|440:16|500:48,1,121.000003692627,8|8,0:0|0:0,0:0:0:0:
440,168,202778,1,0,0:0:0:0:
360,240,202938,1,0,0:0:0:0:
256,176,203097,1,8,0:0:0:0:
152,240,203257,1,8,0:0:0:0:
72,168,203416,1,0,0:0:0:0:
368,80,203736,5,8,0:0:0:0:
256,32,203895,1,8,0:0:0:0:
144,80,204055,1,0,0:0:0:0:
256,312,204374,1,0,0:0:0:0:
256,312,204693,1,0,0:0:0:0:
160,248,205013,1,0,0:0:0:0:
344,248,205172,1,0,0:0:0:0:
344,248,205491,1,0,0:0:0:0:
160,248,205650,1,0,0:0:0:0:
256,32,205970,1,0,0:0:0:0:
156,20,206289,6,8,B|124:72|156:136,1,121.000003692627,8|8,0:0|0:0,0:0:0:0:
256,216,206608,1,2,0:0:0:0:
352,136,206768,1,2,0:0:0:0:
256,56,206927,1,10,0:0:0:0:
155,135,207087,1,2,0:0:0:0:
352,136,207246,1,2,0:0:0:0:
56,240,207566,6,0,B|116:272|176:240,1,121.000003692627,0|0,0:0|0:0,0:0:0:0:
196,144,207885,2,8,B|256:112|316:144,1,121.000003692627,8|8,0:0|0:0,0:0:0:0:
344,240,208204,2,0,B|404:272|464:240,1,121.000003692627,0|0,0:0|0:0,0:0:0:0:
256,200,208523,1,8,0:0:0:0:
168,344,208842,1,8,0:0:0:0:
344,344,209001,1,8,0:0:0:0:
256,240,209161,5,0,0:0:0:0:
256,0,209481,1,0,0:0:0:0:
40,104,209800,5,0,0:0:0:0:
160,40,209959,1,0,0:0:0:0:
160,184,210119,1,0,0:0:0:0:
288,104,210278,1,0,0:0:0:0:
288,248,210438,1,0,0:0:0:0:
416,184,210598,1,0,0:0:0:0:
416,184,210677,1,0,0:0:0:0:
416,184,210757,1,0,0:0:0:0:
32,172,211076,5,0,0:0:0:0:
64,140,211156,1,0,0:0:0:0:
112,124,211236,1,0,0:0:0:0:
160,124,211316,1,0,0:0:0:0:
200,140,211395,1,0,0:0:0:0:
240,172,211475,1,0,0:0:0:0:
264,212,211555,1,0,0:0:0:0:
296,244,211635,1,0,0:0:0:0:
344,260,211715,1,0,0:0:0:0:
392,260,211795,1,0,0:0:0:0:
432,244,211874,1,0,0:0:0:0:
472,212,211954,1,0,0:0:0:0:
256,344,212353,5,4,0:0:0:0:
72,24,212832,1,0,0:0:0:0:
440,24,213310,1,2,0:0:0:0:
256,184,213630,1,2,0:0:0:0:
256,40,214906,5,0,0:0:0:0:
72,360,215385,1,0,0:0:0:0:
440,360,215863,1,2,0:0:0:0:
256,200,216183,1,2,0:0:0:0:
32,352,217459,5,0,0:0:0:0:
176,352,217619,1,0,0:0:0:0:
64,256,217778,1,8,0:0:0:0:
208,256,217938,1,8,0:0:0:0:
104,160,218098,1,0,0:0:0:0:
320,352,218417,1,0,0:0:0:0:
480,32,218736,5,0,0:0:0:0:
336,32,218896,1,0,0:0:0:0:
448,128,219055,1,8,0:0:0:0:
304,128,219215,1,8,0:0:0:0:
408,224,219375,1,0,0:0:0:0:
192,32,219694,1,0,0:0:0:0:
256,292,220012,5,0,0:0:0:0:
408,196,220172,1,0,0:0:0:0:
256,96,220332,1,0,0:0:0:0:
104,196,220490,1,0,0:0:0:0:
256,292,220650,1,0,0:0:0:0:
256,96,220810,1,0,0:0:0:0:
256,96,220889,1,0,0:0:0:0:
256,96,220969,1,0,0:0:0:0:
480,172,221288,5,0,0:0:0:0:
448,140,221368,1,0,0:0:0:0:
400,124,221448,1,0,0:0:0:0:
352,124,221528,1,0,0:0:0:0:
312,140,221607,1,0,0:0:0:0:
272,172,221687,1,0,0:0:0:0:
248,212,221767,1,0,0:0:0:0:
216,244,221847,1,0,0:0:0:0:
168,260,221927,1,0,0:0:0:0:
120,260,222007,1,0,0:0:0:0:
80,244,222086,1,0,0:0:0:0:
40,212,222166,1,0,0:0:0:0:
412,264,222566,6,0,B|360:336|256:384|152:336|100:264,2,362.999989181757,2|2|2,0:0|0:0|0:0,0:0:0:0:
256,192,223842,1,0,0:0:0:0:
40,64,224161,1,2,0:0:0:0:
32,88,224321,1,2,0:0:0:0:
24,112,224480,1,2,0:0:0:0:
16,136,224640,1,2,0:0:0:0:
8,160,224800,1,2,0:0:0:0:
412,120,225119,6,0,B|360:48|256:0|152:48|100:120,2,362.999989181757,2|2|2,0:0|0:0|0:0,0:0:0:0:
256,192,226395,1,0,0:0:0:0:
472,64,226715,1,2,0:0:0:0:
480,88,226875,1,2,0:0:0:0:
488,112,227034,1,2,0:0:0:0:
496,136,227194,1,2,0:0:0:0:
504,160,227354,1,2,0:0:0:0:
480,352,227672,5,0,0:0:0:0:
336,352,227832,1,0,0:0:0:0:
448,256,227991,1,8,0:0:0:0:
304,256,228151,1,8,0:0:0:0:
408,160,228311,1,0,0:0:0:0:
192,352,228630,1,0,0:0:0:0:
32,32,228949,5,0,0:0:0:0:
176,32,229109,1,0,0:0:0:0:
64,128,229268,1,8,0:0:0:0:
208,128,229428,1,8,0:0:0:0:
104,224,229588,1,0,0:0:0:0:
320,32,229907,1,0,0:0:0:0:
440,312,230226,5,0,0:0:0:0:
256,240,230385,1,0,0:0:0:0:
424,152,230545,1,0,0:0:0:0:
256,96,230704,1,0,0:0:0:0:
88,152,230863,1,0,0:0:0:0:
72,312,231024,1,0,0:0:0:0:
64,320,231103,1,0,0:0:0:0:
56,328,231183,1,0,0:0:0:0:
256,344,231502,5,0,0:0:0:0:
252,317,231582,1,0,0:0:0:0:
256,291,231661,1,0,0:0:0:0:
260,264,231741,1,0,0:0:0:0:
256,238,231821,1,0,0:0:0:0:
252,211,231901,1,0,0:0:0:0:
256,185,231980,1,0,0:0:0:0:
260,159,232060,1,0,0:0:0:0:
256,132,232140,1,0,0:0:0:0:
252,106,232220,1,0,0:0:0:0:
256,80,232300,1,0,0:0:0:0:
260,53,232379,1,0,0:0:0:0:
464,312,232778,5,2,0:0:0:0:
256,16,233257,1,2,0:0:0:0:
48,312,233736,1,2,0:0:0:0:
256,192,234056,5,4,0:0:0:0:
