osu file format v14

[General]
AudioFilename: audio.mp3
AudioLeadIn: 0
PreviewTime: 58107
Countdown: 0
SampleSet: None
StackLeniency: 0.7
Mode: 0
LetterboxInBreaks: 1
WidescreenStoryboard: 1

[Editor]
DistanceSpacing: 1
BeatDivisor: 4
GridSize: 4
TimelineZoom: 1

[Metadata]
Title:So Crazy
TitleUnicode:So Crazy
Artist:T-ara
ArtistUnicode:T-ara
Creator:Pok0555
Version:Insane
Source:
Tags:K-pop
BeatmapID:1465875
BeatmapSetID:692750

[Difficulty]
HPDrainRate:8
CircleSize:4.3
OverallDifficulty:7
ApproachRate:8.2
SliderMultiplier:1.6
SliderTickRate:1

[Events]
//Background and Video events
0,0,"__original_drawn_by_anmi__766558abd55305c17f38678ed5d03059.jpg",0,0
//Break Periods
2,88307,94298
2,152785,162581
//Storyboard Layer 0 (Background)
//Storyboard Layer 1 (Fail)
//Storyboard Layer 2 (Pass)
//Storyboard Layer 3 (Foreground)
//Storyboard Sound Samples

[TimingPoints]
16466,447.761194029851,4,2,2,55,1,0
23182,-50,4,2,2,55,0,0
23406,-100,4,2,2,60,0,0
45122,-80,4,2,2,60,0,0
45570,-90.9090909090909,4,2,2,60,0,0
59451,-83.3333333333333,4,2,2,65,0,1
73779,-90.9090909090909,4,2,2,65,0,0
88107,-100,4,2,2,60,0,0
102436,-100,4,2,2,100,0,0
104227,-100,4,2,2,60,0,0
109600,-80,4,2,2,60,0,0
110048,-90.9090909090909,4,2,2,60,0,0
123928,-83.3333333333333,4,2,2,65,0,1
138257,-90.9090909090909,4,2,2,65,0,0
166913,-83.3333333333333,4,2,2,65,0,1
181242,-90.9090909090909,4,2,2,65,0,0

[Colours]
Combo1 : 192,130,255
Combo2 : 155,155,206
Combo3 : 85,143,253
Combo4 : 255,164,255

[HitObjects]
448,68,16466,6,0,L|344:72,1,80,8|0,0:0|0:0,0:0:0:0:
248,136,16913,2,0,L|348:132,1,80
404,216,17361,2,0,P|412:172|392:128,1,80
328,32,17809,2,0,P|320:76|340:120,1,80,8|0,0:0|0:0,0:0:0:0:
252,144,18257,6,0,L|76:144,1,160,0|8,0:0|0:0,0:0:0:0:
48,76,18928,2,0,P|20:168|76:228,1,160
128,256,19600,2,0,L|224:256,1,80,8|0,0:0|0:0,0:0:0:0:
344,200,20048,2,0,L|244:200,1,80
196,268,20495,5,8,0:0:0:0:
268,296,20719,1,0,0:0:0:0:
268,296,20943,1,0,0:0:0:0:
264,200,21167,1,0,0:0:0:0:
192,164,21391,2,0,L|92:160,1,80,8|0,0:0|0:0,0:0:0:0:
52,108,21839,5,0,0:0:0:0:
32,184,22063,1,0,0:0:0:0:
84,244,22286,2,0,L|163:247,1,80,8|0,0:0|0:0,0:0:0:0:
244,248,22734,1,2,0:0:0:0:
246,208,22846,1,2,0:0:0:0:
248,168,22958,1,2,0:0:0:0:
251,128,23070,1,2,0:0:0:0:
252,88,23182,2,2,P|208:48|228:104,1,160
172,164,23630,6,0,P|260:184|328:128,1,160,8|0,0:0|0:0,0:0:0:0:
372,92,24301,2,0,L|360:8,1,80
436,128,24749,2,0,L|424:207,1,80
416,288,25197,1,0,0:0:0:0:
340,312,25421,6,0,P|340:256|432:212,1,160,8|0,0:0|0:0,0:0:0:0:
484,260,26092,2,0,P|484:316|392:360,1,160
340,312,26764,2,0,L|244:312,1,80,8|0,0:0|0:0,0:0:0:0:
248,208,27212,6,0,P|256:164|240:108,2,80
184,260,27883,2,0,P|176:304|192:360,2,80
168,180,28555,2,0,L|68:180,1,80,8|0,0:0|0:0,0:0:0:0:
88,180,29003,5,0,0:0:0:0:
132,292,29227,1,0,0:0:0:0:
168,180,29451,1,0,0:0:0:0:
72,252,29674,1,0,0:0:0:0:
192,248,29898,1,8,0:0:0:0:
200,260,30010,1,8,0:0:0:0:
212,268,30122,2,0,P|256:276|308:248,1,80,8|0,0:0|0:0,0:0:0:0:
352,216,30570,1,8,0:0:0:0:
420,172,30794,6,0,P|340:140|280:184,1,160
216,220,31466,2,0,L|116:220,1,80
96,292,31913,1,0,0:0:0:0:
84,160,32137,2,0,P|76:120|100:68,1,80,8|0,0:0|0:0,0:0:0:0:
152,36,32585,6,0,L|236:40,1,80
264,112,33033,2,0,L|356:96,2,80
208,56,33704,1,0,0:0:0:0:
220,180,33928,2,0,P|212:220|240:284,1,80,8|0,0:0|0:0,0:0:0:0:
180,324,34376,6,0,P|260:324|300:236,1,160
356,204,35048,2,0,L|460:200,1,80
468,128,35495,2,0,P|476:84|456:36,2,80
392,24,36167,6,0,L|308:28,1,80,0|8,0:0|0:0,0:0:0:0:
176,84,36615,2,0,L|272:80,1,80
332,104,37063,1,8,0:0:0:0:
340,112,37174,1,8,0:0:0:0:
348,120,37286,2,0,P|360:160|348:200,1,80
308,264,37734,1,8,0:0:0:0:
304,344,37958,6,0,P|240:300|248:216,1,160
200,156,38630,2,0,L|112:156,1,80
40,152,39077,1,8,0:0:0:0:
288,156,39301,2,0,L|388:156,1,80
408,224,39749,6,0,P|440:148|400:84,1,160
328,60,40421,2,0,L|228:60,1,80,8|0,0:0|0:0,0:0:0:0:
168,60,40868,1,0,0:0:0:0:
212,208,41092,2,0,P|200:160|212:116,1,80
272,84,41540,6,0,P|200:56|132:104,1,160,8|0,0:0|0:0,0:0:0:0:
100,172,42212,2,0,L|16:160,1,80
128,240,42660,2,0,L|207:228,2,80
88,316,43331,6,0,P|48:264|100:164,1,160,8|0,0:0|0:0,0:0:0:0:
144,128,44003,1,0,0:0:0:0:
204,76,44227,1,8,0:0:0:0:
216,80,44339,1,8,0:0:0:0:
228,84,44451,2,0,P|264:92|312:84,1,80
388,56,44898,1,8,0:0:0:0:
384,332,45122,6,0,B|392:276|392:276|364:212|364:212|376:124,1,200,8|0,0:0|0:0,0:0:0:0:
312,76,45794,2,0,P|264:64|208:92,1,88.000002685547
164,132,46242,1,8,0:0:0:0:
164,132,46466,2,0,P|116:144|60:116,1,88.000002685547
229,76,46913,6,0,B|277:168|205:152|253:256,1,176.000005371094,8|0,0:0|0:0,0:0:0:0:
204,320,47585,2,0,B|119:329|119:329|31:305,1,176.000005371094,0|8,0:0|0:0,0:0:0:0:
48,184,48257,1,0,0:0:0:0:
140,232,48480,1,0,0:0:0:0:
136,128,48704,6,0,L|144:28,1,88.000002685547,0|0,0:0|0:0,0:0:0:0:
208,144,49152,2,0,L|215:231,1,88.000002685547,0|8,0:0|0:0,0:0:0:0:
357,297,49600,2,0,P|314:308|272:300,2,88.000002685547
215,231,50271,1,0,0:0:0:0:
272,164,50495,6,0,P|284:124|256:72,1,88.000002685547,8|0,0:0|0:0,0:0:0:0:
108,28,50943,2,0,L|196:28,1,88.000002685547
48,92,51391,1,8,0:0:0:0:
59,133,51503,1,8,0:0:0:0:
47,175,51615,2,0,L|40:272,2,88.000002685547,8|0|8,0:0|0:0|0:0,0:0:0:0:
232,128,52286,6,0,B|100:128|100:128|139:147,1,176.000005371094,8|0,0:0|0:0,0:0:0:0:
204,212,52958,6,0,L|304:200,1,88.000002685547
344,272,53406,2,0,L|444:284,2,88.000002685547
288,204,54077,6,0,P|276:160|304:96,1,88.000002685547,8|0,0:0|0:0,0:0:0:0:
356,28,54525,2,0,P|367:69|358:112,1,88.000002685547
280,32,54973,2,0,L|180:36,1,88.000002685547
128,181,55421,2,0,P|116:140|132:100,1,88.000002685547
200,232,55868,6,0,B|272:244|272:244|408:224|400:216,2,176.000005371094,8|0|8,0:0|0:0|0:0,0:0:0:0:
112,204,56988,5,0,0:0:0:0:
256,88,57212,1,0,0:0:0:0:
128,120,57436,1,0,0:0:0:0:
332,204,57660,1,8,0:0:0:0:
256,64,58555,5,0,0:0:0:0:
256,108,58667,1,0,0:0:0:0:
256,152,58779,1,0,0:0:0:0:
216,232,59003,2,0,P|260:244|316:220,1,88.000002685547
396,56,59451,6,0,B|424:32|424:32|412:116|392:148|392:148|408:212,1,191.999994140625,8|0,0:0|0:0,0:0:0:0:
464,252,60122,2,0,L|360:260,1,95.9999970703126
248,220,60570,1,0,0:0:0:0:
428,152,60794,1,0,0:0:0:0:
368,259,61018,1,0,0:0:0:0:
188,328,61242,6,0,B|228:364|292:324|292:324|328:348|408:316,1,191.999994140625,8|0,0:0|0:0,0:0:0:0:
424,247,61913,2,0,L|428:135,1,95.9999970703126
240,112,62361,1,0,0:0:0:0:
427,151,62585,2,0,P|384:130|357:92,1,95.9999970703126
340,284,63033,6,0,B|284:308|208:276|208:276|244:212,1,191.999994140625,8|0,0:0|0:0,0:0:0:0:
340,180,63704,2,0,B|396:156|472:188|472:188|444:236,1,191.999994140625
252,264,64376,5,0,0:0:0:0:
196,164,64600,1,0,0:0:0:0:
396,200,64824,1,8,0:0:0:0:
280,192,65048,1,0,0:0:0:0:
452,122,65271,2,0,L|380:222,1,95.9999970703126
280,192,65719,5,2,0:0:0:0:
305,152,65831,1,2,0:0:0:0:
297,106,65943,1,2,0:0:0:0:
259,79,66055,1,2,0:0:0:0:
213,85,66167,1,2,0:0:0:0:
213,85,66391,1,0,0:0:0:0:
148,264,66615,6,0,B|136:204|152:128|152:128|168:188,1,191.999994140625,8|0,0:0|0:0,0:0:0:0:
232,252,67286,2,0,L|336:252,1,95.9999970703126
444,256,67734,1,0,0:0:0:0:
400,68,67958,1,0,0:0:0:0:
384,180,68182,1,0,0:0:0:0:
217,74,68406,6,0,B|277:92|309:62|309:62|353:90|413:62,1,191.999994140625,8|0,0:0|0:0,0:0:0:0:
476,12,69077,2,0,L|488:128,1,95.9999970703126
380,156,69525,1,0,0:0:0:0:
308,332,69749,2,0,L|310:236,1,95.9999970703126
128,180,70197,6,0,B|168:168|184:152|184:152|248:172|248:172|264:164|312:168,1,191.999994140625,8|0,0:0|0:0,0:0:0:0:
392,124,70868,2,0,L|492:124,1,95.9999970703126
396,196,71316,1,0,0:0:0:0:
212,248,71540,1,0,0:0:0:0:
296,172,71764,1,0,0:0:0:0:
440,300,71988,5,8,0:0:0:0:
268,276,72212,1,0,0:0:0:0:
364,212,72436,1,0,0:0:0:0:
252,368,72660,1,0,0:0:0:0:
152,312,72883,5,8,0:0:0:0:
153,264,72995,1,8,0:0:0:0:
155,216,73107,1,8,0:0:0:0:
157,168,73219,1,8,0:0:0:0:
158,120,73331,2,0,L|288:116,1,95.9999970703126
332,72,73779,6,0,P|388:64|432:80,1,88.000002685547,8|0,0:0|0:0,0:0:0:0:
253,117,74227,2,0,P|210:126|167:117,1,88.000002685547
80,132,74674,2,0,L|64:244,1,88.000002685547
152,324,75122,2,0,L|136:212,1,88.000002685547
205,198,75570,6,0,P|129:163|65:231,1,176.000005371094,8|0,0:0|0:0,0:0:0:0:
272,244,76242,6,0,L|384:240,1,88.000002685547
436,288,76689,1,0,0:0:0:0:
447,96,76913,2,0,P|461:137|452:180,1,88.000002685547
360,76,77361,6,0,B|427:60|488:73|488:73|433:104,1,176.000005371094,8|0,0:0|0:0,0:0:0:0:
388,164,78033,6,0,L|388:268,2,88.000002685547
328,316,78704,2,0,P|276:328|216:288,1,88.000002685547
188,248,79152,6,0,L|168:128,1,88.000002685547,8|0,0:0|0:0,0:0:0:0:
256,40,79600,2,0,L|236:160,1,88.000002685547
272,208,80048,1,2,0:0:0:0:
316,208,80160,1,2,0:0:0:0:
356,228,80271,2,2,L|468:248,2,88.000002685547
304,296,80943,6,0,P|280:208|336:148,1,176.000005371094
392,88,81615,6,0,L|488:88,2,88.000002685547
333,234,82286,2,0,P|321:194|345:130,1,88.000002685547
312,64,82734,6,0,B|244:80|244:80|184:64|184:64|116:72,1,176.000005371094,8|0,0:0|0:0,0:0:0:0:
72,124,83406,2,0,L|56:240,1,88.000002685547
144,312,83854,2,0,L|128:196,2,88.000002685547
302,303,84525,6,0,P|221:275|144:312,1,176.000005371094,8|0,0:0|0:0,0:0:0:0:
88,244,85197,2,0,B|120:152|48:152|104:44,1,176.000005371094
260,40,85868,2,0,L|172:40,1,88.000002685547
116,196,86316,6,0,P|108:153|120:112,1,88.000002685547
192,228,86764,2,0,P|203:269|195:312,1,88.000002685547
116,196,87212,1,8,0:0:0:0:
118,156,87324,1,8,0:0:0:0:
120,116,87436,1,8,0:0:0:0:
123,76,87548,1,8,0:0:0:0:
123,43,87660,2,2,P|71:43|115:67,1,132.00000402832
110,71,88107,5,8,0:0:0:0:
248,188,95048,5,2,0:0:0:0:
248,188,95271,2,2,P|254:266|260:348,1,160
328,216,95943,2,2,P|332:136|340:56,1,160
260,44,96615,2,2,P|216:48|156:52,1,80
176,280,97063,6,2,P|163:196|148:104,1,160
260,44,97734,2,2,P|219:46|156:52,2,80
340,40,98406,1,2,0:0:0:0:
340,40,98630,1,2,0:0:0:0:
340,40,98854,1,2,0:0:0:0:
340,40,99077,5,2,0:0:0:0:
340,79,99189,1,2,0:0:0:0:
341,119,99301,1,2,0:0:0:0:
342,159,99413,1,2,0:0:0:0:
343,199,99525,1,2,0:0:0:0:
344,240,99637,1,2,0:0:0:0:
348,280,99749,2,2,P|386:280|464:280,2,80
268,280,100421,1,2,0:0:0:0:
188,280,100645,5,2,0:0:0:0:
228,348,100868,1,2,0:0:0:0:
228,212,101092,1,2,0:0:0:0:
228,212,101316,5,2,0:0:0:0:
267,211,101428,1,2,0:0:0:0:
307,210,101540,1,2,0:0:0:0:
347,209,101652,1,2,0:0:0:0:
387,208,101764,1,2,0:0:0:0:
428,208,101876,1,2,0:0:0:0:
468,208,101988,2,2,P|467:162|468:104,1,80
268,116,102436,6,2,L|228:116,1,40
188,140,102660,2,2,L|140:140,1,40
188,228,102995,2,2,L|124:228,2,40
224,260,103331,2,2,L|336:256,2,80
64,236,104227,6,2,P|60:192|56:132,1,80
140,128,104674,2,2,P|141:84|144:40,1,80
224,40,105122,1,2,0:0:0:0:
292,108,105346,1,2,0:0:0:0:
143,48,105570,1,2,0:0:0:0:
292,108,106018,6,2,L|384:112,1,80
316,192,106466,2,2,L|224:196,1,80
296,272,106913,2,2,L|388:276,1,80
320,356,107361,2,2,L|228:360,1,80
176,288,107809,6,2,B|184:240|184:240|168:188|168:188|176:120,1,160
232,56,108480,1,2,0:0:0:0:
328,128,108704,1,2,0:0:0:0:
328,128,108816,1,2,0:0:0:0:
328,128,108928,1,2,0:0:0:0:
174,131,109152,1,2,0:0:0:0:
256,84,109376,1,2,0:0:0:0:
384,52,109600,6,0,B|396:108|396:108|356:172|392:252,1,200,8|0,0:0|0:0,0:0:0:0:
328,308,110271,2,0,P|280:320|224:292,1,88.000002685547
172,260,110719,1,8,0:0:0:0:
172,260,110943,2,0,P|124:248|68:276,1,88.000002685547
228,312,111391,6,0,B|268:260|232:212|232:212|252:132,1,176.000005371094,8|0,0:0|0:0,0:0:0:0:
204,64,112063,2,0,B|148:76|119:55|119:55|88:84|31:79,1,176.000005371094
48,200,112734,1,0,0:0:0:0:
140,152,112958,1,0,0:0:0:0:
136,256,113182,6,0,L|144:356,1,88.000002685547,8|0,0:0|0:0,0:0:0:0:
208,240,113630,2,0,L|215:153,1,88.000002685547
357,87,114077,2,0,P|314:76|272:84,2,88.000002685547
215,153,114749,1,0,0:0:0:0:
272,220,114973,6,0,P|284:260|260:316,1,88.000002685547,8|0,0:0|0:0,0:0:0:0:
108,356,115421,2,0,L|196:356,1,88.000002685547
48,292,115868,1,8,0:0:0:0:
59,251,115980,1,8,0:0:0:0:
47,209,116092,2,0,L|40:112,2,88.000002685547
232,256,116764,6,0,B|164:240|100:256|100:256|139:237,1,176.000005371094,8|0,0:0|0:0,0:0:0:0:
204,172,117436,6,0,L|304:184,1,88.000002685547
344,112,117883,2,0,L|444:100,2,88.000002685547
288,180,118555,6,0,P|276:224|304:288,1,88.000002685547,8|0,0:0|0:0,0:0:0:0:
356,356,119003,2,0,P|367:315|358:272,1,88.000002685547
280,352,119451,2,0,L|180:348,1,88.000002685547
128,203,119898,2,0,P|116:244|132:284,1,88.000002685547
200,152,120346,6,0,B|272:140|272:140|308:160|408:160|400:168,2,176.000005371094,8|0|8,0:0|0:0|0:0,0:0:0:0:
112,180,121466,5,0,0:0:0:0:
296,148,121689,1,0,0:0:0:0:
212,248,121913,1,0,0:0:0:0:
256,52,122137,1,8,0:0:0:0:
256,320,123033,5,0,0:0:0:0:
256,276,123145,1,0,0:0:0:0:
256,232,123257,1,0,0:0:0:0:
216,152,123480,2,0,P|260:140|316:164,1,88.000002685547
396,328,123928,6,0,B|424:352|424:352|392:236|408:172,1,191.999994140625,8|0,0:0|0:0,0:0:0:0:
464,132,124600,2,0,L|360:124,1,95.9999970703126
248,164,125048,1,0,0:0:0:0:
428,232,125271,1,0,0:0:0:0:
368,125,125495,1,0,0:0:0:0:
188,56,125719,6,0,B|236:60|236:60|304:40|304:40|408:60,1,191.999994140625,8|0,0:0|0:0,0:0:0:0:
424,137,126391,2,0,L|428:249,1,95.9999970703126
240,272,126839,1,0,0:0:0:0:
427,233,127063,2,0,P|384:254|357:292,1,95.9999970703126
340,100,127510,6,0,B|272:128|208:108|208:108|244:172,1,191.999994140625,8|0,0:0|0:0,0:0:0:0:
340,204,128182,2,0,B|424:180|472:196|472:196|436:148,1,191.999994140625
252,120,128854,5,0,0:0:0:0:
196,220,129077,1,0,0:0:0:0:
396,184,129301,1,8,0:0:0:0:
280,192,129525,1,0,0:0:0:0:
452,262,129749,2,0,L|380:162,1,95.9999970703126
280,192,130197,5,0,0:0:0:0:
305,232,130309,1,0,0:0:0:0:
297,278,130421,1,0,0:0:0:0:
259,305,130533,1,0,0:0:0:0:
213,299,130645,1,0,0:0:0:0:
213,299,130868,1,0,0:0:0:0:
148,120,131092,6,0,B|152:256|152:256|168:196,1,191.999994140625
232,132,131764,2,0,L|336:132,1,95.9999970703126
444,128,132212,1,0,0:0:0:0:
400,316,132436,1,0,0:0:0:0:
384,204,132660,1,0,0:0:0:0:
217,310,132883,6,0,B|272:304|272:304|309:322|309:322|353:294|413:322,1,191.999994140625,8|0,0:0|0:0,0:0:0:0:
476,372,133555,2,0,L|488:256,1,95.9999970703126
380,228,134003,1,0,0:0:0:0:
308,52,134227,2,0,L|310:148,1,95.9999970703126
128,204,134674,6,0,B|168:216|184:232|184:232|240:196|312:216,1,191.999994140625,8|0,0:0|0:0,0:0:0:0:
392,260,135346,2,0,L|492:260,1,95.9999970703126
396,188,135794,1,0,0:0:0:0:
212,136,136018,1,0,0:0:0:0:
296,212,136242,1,0,0:0:0:0:
440,84,136466,5,0,0:0:0:0:
268,108,136689,1,0,0:0:0:0:
364,172,136913,1,0,0:0:0:0:
252,16,137137,1,0,0:0:0:0:
152,72,137361,5,0,0:0:0:0:
153,120,137473,1,0,0:0:0:0:
155,168,137585,1,0,0:0:0:0:
157,216,137697,1,0,0:0:0:0:
158,264,137809,2,0,L|288:268,1,95.9999970703126
332,312,138257,6,0,P|388:320|432:304,1,88.000002685547
253,267,138704,2,0,P|210:258|167:267,1,88.000002685547
80,252,139152,2,0,L|64:140,1,88.000002685547
152,60,139600,2,0,L|136:172,1,88.000002685547
205,186,140048,6,0,P|129:221|65:153,1,176.000005371094
272,140,140719,6,0,L|384:144,1,88.000002685547
436,96,141167,1,0,0:0:0:0:
447,288,141391,2,0,P|461:247|452:204,1,88.000002685547
360,308,141839,6,0,B|488:311|488:311|433:280,1,176.000005371094
388,220,142510,6,0,L|388:116,2,88.000002685547
328,68,143182,2,0,P|276:56|216:96,1,88.000002685547
188,136,143630,6,0,L|168:256,1,88.000002685547
256,344,144077,2,0,L|236:224,1,88.000002685547
272,176,144525,1,0,0:0:0:0:
316,176,144637,1,0,0:0:0:0:
356,156,144749,2,0,P|400:144|468:136,2,88.000002685547
304,88,145421,6,0,P|280:176|336:236,1,176.000005371094
392,296,146092,6,0,L|488:296,2,88.000002685547
333,150,146764,2,0,P|321:190|345:254,1,88.000002685547
312,320,147212,6,0,B|244:304|244:304|184:336|116:308,1,176.000005371094
72,260,147883,2,0,L|56:144,1,88.000002685547
144,72,148331,2,0,L|128:188,2,88.000002685547
302,81,149003,6,0,P|221:109|144:72,1,176.000005371094
88,140,149674,2,0,B|80:176|92:196|92:196|48:256|100:336,1,176.000005371094
260,344,150346,2,0,L|172:344,1,88.000002685547
116,188,150794,6,0,P|108:231|120:272,1,88.000002685547
192,156,151242,2,0,P|203:115|195:72,1,88.000002685547
116,188,151689,1,0,0:0:0:0:
118,228,151801,1,0,0:0:0:0:
120,268,151913,1,0,0:0:0:0:
123,308,152025,1,0,0:0:0:0:
123,341,152137,2,0,P|168:320|264:344,1,132.00000402832
247,332,152585,5,0,0:0:0:0:
256,192,163331,12,0,166466,0:0:0:0:
112,328,166913,6,0,B|48:360|92:280|92:280|120:224|52:156,1,191.999994140625
68,96,167585,2,0,L|172:88,1,95.9999970703126
264,164,168033,1,0,0:0:0:0:
84,232,168257,1,0,0:0:0:0:
144,125,168480,1,0,0:0:0:0:
324,56,168704,6,0,B|284:20|200:56|224:80|272:32|184:28|104:68,1,191.999994140625
88,137,169376,2,0,L|84:249,1,95.9999970703126
272,272,169824,1,0,0:0:0:0:
85,233,170048,2,0,P|128:254|155:292,1,95.9999970703126
172,100,170495,6,0,B|228:76|336:92|352:100|268:172,1,191.999994140625
228,208,171167,2,0,B|172:232|64:216|48:208|132:136,1,191.999994140625
260,120,171839,5,0,0:0:0:0:
296,224,172063,1,0,0:0:0:0:
101,164,172286,1,0,0:0:0:0:
232,192,172510,1,0,0:0:0:0:
60,262,172734,2,0,L|132:162,1,95.9999970703126
232,192,173182,5,0,0:0:0:0:
207,232,173294,1,0,0:0:0:0:
215,278,173406,1,0,0:0:0:0:
253,305,173518,1,0,0:0:0:0:
299,299,173630,1,0,0:0:0:0:
299,299,173854,1,0,0:0:0:0:
364,120,174077,6,0,B|376:180|360:256|360:256|344:196,1,191.999994140625
280,132,174749,2,0,L|176:132,1,95.9999970703126
68,128,175197,1,0,0:0:0:0:
112,316,175421,1,0,0:0:0:0:
128,204,175645,1,0,0:0:0:0:
289,312,175868,6,0,B|216:304|192:280|192:280|168:308|93:324,1,191.999994140625
36,372,176540,2,0,L|24:256,1,95.9999970703126
132,228,176988,1,0,0:0:0:0:
204,52,177212,2,0,L|202:148,1,95.9999970703126
384,204,177660,6,0,B|344:216|328:232|264:212|264:212|248:224|188:216,1,191.999994140625
120,260,178331,2,0,L|20:260,1,95.9999970703126
116,188,178779,1,0,0:0:0:0:
300,136,179003,1,0,0:0:0:0:
216,212,179227,1,0,0:0:0:0:
72,84,179451,5,0,0:0:0:0:
244,108,179674,1,0,0:0:0:0:
148,172,179898,1,0,0:0:0:0:
260,16,180122,1,0,0:0:0:0:
360,72,180346,5,0,0:0:0:0:
359,120,180458,1,0,0:0:0:0:
357,168,180570,1,0,0:0:0:0:
355,216,180682,1,0,0:0:0:0:
354,264,180794,2,0,L|224:268,1,95.9999970703126
180,312,181242,6,0,P|124:320|80:304,1,88.000002685547
259,267,181689,2,0,P|302:258|345:267,1,88.000002685547
432,252,182137,2,0,L|448:140,1,88.000002685547
360,60,182585,2,0,L|376:172,1,88.000002685547
307,186,183033,6,0,P|383:221|447:153,1,176.000005371094
240,140,183704,6,0,L|128:144,1,88.000002685547
76,96,184152,1,0,0:0:0:0:
65,288,184376,2,0,P|51:247|60:204,1,88.000002685547
152,308,184824,6,0,B|85:324|24:311|24:311|79:280,1,176.000005371094
124,220,185495,6,0,L|124:116,2,88.000002685547
184,68,186167,2,0,P|236:56|296:96,1,88.000002685547
324,136,186615,6,0,L|344:256,1,88.000002685547
256,344,187063,2,0,L|276:224,1,88.000002685547
240,176,187510,1,0,0:0:0:0:
196,176,187622,1,0,0:0:0:0:
156,156,187734,2,0,L|44:136,2,88.000002685547
208,88,188406,6,0,P|232:176|176:236,1,176.000005371094
120,296,189077,6,0,L|24:296,2,88.000002685547
179,150,189749,2,0,P|191:190|167:254,1,88.000002685547
200,320,190197,6,0,B|284:288|288:348|396:312,1,176.000005371094
440,260,190868,2,0,L|456:144,1,88.000002685547
368,72,191316,2,0,L|384:188,2,88.000002685547
210,81,191988,6,0,P|291:109|368:72,1,176.000005371094
424,140,192660,2,0,B|416:188|416:188|440:256|440:256|408:340,1,176.000005371094
252,344,193331,2,0,L|340:344,1,88.000002685547
396,188,193779,6,0,P|404:231|392:272,1,88.000002685547
320,156,194227,2,0,P|309:115|317:72,1,88.000002685547
396,188,194674,1,0,0:0:0:0:
394,228,194786,1,0,0:0:0:0:
392,268,194898,1,0,0:0:0:0:
389,308,195010,1,0,0:0:0:0:
388,340,195122,2,0,P|356:340|252:340,1,132.00000402832
256,340,195570,5,0,0:0:0:0:
