osu file format v14

[General]
AudioFilename: audio.mp3
AudioLeadIn: 0
PreviewTime: 58107
Countdown: 0
SampleSet: None
StackLeniency: 0.7
Mode: 0
LetterboxInBreaks: 1
WidescreenStoryboard: 0

[Editor]
DistanceSpacing: 0.9
BeatDivisor: 4
GridSize: 4
TimelineZoom: 1

[Metadata]
Title:So Crazy
TitleUnicode:So Crazy
Artist:T-ara
ArtistUnicode:T-ara
Creator:Pok0555
Version:Hard
Source:
Tags:K-pop
BeatmapID:1465874
BeatmapSetID:692750

[Difficulty]
HPDrainRate:6.5
CircleSize:4
OverallDifficulty:5.9
ApproachRate:6.9
SliderMultiplier:1.5
SliderTickRate:1

[Events]
//Background and Video events
0,0,"__original_drawn_by_anmi__766558abd55305c17f38678ed5d03059.jpg",0,0
//Break Periods
2,88307,94134
2,138457,144507
2,152785,165999
//Storyboard Layer 0 (Background)
//Storyboard Layer 1 (Fail)
//Storyboard Layer 2 (Pass)
//Storyboard Layer 3 (Foreground)
//Storyboard Sound Samples

[TimingPoints]
16466,447.761194029851,4,2,2,55,1,0
45122,-80,4,2,2,60,0,0
45570,-95.2380952380952,4,2,2,60,0,0
59451,-90.9090909090909,4,2,2,65,0,1
73779,-95.2380952380952,4,2,2,65,0,0
88107,-100,4,2,2,60,0,0
102436,-100,4,2,2,100,0,0
104227,-100,4,2,2,60,0,0
109600,-80,4,2,2,60,0,0
110048,-95.2380952380952,4,2,2,60,0,0
123928,-90.9090909090909,4,2,2,65,0,1
138257,-95.2380952380952,4,2,2,65,0,0
166913,-90.9090909090909,4,2,2,65,0,1
181242,-95.2380952380952,4,2,2,65,0,0

[Colours]
Combo1 : 192,130,255
Combo2 : 155,155,206
Combo3 : 85,143,253
Combo4 : 255,164,255

[HitObjects]
460,48,16466,6,0,L|448:152,1,75,0|0,0:0|0:0,0:0:0:0:
388,176,16913,2,0,L|376:72,1,75,8|0,0:0|0:0,0:0:0:0:
316,60,17361,2,0,P|276:68|236:52,2,75
380,20,18033,1,0,0:0:0:0:
444,60,18257,6,0,L|452:212,1,150,0|8,0:0|0:0,0:0:0:0:
508,264,18928,2,0,P|440:233|360:277,1,150
436,308,19600,1,0,0:0:0:0:
288,284,20048,6,0,P|248:292|196:276,1,75
180,220,20495,2,0,P|140:212|88:228,1,75
48,264,20943,2,0,P|50:300|52:344,2,75
32,192,21615,1,0,0:0:0:0:
108,216,21839,6,0,P|148:224|184:212,1,75,0|0,0:0|0:0,0:0:0:0:
236,164,22286,6,0,L|236:60,1,75,0|0,0:0|0:0,0:0:0:0:
272,20,22734,1,0,0:0:0:0:
284,24,22846,1,0,0:0:0:0:
296,28,22958,2,0,B|324:33|324:33|384:32,1,75,0|0,0:0|0:0,0:0:0:0:
444,36,23406,5,0,0:0:0:0:
404,100,23630,2,0,B|416:148|416:148|396:196|396:196|405:266,1,150
480,272,24301,2,0,P|424:318|344:296,1,150
312,240,24973,2,0,L|228:244,1,75
192,300,25421,6,0,B|128:284|80:300|80:300|24:268,1,150
44,200,26092,2,0,B|80:132|8:128|64:44,1,150
116,104,26764,1,0,0:0:0:0:
248,40,27212,6,0,L|336:32,1,75,0|0,0:0|0:0,0:0:0:0:
304,108,27660,2,0,L|391:123,1,75,0|0,0:0|0:0,0:0:0:0:
340,188,28107,2,0,L|420:225,1,75,0|0,0:0|0:0,0:0:0:0:
352,272,28555,2,0,L|419:328,1,75,0|0,0:0|0:0,0:0:0:0:
476,356,29003,5,0,0:0:0:0:
409,320,29227,1,0,0:0:0:0:
344,356,29451,1,0,0:0:0:0:
276,324,29674,1,0,0:0:0:0:
208,356,29898,1,0,0:0:0:0:
196,360,30010,1,0,0:0:0:0:
184,364,30122,2,0,P|144:372|100:364,2,75
236,308,30794,6,0,B|236:264|212:236|212:236|236:200|228:144,1,150
180,112,31466,2,0,P|248:91|302:139,1,150
368,184,32137,1,0,0:0:0:0:
300,216,32361,1,0,0:0:0:0:
236,252,32585,6,0,B|156:276|156:276|76:272,1,150
48,336,33257,2,0,P|16:268|76:196,1,150
112,164,33928,1,0,0:0:0:0:
112,164,34376,6,0,B|192:176|192:176|220:160|220:160|272:160,1,150,0|0,0:0|0:0,0:0:0:0:
312,108,35048,2,0,P|300:64|316:20,1,75
376,148,35495,2,0,P|387:183|381:219,1,75
348,288,35943,1,0,0:0:0:0:
276,300,36167,6,0,L|168:304,1,75,0|0,0:0|0:0,0:0:0:0:
72,256,36615,2,0,L|164:252,1,75
220,232,37063,1,0,0:0:0:0:
228,224,37174,1,0,0:0:0:0:
236,216,37286,2,0,P|244:168|224:128,1,75
172,100,37734,1,0,0:0:0:0:
100,116,37958,6,0,P|116:46|185:26,1,150
244,72,38630,2,0,L|332:72,1,75
388,100,39077,1,0,0:0:0:0:
456,136,39301,2,0,L|456:232,1,75,0|0,0:0|0:0,0:0:0:0:
456,288,39749,1,0,0:0:0:0:
308,300,40197,6,0,P|272:308|216:292,1,75,0|0,0:0|0:0,0:0:0:0:
192,228,40645,2,0,P|204:192|228:163,1,75,0|0,0:0|0:0,0:0:0:0:
308,164,41092,2,0,P|332:192|344:228,1,75,0|0,0:0|0:0,0:0:0:0:
268,236,41540,6,0,B|200:248|184:200|160:300|120:192|112:256,1,150
56,192,42212,1,0,0:0:0:0:
48,268,42436,2,0,L|44:372,2,75
56,192,43107,1,0,0:0:0:0:
8,136,43331,6,0,P|78:122|132:180,1,150
164,240,44003,1,0,0:0:0:0:
208,180,44227,1,0,0:0:0:0:
220,184,44339,1,0,0:0:0:0:
232,188,44451,2,0,L|316:188,2,75
212,256,45122,6,0,P|160:200|244:120,1,187.5,0|0,0:0|0:0,0:0:0:0:
276,72,45794,2,0,B|320:84|320:84|384:72|384:72|436:84,1,157.499995193482
472,148,46466,2,0,L|472:232,1,78.7499975967408,0|0,0:0|0:0,0:0:0:0:
460,304,46913,6,0,B|388:336|380:288|300:316,1,157.499995193482
252,372,47585,2,0,P|272:296|220:240,1,157.499995193482
196,316,48257,1,0,0:0:0:0:
144,256,48480,1,0,0:0:0:0:
88,200,48704,6,0,L|80:108,1,78.7499975967408
164,40,49152,2,0,L|156:132,1,78.7499975967408
180,192,49600,2,0,P|224:200|268:176,2,78.7499975967408
104,180,50271,1,0,0:0:0:0:
36,140,50495,6,0,P|28:96|40:56,1,78.7499975967408,0|0,0:0|0:0,0:0:0:0:
104,180,50943,2,0,P|112:218|104:256,1,78.7499975967408,0|0,0:0|0:0,0:0:0:0:
68,328,51391,1,0,0:0:0:0:
76,336,51503,1,0,0:0:0:0:
84,344,51615,2,0,L|184:344,2,78.7499975967408
56,272,52286,6,0,B|36:188|36:188|48:108,1,157.499995193482,0|0,0:0|0:0,0:0:0:0:
96,56,52958,2,0,P|172:76|256:40,1,157.499995193482
324,44,53630,1,0,0:0:0:0:
404,52,53854,1,0,0:0:0:0:
356,112,54077,6,0,P|348:160|368:212,1,78.7499975967408
428,220,54525,2,0,P|435:258|426:296,1,78.7499975967408
364,344,54973,2,0,L|256:344,1,78.7499975967408
208,344,55421,1,0,0:0:0:0:
208,344,55645,1,0,0:0:0:0:
256,192,55868,12,0,57660,0:0:0:0:
432,48,59451,6,0,B|460:144|400:128|428:216,1,165.000005035401,0|0,0:0|0:0,0:0:0:0:
460,284,60122,1,0,0:0:0:0:
336,204,60570,1,0,0:0:0:0:
264,224,60794,1,0,0:0:0:0:
264,224,61018,1,0,0:0:0:0:
284,296,61242,6,0,P|200:268|192:192,1,165.000005035401,0|0,0:0|0:0,0:0:0:0:
228,136,61913,2,0,L|336:140,1,82.5000025177003
376,104,62361,2,0,P|384:64|368:16,2,82.5000025177003
442,142,63033,2,0,P|382:182|305:119,1,165.000005035401
264,76,63704,6,0,B|216:76|184:100|184:100|152:68|88:80,1,165.000005035401
52,124,64376,2,0,P|44:192|60:228,1,82.5000025177003,0|0,0:0|0:0,0:0:0:0:
50,278,64824,2,0,B|96:280|120:224,1,82.5000025177003,0|0,0:0|0:0,0:0:0:0:
184,208,65271,2,0,P|152:172|112:164,1,82.5000025177003,0|0,0:0|0:0,0:0:0:0:
114,234,65719,5,0,0:0:0:0:
105,242,65831,1,0,0:0:0:0:
97,250,65943,2,0,L|94:338,2,82.5000025177003
40,204,66615,6,0,P|112:176|168:252,1,165.000005035401,0|0,0:0|0:0,0:0:0:0:
192,300,67286,2,0,L|296:296,1,82.5000025177003
348,296,67734,1,0,0:0:0:0:
408,252,67958,2,0,P|420:212|400:164,1,82.5000025177003
348,132,68406,6,0,B|296:136|296:136|224:128|224:128|152:140,1,165.000005035401,0|0,0:0|0:0,0:0:0:0:
180,208,69077,2,0,P|120:176|140:76,1,165.000005035401
192,40,69749,2,0,L|284:40,1,82.5000025177003
348,76,70197,6,0,P|364:116|336:176,1,82.5000025177003
228,232,70645,2,0,P|252:200|296:184,1,82.5000025177003,0|0,0:0|0:0,0:0:0:0:
420,264,71092,2,0,P|376:256|348:216,1,82.5000025177003,0|0,0:0|0:0,0:0:0:0:
290,184,71540,6,0,L|196:180,1,82.5000025177003,0|0,0:0|0:0,0:0:0:0:
64,236,71988,2,0,L|160:240,1,82.5000025177003,0|0,0:0|0:0,0:0:0:0:
216,268,72436,2,0,P|212:312|228:356,1,82.5000025177003
288,260,72883,1,0,0:0:0:0:
292,248,72995,1,0,0:0:0:0:
296,236,73107,2,0,P|300:192|284:148,1,82.5000025177003
260,88,73555,1,0,0:0:0:0:
212,144,73779,6,0,L|124:144,1,78.7499975967408
60,192,74227,2,0,P|52:236|80:288,2,78.7499975967408
122,140,74898,1,0,0:0:0:0:
180,88,75122,2,0,P|188:40|160:-12,2,78.7499975967408
60,192,76018,5,0,0:0:0:0:
60,192,76242,2,0,B|120:180|148:200|148:200|160:180|184:192|184:192|224:192,1,157.499995193482
276,232,76913,2,0,P|288:272|264:328,2,78.7499975967408
236,80,77809,6,0,L|224:184,1,78.7499975967408
162,263,78257,2,0,L|152:184,1,78.7499975967408
94,66,78705,2,0,L|84:144,1,78.7499975967408
152,184,79152,5,0,0:0:0:0:
154,287,79376,1,0,0:0:0:0:
52,289,79600,1,0,0:0:0:0:
50,186,79823,1,0,0:0:0:0:
104,128,80047,5,0,0:0:0:0:
96,116,80159,1,0,0:0:0:0:
88,104,80271,2,0,L|0:104,2,78.7499975967408
168,112,80943,6,0,L|164:208,1,78.7499975967408
96,284,81391,2,0,L|92:196,1,78.7499975967408
164,190,81839,2,0,P|204:182|252:198,2,78.7499975967408
104,144,82510,1,0,0:0:0:0:
113,66,82734,6,0,P|174:121|138:213,1,157.499995193482,0|0,0:0|0:0,0:0:0:0:
108,244,83406,2,0,L|12:244,1,78.7499975967408
220,204,83854,1,0,0:0:0:0:
156,160,84077,2,0,P|144:112|168:64,1,78.7499975967408
220,44,84525,6,0,L|392:44,1,157.499995193482,0|0,0:0|0:0,0:0:0:0:
452,44,85197,2,0,B|468:108|468:108|448:220,1,157.499995193482
420,268,85868,6,0,P|384:280|324:256,1,78.7499975967408
288,216,86316,2,0,P|248:208|192:224,1,78.7499975967408
168,280,86764,2,0,L|76:280,1,78.7499975967408
40,216,87212,1,0,0:0:0:0:
51,178,87323,1,0,0:0:0:0:
44,140,87436,2,0,P|40:92|68:148,1,157.499995193482
94,132,88107,5,0,0:0:0:0:
64,340,95048,5,0,0:0:0:0:
140,336,95271,2,0,B|180:328|180:328|236:340|236:340|296:332,1,150
352,292,95943,2,0,P|372:228|336:136,1,150
284,112,96615,2,0,L|236:112,2,37.5
352,76,97063,1,0,0:0:0:0:
428,240,97510,6,0,P|432:200|416:148,1,75
352,76,97958,2,0,P|344:120|356:164,1,75
356,224,98406,2,0,L|272:224,1,75
204,224,98854,1,0,0:0:0:0:
168,288,99077,5,0,0:0:0:0:
140,263,99189,1,0,0:0:0:0:
128,228,99301,1,0,0:0:0:0:
135,191,99413,1,0,0:0:0:0:
158,163,99525,1,0,0:0:0:0:
208,108,99749,2,0,L|284:116,1,75
376,36,100197,2,0,L|301:43,1,75
282,115,100645,6,0,P|276:160|298:203,1,75
352,220,101092,2,0,P|362:255|355:292,1,75
300,336,101540,1,0,0:0:0:0:
292,344,101652,1,0,0:0:0:0:
284,352,101764,2,0,L|200:352,2,75
340,300,102436,5,2,0:0:0:0:
369,298,102548,1,2,0:0:0:0:
399,296,102660,1,2,0:0:0:0:
429,294,102771,1,2,0:0:0:0:
436,180,103107,5,2,0:0:0:0:
424,76,103330,1,2,0:0:0:0:
340,140,103555,1,2,0:0:0:0:
436,180,103779,1,2,0:0:0:0:
168,96,104227,6,0,P|180:132|168:188,1,75
112,276,104674,2,0,P|104:232|120:184,1,75
96,128,105122,2,0,L|12:132,2,75,0|0|0,0:0|0:0|0:0,0:0:0:0:
240,80,106018,6,0,P|276:72|332:88,1,75
368,128,106466,2,0,P|376:164|356:228,1,75
316,252,106913,2,0,P|279:259|236:252,1,75
184,204,107361,2,0,P|176:168|184:128,1,75
280,168,107809,5,0,0:0:0:0:
280,168,108033,1,0,0:0:0:0:
328,224,108257,2,0,P|340:264|312:316,1,75
268,336,108704,2,0,L|176:336,2,75
344,336,109376,1,0,0:0:0:0:
299,127,109600,6,0,B|340:168|300:208|300:208|332:248|312:320,1,187.5
240,312,110271,2,0,B|160:288|168:336|80:300,1,157.499995193482
40,236,110943,2,0,L|40:152,1,78.7499975967408,0|0,0:0|0:0,0:0:0:0:
52,80,111391,6,0,B|88:64|88:64|144:88|212:68,1,157.499995193482
260,12,112063,2,0,P|240:88|292:144,1,157.499995193482
316,68,112734,1,0,0:0:0:0:
368,128,112958,1,0,0:0:0:0:
424,184,113182,6,0,P|426:222|432:276,1,78.7499975967408
348,344,113630,2,0,P|352:304|356:252,1,78.7499975967408
332,196,114077,2,0,P|292:188|240:208,2,78.7499975967408
408,204,114749,1,0,0:0:0:0:
476,244,114973,6,0,P|484:288|472:328,1,78.7499975967408
408,204,115421,2,0,P|400:166|408:128,1,78.7499975967408
444,56,115868,1,0,0:0:0:0:
436,48,115980,1,0,0:0:0:0:
428,40,116092,2,0,L|328:40,2,78.7499975967408
452,108,116764,6,0,B|464:168|464:168|448:224|448:224|460:272,1,157.499995193482
420,324,117436,2,0,P|340:308|256:336,1,157.499995193482
188,340,118107,1,0,0:0:0:0:
108,332,118331,1,0,0:0:0:0:
156,272,118555,6,0,P|164:224|144:172,1,78.7499975967408
84,164,119003,2,0,P|77:126|86:88,1,78.7499975967408
148,40,119451,2,0,L|256:40,1,78.7499975967408
304,40,119898,1,0,0:0:0:0:
384,44,120122,5,0,0:0:0:0:
256,192,120346,12,0,122137,0:0:0:0:
432,336,123928,6,0,B|444:284|444:284|412:236|436:168,1,165.000005035401,0|0,0:0|0:0,0:0:0:0:
404,108,124600,1,0,0:0:0:0:
264,164,125048,2,0,L|360:164,2,82.5000025177003
288,92,125719,6,0,P|208:112|196:192,1,165.000005035401
240,244,126391,2,0,L|348:240,1,82.5000025177003
388,272,126839,2,0,P|396:312|380:360,2,82.5000025177003
455,242,127510,2,0,P|392:200|319:247,1,165.000005035401
264,308,128182,6,0,B|216:308|184:284|184:284|152:316|88:304,1,165.000005035401,0|0,0:0|0:0,0:0:0:0:
52,260,128854,2,0,P|44:192|60:156,1,82.5000025177003,0|0,0:0|0:0,0:0:0:0:
50,106,129301,2,0,B|96:104|120:160,1,82.5000025177003,0|0,0:0|0:0,0:0:0:0:
184,176,129749,2,0,P|152:212|112:220,1,82.5000025177003,0|0,0:0|0:0,0:0:0:0:
114,150,130197,5,0,0:0:0:0:
105,142,130309,1,0,0:0:0:0:
97,134,130421,2,0,L|94:46,2,82.5000025177003
40,180,131092,6,0,P|112:208|168:128,1,165.000005035401
192,84,131764,2,0,L|296:88,1,82.5000025177003,0|0,0:0|0:0,0:0:0:0:
348,88,132212,1,0,0:0:0:0:
408,132,132436,2,0,P|420:172|400:220,1,82.5000025177003
348,252,132883,6,0,B|296:248|296:248|236:284|160:240,1,165.000005035401,0|0,0:0|0:0,0:0:0:0:
184,180,133555,2,0,P|128:212|144:312,1,165.000005035401
200,340,134227,2,0,L|292:340,1,82.5000025177003
352,312,134674,6,0,P|368:272|340:212,1,82.5000025177003,0|0,0:0|0:0,0:0:0:0:
228,156,135122,2,0,P|252:188|296:204,1,82.5000025177003,0|0,0:0|0:0,0:0:0:0:
420,124,135570,2,0,P|376:132|348:172,1,82.5000025177003,0|0,0:0|0:0,0:0:0:0:
290,204,136018,6,0,L|196:208,1,82.5000025177003,0|0,0:0|0:0,0:0:0:0:
64,152,136466,2,0,L|160:148,1,82.5000025177003,0|0,0:0|0:0,0:0:0:0:
216,120,136913,2,0,P|212:76|228:32,1,82.5000025177003
288,128,137361,1,0,0:0:0:0:
292,140,137473,1,0,0:0:0:0:
296,152,137585,2,0,P|300:196|284:240,1,82.5000025177003
260,300,138033,1,0,0:0:0:0:
212,244,138257,5,0,0:0:0:0:
68,348,145421,6,0,L|72:252,1,78.7499975967408
140,176,145868,2,0,L|144:264,1,78.7499975967408
184,324,146316,2,0,P|224:332|272:316,2,78.7499975967408
112,292,146988,1,0,0:0:0:0:
76,360,147212,6,0,P|40:284|92:216,1,157.499995193482
136,180,147883,2,0,L|232:180,1,78.7499975967408,0|0,0:0|0:0,0:0:0:0:
292,180,148331,1,0,0:0:0:0:
356,224,148555,2,0,P|368:272|344:320,1,78.7499975967408
292,340,149003,6,0,L|120:340,1,157.499995193482
60,340,149674,2,0,B|48:296|48:296|64:240|64:240|48:168,1,157.499995193482
88,116,150346,6,0,P|124:104|184:128,1,78.7499975967408,0|0,0:0|0:0,0:0:0:0:
224,168,150794,2,0,P|264:176|320:160,1,78.7499975967408
344,104,151242,2,0,L|436:104,1,78.7499975967408
468,168,151689,1,0,0:0:0:0:
476,208,151801,1,0,0:0:0:0:
460,244,151914,1,0,0:0:0:0:
228,200,152585,5,0,0:0:0:0:
80,336,166913,6,0,B|68:284|68:284|84:228|84:228|76:168,1,165.000005035401,0|0,0:0|0:0,0:0:0:0:
108,108,167585,1,0,0:0:0:0:
248,164,168033,2,0,L|152:164,2,82.5000025177003
224,92,168704,6,0,P|308:120|312:196,1,165.000005035401,0|0,0:0|0:0,0:0:0:0:
280,256,169376,2,0,L|172:252,1,82.5000025177003,0|0,0:0|0:0,0:0:0:0:
128,280,169824,2,0,P|120:320|136:368,2,82.5000025177003
64,240,170495,2,0,P|124:200|201:263,1,165.000005035401,0|0,0:0|0:0,0:0:0:0:
244,312,171167,6,0,B|420:308,1,165.000005035401,0|0,0:0|0:0,0:0:0:0:
460,252,171839,2,0,P|468:184|452:148,1,82.5000025177003,0|0,0:0|0:0,0:0:0:0:
462,98,172286,2,0,B|416:96|392:152,1,82.5000025177003,0|0,0:0|0:0,0:0:0:0:
328,168,172734,2,0,P|360:204|400:212,1,82.5000025177003,0|0,0:0|0:0,0:0:0:0:
397,140,173182,5,0,0:0:0:0:
406,132,173294,1,0,0:0:0:0:
414,124,173406,2,0,L|417:36,2,82.5000025177003
472,172,174077,6,0,P|400:200|340:124,1,165.000005035401,0|0,0:0|0:0,0:0:0:0:
320,76,174749,2,0,L|216:80,1,82.5000025177003,0|0,0:0|0:0,0:0:0:0:
164,88,175197,1,0,0:0:0:0:
104,132,175421,2,0,P|92:172|112:220,1,82.5000025177003
164,252,175868,6,0,B|248:228|248:296|352:240,1,165.000005035401,0|0,0:0|0:0,0:0:0:0:
328,180,176540,2,0,P|388:212|372:312,1,165.000005035401,0|0,0:0|0:0,0:0:0:0:
324,340,177212,2,0,L|232:340,1,82.5000025177003,0|0,0:0|0:0,0:0:0:0:
172,312,177660,6,0,P|156:272|184:212,1,82.5000025177003,0|0,0:0|0:0,0:0:0:0:
296,156,178107,2,0,P|272:188|228:204,1,82.5000025177003,0|0,0:0|0:0,0:0:0:0:
104,124,178555,2,0,P|148:132|176:172,1,82.5000025177003,0|0,0:0|0:0,0:0:0:0:
234,204,179003,6,0,L|328:208,1,82.5000025177003,0|0,0:0|0:0,0:0:0:0:
460,152,179451,2,0,L|364:148,1,82.5000025177003,0|0,0:0|0:0,0:0:0:0:
308,120,179898,2,0,P|312:76|296:32,1,82.5000025177003
236,128,180346,1,0,0:0:0:0:
232,140,180458,1,0,0:0:0:0:
228,152,180570,2,0,P|224:196|240:240,1,82.5000025177003
264,300,181018,1,0,0:0:0:0:
312,244,181242,6,0,L|400:244,1,78.7499975967408,0|0,0:0|0:0,0:0:0:0:
452,192,181689,2,0,P|460:148|432:96,2,78.7499975967408
390,244,182361,1,0,0:0:0:0:
332,296,182585,2,0,P|324:344|352:396,2,78.7499975967408
452,192,183480,5,0,0:0:0:0:
452,192,183704,2,0,B|392:204|364:184|364:184|352:204|328:192|328:192|288:192,1,157.499995193482
236,152,184376,2,0,P|224:112|248:56,2,78.7499975967408
276,304,185271,6,0,L|288:200,1,78.7499975967408
350,121,185719,2,0,L|360:200,1,78.7499975967408
418,318,186167,2,0,L|428:240,1,78.7499975967408
360,200,186615,5,0,0:0:0:0:
358,97,186839,1,0,0:0:0:0:
460,95,187063,1,0,0:0:0:0:
462,198,187286,1,0,0:0:0:0:
448,276,187510,1,0,0:0:0:0:
440,288,187622,1,0,0:0:0:0:
432,300,187734,2,0,L|344:300,2,78.7499975967408
432,296,188406,6,0,L|428:200,1,78.7499975967408
360,124,188853,2,0,L|356:212,1,78.7499975967408
316,272,189301,2,0,P|276:280|228:264,2,78.7499975967408
388,240,189973,1,0,0:0:0:0:
424,308,190197,6,0,P|460:232|408:164,1,157.499995193482,0|0,0:0|0:0,0:0:0:0:
364,128,190868,2,0,L|268:128,1,78.7499975967408
208,128,191316,1,0,0:0:0:0:
144,172,191540,2,0,P|132:220|156:268,1,78.7499975967408
208,288,191988,6,0,L|380:288,1,157.499995193482,0|0,0:0|0:0,0:0:0:0:
440,288,192659,2,0,B|452:244|452:244|436:188|436:188|452:116,1,157.499995193482
412,64,193331,6,0,P|376:52|316:76,1,78.7499975967408,0|0,0:0|0:0,0:0:0:0:
276,116,193779,2,0,P|236:124|180:108,1,78.7499975967408
156,52,194227,2,0,L|64:52,1,78.7499975967408
28,116,194674,1,0,0:0:0:0:
16,152,194785,1,0,0:0:0:0:
32,191,194897,1,0,0:0:0:0:
112,184,195122,1,0,0:0:0:0:
24,36,195346,1,0,0:0:0:0:
124,84,195570,5,0,0:0:0:0:
