osu file format v14

[General]
AudioFilename: T-ara - Cry Cry.mp3
AudioLeadIn: 0
PreviewTime: 51687
Countdown: 1
SampleSet: Soft
StackLeniency: 0.6
Mode: 0
LetterboxInBreaks: 0
WidescreenStoryboard: 0

[Editor]
Bookmarks: 25203,52334,83638,127464,135812,165029
DistanceSpacing: 1.2
BeatDivisor: 4
GridSize: 4
TimelineZoom: 1

[Metadata]
Title:Cry Cry
TitleUnicode:Cry Cry
Artist:T-ara
ArtistUnicode:티아라
Creator:Gabe
Version:Normal
Source:
Tags:Tiara Black Eyes K-pop Girl Group W_h_i_t_e Collab Collaboration Veus Pachiru
BeatmapID:1406770
BeatmapSetID:664712

[Difficulty]
HPDrainRate:4
CircleSize:4
OverallDifficulty:4
ApproachRate:5
SliderMultiplier:1.4
SliderTickRate:2

[Events]
//Background and Video events
0,0,"T-ara bg.jpg",0,0
Video,-590,"T-ara vid.avi"
//Break Periods
2,83800,89888
2,127668,133725
//Storyboard Layer 0 (Background)
//Storyboard Layer 1 (Fail)
//Storyboard Layer 2 (Pass)
//Storyboard Layer 3 (Foreground)
//Storyboard Sound Samples

[TimingPoints]
16861,521.739130434783,4,2,0,50,1,0
52339,-100,4,2,0,50,0,1
68904,-100,4,2,0,50,0,0
69034,-100,4,2,0,50,0,1
69165,-100,4,2,0,50,0,0
81556,-100,4,2,0,40,0,0
83643,-100,4,2,0,10,0,0
91208,-100,4,2,0,40,0,0
95121,-100,4,2,0,50,0,0
95643,-100,4,2,0,60,0,0
96165,-100,4,2,0,50,0,0
110774,-100,4,2,0,50,0,1
127339,-100,4,2,0,50,0,0
127469,-100,4,2,0,50,0,1
127600,-100,4,2,0,50,0,0
148339,-100,4,2,0,50,0,1
164904,-100,4,2,0,50,0,0
165034,-100,4,2,0,50,0,1
181600,-100,4,2,0,50,0,0
181730,-100,4,2,0,50,0,1
181861,-100,4,2,0,50,0,0

[Colours]
Combo1 : 222,206,95
Combo2 : 107,0,215

[HitObjects]
452,16,25208,6,0,P|440:68|448:160,1,140,4|8,1:2|0:0,0:0:0:0:
420,232,25991,1,2,0:0:0:0:
420,232,26252,2,0,L|436:312,1,70,0|0,1:0|0:0,0:0:0:0:
364,344,26774,2,0,L|350:275,1,70,10|2,0:0|0:0,0:0:0:0:
268,264,27295,1,0,1:0:0:0:
116,336,27817,1,8,0:0:0:0:
212,200,28339,2,0,P|248:176|280:168,1,70,2|2,1:2|1:2,0:0:0:0:
324,104,28861,2,0,P|288:80|256:72,1,70,8|2,0:0|1:2,0:0:0:0:
180,60,29382,6,0,B|132:76|132:76|104:104|104:104|56:120,1,140,0|8,1:0|0:0,0:0:0:0:
132,272,30426,2,0,B|180:288|180:288|208:316|208:316|256:332,1,140,2|8,1:2|0:0,0:0:0:0:
408,260,31469,2,0,B|408:208|408:208|388:172|388:172|388:124,1,140,0|8,1:0|0:0,0:0:0:0:
388,40,32252,1,2,0:0:0:0:
312,76,32513,2,0,L|312:156,2,70,0|2|8,1:0|1:2|0:0,0:0:0:0:
236,112,33295,1,2,1:2:0:0:
160,148,33556,5,0,3:0:0:0:
160,148,35904,1,2,0:0:0:0:
86,188,36165,1,2,3:2:0:0:
175,328,36687,1,2,0:0:0:0:
334,275,37208,1,10,0:0:0:0:
344,108,37730,5,0,1:0:0:0:
188,40,38252,2,0,P|208:196|208:200,1,140,8|0,0:0|1:0,0:0:0:0:
180,256,39034,1,2,0:0:0:0:
120,200,39295,2,0,P|112:152|112:116,2,70,8|2|0,0:0|0:0|1:0,0:0:0:0:
180,256,40078,2,0,L|196:336,1,70,2|0,0:0|1:0,0:0:0:0:
264,280,40600,2,0,L|280:360,1,70,2|0,0:0|1:0,0:0:0:0:
348,304,41121,2,0,L|364:384,2,70,2|8|2,0:0|0:0|1:2,0:0:0:0:
328,220,41904,6,0,L|355:82,2,140,2|10|0,1:2|0:0|1:0,0:0:0:0:
232,84,43469,1,8,0:0:0:0:
140,225,43991,2,0,L|113:363,2,140,2|10|0,1:2|0:0|1:0,0:0:0:0:
105,146,45295,2,0,P|119:95|111:65,1,70,0|8,1:0|0:0,0:0:0:0:
44,44,45817,1,0,1:0:0:0:
44,44,46078,6,2,B|100:96|177:52|252:8|313:52,1,280,2|0,1:2|1:0,2:0:0:0:
395,163,47643,1,8,0:0:0:0:
334,289,48165,1,4,1:2:0:0:
254,313,48426,1,4,0:0:0:0:
174,289,48687,1,4,0:0:0:0:
117,163,49208,1,4,1:2:0:0:
256,192,50252,12,4,52339,1:2:0:0:
192,264,53382,5,2,1:2:0:0:
300,136,53904,1,8,0:0:0:0:
360,76,54165,1,2,1:2:0:0:
360,76,54687,2,0,L|436:84,1,70,0|8,0:0|0:0,0:0:0:0:
448,252,55469,1,2,1:2:0:0:
365,237,55730,1,2,1:2:0:0:
281,224,55991,2,0,L|193:210,1,70,8|2,1:2|1:2,0:0:0:0:
128,198,56513,5,4,1:2:0:0:
112,28,57034,2,0,L|200:40,1,70,8|2,0:0|1:2,0:0:0:0:
264,52,57556,1,0,1:0:0:0:
408,138,58078,1,8,0:0:0:0:
492,122,58339,1,2,1:2:0:0:
492,122,59121,2,0,L|482:191,1,70,10|2,0:0|1:2,0:0:0:0:
331,266,59904,1,0,1:0:0:0:
248,280,60165,2,0,L|178:289,1,70,8|2,1:2|0:0,0:0:0:0:
95,303,60687,5,4,1:2:0:0:
126,225,60947,2,0,P|106:193|62:181,2,70,0|8|2,0:0|0:0|0:0,0:0:0:0:
95,303,61730,2,0,L|15:315,2,70,0|2|8,1:0|0:0|0:0,0:0:0:0:
148,368,62513,1,2,1:2:0:0:
148,368,63034,2,0,L|217:360,1,70,0|8,0:0|0:0,0:0:0:0:
375,302,63817,1,0,1:0:0:0:
290,294,64078,1,2,1:2:0:0:
207,282,64339,2,0,L|137:274,1,70,8|2,1:2|1:2,0:0:0:0:
55,266,64861,5,4,1:2:0:0:
127,114,65382,2,0,L|196:106,1,70,8|2,0:0|1:2,0:0:0:0:
279,94,65904,1,4,1:2:0:0:
424,180,66426,1,8,1:2:0:0:
398,14,66947,2,0,L|323:27,1,70,0|0,1:0|0:0,0:0:0:0:
279,94,67469,2,0,L|188:110,1,70,0|0,1:0|0:0,0:0:0:0:
151,167,67991,1,0,1:0:0:0:
112,97,68252,5,2,0:0:0:0:
112,97,68513,2,0,P|112:63|119:28,1,70,8|2,1:2|0:0,0:0:0:0:
203,36,69034,6,0,P|209:70|209:105,1,70,6|2,1:2|0:0,0:0:0:0:
151,167,69556,1,8,0:0:0:0:
310,220,70078,2,0,P|375:220|447:239,1,140,2|10,0:0|0:0,0:0:0:0:
308,336,71121,2,0,L|232:356,1,70,4|2,1:2|0:0,0:0:0:0:
156,356,71643,1,8,0:0:0:0:
244,212,72165,2,0,L|108:176,1,140,2|10,0:0|0:0,0:0:0:0:
8,40,73208,6,0,P|60:40|92:24,1,70,4|2,1:2|0:0,0:0:0:0:
160,12,73730,1,8,0:0:0:0:
280,132,74252,2,0,P|343:159|412:156,1,140,2|10,0:0|0:0,0:0:0:0:
484,108,75034,1,2,0:0:0:0:
496,192,75295,2,0,L|484:340,1,140,4|8,0:0|0:0,0:0:0:0:
316,352,76339,2,0,L|321:282,2,70,2|2|8,0:0|0:0|0:0,0:0:0:0:
204,224,77382,6,0,L|198:293,2,70,6|2|8,0:0|0:0|0:0,0:0:0:0:
80,340,78426,2,0,L|85:270,2,70,6|2|8,0:0|0:0|0:0,0:0:0:0:
8,188,79469,6,0,P|40:120|84:72,1,140,4|4,1:2|1:2,0:0:0:0:
108,240,80513,2,0,P|165:191|225:166,1,140,4|4,1:2|1:2,0:0:0:0:
256,192,81556,12,0,83600,0:0:0:0:
388,92,91208,5,2,0:0:0:0:
312,60,91469,1,2,3:2:0:0:
368,220,91991,1,2,1:2:0:0:
368,220,94339,5,2,3:2:0:0:
356,304,94600,1,2,1:2:0:0:
252,172,95121,1,2,0:0:0:0:
160,32,95643,1,10,0:0:0:0:
84,180,96165,5,0,1:0:0:0:
252,172,96687,2,0,P|245:102|232:33,1,140,8|2,0:0|1:2,0:0:0:0:
152,60,97469,1,0,0:0:0:0:
72,88,97730,2,0,P|65:53|63:18,2,70,10|2|0,0:0|0:0|1:0,0:0:0:0:
136,144,98513,2,0,L|152:224,1,70,2|0,0:0|1:0,0:0:0:0:
224,168,99034,2,0,L|240:248,1,70,2|0,0:0|1:0,0:0:0:0:
312,196,99556,2,0,L|328:276,2,70,2|8|2,0:0|0:0|1:2,0:0:0:0:
395,229,100339,6,0,P|403:276|343:341,2,140,0|8|0,1:0|0:0|1:0,0:0:0:0:
306,86,101904,1,8,0:0:0:0:
163,175,102426,2,0,L|142:326,2,140,0|8|0,1:0|0:0|1:0,0:0:0:0:
178,90,103730,2,0,P|210:66|222:34,1,70,0|8,1:0|0:0,0:0:0:0:
301,79,104252,1,0,1:0:0:0:
301,79,104513,6,2,B|280:148|280:148|340:272|340:272|320:344,1,280,0|0,1:0|0:0,2:0:0:0:
156,368,106078,1,8,0:0:0:0:
28,260,106600,1,4,1:2:0:0:
76,192,106861,1,4,0:0:0:0:
28,124,107121,1,4,0:0:0:0:
156,16,107643,1,4,1:2:0:0:
256,192,108687,12,4,110774,1:2:0:0:
320,264,111817,5,0,1:0:0:0:
212,136,112339,1,8,0:0:0:0:
132,164,112600,1,2,1:2:0:0:
132,164,113121,2,0,L|56:172,1,70,0|8,0:0|0:0,0:0:0:0:
44,340,113904,1,2,1:2:0:0:
128,324,114165,1,2,1:2:0:0:
212,308,114426,2,0,L|281:298,1,70,8|2,1:2|1:2,0:0:0:0:
364,284,114947,5,4,1:2:0:0:
268,148,115469,2,0,L|356:160,1,70,8|2,0:0|1:2,0:0:0:0:
420,172,115991,1,0,1:0:0:0:
396,4,116513,1,8,0:0:0:0:
312,20,116774,1,2,1:2:0:0:
312,20,117556,2,0,L|302:89,1,70,10|2,0:0|1:2,0:0:0:0:
144,28,118339,1,0,1:0:0:0:
132,112,118600,2,0,L|123:182,1,70,8|2,1:2|0:0,0:0:0:0:
112,264,119121,5,4,1:2:0:0:
36,300,119382,2,0,P|56:332|88:348,2,70,0|8|2,0:0|0:0|0:0,0:0:0:0:
44,216,120165,2,0,L|33:146,2,70,0|2|8,1:0|0:0|0:0,0:0:0:0:
112,264,120947,1,2,1:2:0:0:
112,264,121469,2,0,L|182:257,1,70,0|8,0:0|0:0,0:0:0:0:
136,96,122252,1,2,1:2:0:0:
220,104,122513,1,2,1:2:0:0:
304,116,122774,2,0,L|374:124,1,70,8|2,1:2|1:2,0:0:0:0:
456,132,123295,5,4,1:2:0:0:
408,292,123817,2,0,L|339:300,1,70,8|2,0:0|1:2,0:0:0:0:
256,308,124339,1,0,1:0:0:0:
120,212,124861,1,8,1:2:0:0:
172,52,125382,2,0,L|217:121,1,70,0|0,1:0|0:0,0:0:0:0:
293,125,125904,2,0,L|248:194,1,70,0|0,1:0|0:0,0:0:0:0:
204,251,126426,1,0,1:0:0:0:
257,316,126687,5,2,0:0:0:0:
257,316,126947,2,0,P|297:316|410:347,1,140,8|4,0:0|0:1,0:0:0:0:
56,52,135295,5,0,0:0:0:0:
56,52,135817,2,2,P|45:134|60:276,1,210,2|0,0:0|0:0,0:0:0:0:
136,112,137121,2,0,P|131:164|139:219,1,105,2|2,0:0|0:0,0:0:0:0:
216,312,137904,6,2,L|432:332,1,210,2|0,0:0|0:0,0:0:0:0:
284,234,139208,2,0,L|388:243,1,105,2|2,0:0|0:0,0:0:0:0:
467,144,139991,6,2,P|409:58|311:26,1,210,2|0,0:0|0:0,0:0:0:0:
373,182,141295,2,0,P|344:139|295:123,2,105,2|2|2,0:0|0:0|0:0,0:0:0:0:
360,348,142600,5,0,0:0:0:0:
255,218,143121,1,2,0:0:0:0:
150,348,143643,1,0,0:0:0:0:
255,218,144165,1,0,0:0:0:0:
256,192,146252,12,4,148339,1:2:0:0:
256,336,149382,5,0,1:0:0:0:
214,172,149904,1,8,0:0:0:0:
298,172,150165,1,2,1:2:0:0:
298,172,150687,2,0,L|374:180,1,70,0|8,0:0|0:0,0:0:0:0:
396,344,151469,1,2,1:2:0:0:
313,329,151730,1,2,1:2:0:0:
229,316,151991,2,0,L|141:302,1,70,8|2,1:2|1:2,0:0:0:0:
76,290,152513,5,4,1:2:0:0:
36,124,153034,2,0,L|45:54,1,70,8|2,0:0|1:2,0:0:0:0:
128,32,153556,1,0,1:0:0:0:
260,136,154078,1,8,0:0:0:0:
344,152,154339,1,2,1:2:0:0:
344,152,155121,2,0,L|354:221,1,70,10|2,0:0|1:2,0:0:0:0:
232,336,155904,1,0,1:0:0:0:
244,252,156165,2,0,L|253:182,1,70,8|2,0:0|0:0,0:0:0:0:
264,100,156687,5,4,1:2:0:0:
188,136,156947,2,0,P|157:119|143:87,2,70,0|8|2,0:0|0:0|0:0,0:0:0:0:
264,100,157730,2,0,L|276:20,2,70,0|2|8,1:0|0:0|0:0,0:0:0:0:
252,182,158513,1,2,1:2:0:0:
252,182,159034,2,0,L|322:189,1,70,0|8,0:0|0:0,0:0:0:0:
466,274,159817,1,2,1:2:0:0:
383,289,160078,1,2,1:2:0:0:
299,302,160339,2,0,L|211:316,1,70,8|2,1:2|1:2,0:0:0:0:
146,328,160861,5,4,1:2:0:0:
256,200,161382,2,0,L|187:192,1,70,8|2,0:0|1:2,0:0:0:0:
104,180,161904,1,0,1:0:0:0:
172,28,162426,1,8,1:2:0:0:
339,28,162947,2,0,P|361:62|366:104,1,70,0|2,1:0|0:0,0:0:0:0:
282,96,163469,2,0,P|260:130|255:172,1,70,0|2,1:0|0:0,0:0:0:0:
310,222,163991,1,0,1:0:0:0:
394,222,164252,2,0,P|416:188|421:146,2,70,0|0|0,1:0|1:0|0:0,0:0:0:0:
310,222,165034,6,0,P|250:218|174:178,1,140,4|8,1:2|0:0,0:0:0:0:
95,36,166078,1,0,1:0:0:0:
20,186,166600,1,8,0:0:0:0:
28,102,166861,1,2,1:2:0:0:
28,102,167382,2,0,L|104:126,1,70,0|8,0:0|0:0,0:0:0:0:
27,277,168165,1,2,1:2:0:0:
107,249,168426,1,2,1:2:0:0:
183,217,168687,2,0,L|249:195,1,70,8|2,1:2|1:2,0:0:0:0:
327,165,169208,5,4,1:2:0:0:
480,92,169730,2,0,L|458:158,1,70,8|2,0:0|1:2,0:0:0:0:
432,240,170252,1,0,1:0:0:0:
304,348,170774,1,8,0:0:0:0:
344,276,171034,1,2,1:2:0:0:
344,276,171817,2,0,L|277:254,1,70,8|0,0:0|1:0,0:0:0:0:
136,348,172600,1,0,1:0:0:0:
148,264,172861,2,0,L|157:194,1,70,8|2,1:2|0:0,0:0:0:0:
172,112,173382,5,4,1:2:0:0:
188,32,173643,2,0,L|118:21,2,70,0|8|2,0:0|0:0|0:0,0:0:0:0:
252,86,174426,2,0,P|282:69|296:37,2,70,0|2|8,1:0|0:0|0:0,0:0:0:0:
172,112,175208,1,2,1:2:0:0:
172,112,175730,2,0,L|102:119,1,70,0|8,0:0|0:0,0:0:0:0:
68,285,176513,1,2,1:2:0:0:
152,275,176774,1,2,1:2:0:0:
236,264,177034,2,0,L|306:256,1,70,8|2,1:2|1:2,0:0:0:0:
388,246,177556,5,4,1:2:0:0:
484,108,178078,2,0,L|415:100,1,70,8|2,0:0|1:2,0:0:0:0:
332,88,178600,1,0,1:0:0:0:
256,240,179121,1,8,0:0:0:0:
180,88,179643,2,0,L|101:106,1,70,0|0,1:0|0:0,0:0:0:0:
150,178,180165,2,0,L|71:196,1,70,0|0,1:0|0:0,0:0:0:0:
121,267,180687,1,0,1:0:0:0:
41,294,180947,5,2,0:0:0:0:
41,294,181208,2,0,L|29:378,1,70,8|2,1:2|0:0,0:0:0:0:
115,355,181730,6,0,P|149:348|184:348,1,70,6|2,0:0|0:0,0:0:0:0:
260,312,182252,1,8,0:0:0:0:
373,187,182774,2,0,P|305:168|235:167,1,140,2|10,0:0|0:0,0:0:0:0:
152,312,183817,2,0,L|76:332,1,70,6|2,0:0|0:0,0:0:0:0:
0,348,184339,1,8,0:0:0:0:
24,180,184861,2,0,L|160:144,1,140,2|10,0:0|0:0,0:0:0:0:
292,36,185904,6,0,P|326:32|360:42,1,70,6|2,0:0|0:0,0:0:0:0:
432,84,186426,1,8,0:0:0:0:
384,244,186947,2,0,P|314:247|250:220,1,140,2|10,0:0|0:0,0:0:0:0:
196,156,187730,1,2,0:0:0:0:
120,192,187991,2,0,P|92:255|96:325,1,140,6|8,0:0|0:0,0:0:0:0:
264,328,189034,2,0,L|269:258,2,70,2|2|8,0:0|0:0|0:0,0:0:0:0:
376,200,190078,6,0,L|370:269,2,70,6|2|8,0:0|0:0|0:0,0:0:0:0:
468,340,191121,2,0,L|473:270,2,70,6|2|8,0:0|0:0|0:0,0:0:0:0:
328,360,192165,6,0,L|175:347,1,140,4|12,0:0|0:0,0:0:0:0:
128,220,193208,2,0,L|267:231,1,140,4|12,0:0|0:0,0:0:0:0:
