osu file format v14

[General]
AudioFilename: T-ara - Cry Cry.mp3
AudioLeadIn: 0
PreviewTime: 51687
Countdown: 1
SampleSet: Soft
StackLeniency: 0.7
Mode: 0
LetterboxInBreaks: 0
WidescreenStoryboard: 0

[Editor]
Bookmarks: 25203,52334,83638,127464,135812,165029
DistanceSpacing: 1
BeatDivisor: 4
GridSize: 4
TimelineZoom: 1

[Metadata]
Title:Cry Cry
TitleUnicode:Cry Cry
Artist:T-ara
ArtistUnicode:티아라
Creator:Gabe
Version:Easy
Source:
Tags:Tiara Black Eyes K-pop Girl Group W_h_i_t_e Collab Collaboration Veus Pachiru
BeatmapID:1406768
BeatmapSetID:664712

[Difficulty]
HPDrainRate:2
CircleSize:3
OverallDifficulty:2
ApproachRate:3
SliderMultiplier:1
SliderTickRate:1

[Events]
//Background and Video events
0,0,"T-ara bg.jpg",0,0
Video,-590,"T-ara vid.avi"
//Break Periods
2,83800,89768
2,127669,134377
2,144365,146247
//Storyboard Layer 0 (Background)
//Storyboard Layer 1 (Fail)
//Storyboard Layer 2 (Pass)
//Storyboard Layer 3 (Foreground)
//Storyboard Sound Samples

[TimingPoints]
16861,521.739130434783,4,2,0,50,1,0
52339,-100,4,2,0,50,0,1
68904,-100,4,2,0,50,0,0
69034,-100,4,2,0,50,0,1
69165,-100,4,2,0,50,0,0
81556,-100,4,2,0,40,0,0
83600,-100,4,2,0,10,0,0
91208,-100,4,2,0,40,0,0
95121,-100,4,2,0,50,0,0
95643,-100,4,2,0,60,0,0
96165,-100,4,2,0,50,0,0
110774,-100,4,2,0,50,0,1
127339,-100,4,2,0,50,0,0
127469,-100,4,2,0,50,0,1
127600,-100,4,2,0,50,0,0
148339,-100,4,2,0,50,0,1
164904,-100,4,2,0,50,0,0
165034,-100,4,2,0,50,0,1
181600,-100,4,2,0,50,0,0
181730,-100,4,2,0,50,0,1
181861,-100,4,2,0,50,0,0

[Colours]
Combo1 : 222,206,95
Combo2 : 107,0,215

[HitObjects]
12,156,25208,6,0,P|65:117|191:165,1,200,4|0,1:2|1:0,0:0:0:0:
260,220,26774,1,10,0:0:0:0:
295,184,27034,2,0,L|456:184,1,150,2|8,0:0|0:0,0:0:0:0:
445,83,28339,1,2,1:2:0:0:
345,83,28860,1,8,0:0:0:0:
244,83,29382,6,0,B|152:39|152:39|56:87,1,200,0|2,1:0|1:2,0:0:0:0:
64,182,30947,1,8,0:0:0:0:
64,232,31208,2,0,P|88:272|184:292,1,150,2|8,0:0|0:0,0:0:0:0:
283,292,32513,2,0,L|391:292,1,100,0|8,1:0|0:0,0:0:0:0:
483,292,33556,5,0,3:0:0:0:
472,360,35904,5,2,0:0:0:0:
472,308,36165,2,0,L|472:200,1,100,2|2,3:2|0:0,0:0:0:0:
430,117,37208,1,10,0:0:0:0:
340,160,37730,6,0,P|256:196|152:156,1,200,0|0,1:0|1:0,0:0:0:0:
92,85,39295,1,8,0:0:0:0:
50,176,39817,2,0,L|48:296,1,100,2|0,0:0|1:0,0:0:0:0:
0,364,40861,2,0,P|51:378|107:354,1,100,0|8,1:0|0:0,0:0:0:0:
170,299,41904,6,0,L|170:199,2,100,2|10|0,1:2|0:0|1:0,0:0:0:0:
251,359,43469,1,8,0:0:0:0:
321,288,43991,2,0,B|368:272|368:272|420:288,1,100,2|10,1:2|0:0,0:0:0:0:
486,216,45034,2,0,B|470:169|470:169|486:117,1,100,0|8,1:0|0:0,0:0:0:0:
449,85,45817,1,2,1:2:0:0:
413,49,46078,6,2,B|368:24|316:40|316:40|264:60|220:32,1,200,2|0,1:2|1:0,0:0:0:0:
153,106,47643,1,8,0:0:0:0:
220,180,48165,2,0,L|288:180,2,50,4|4|4,1:2|0:0|0:0,0:0:0:0:
149,250,49208,1,4,1:2:0:0:
398,174,51817,6,0,P|395:198|387:222,1,50,2|2,0:0|0:0,0:0:0:0:
347,252,52339,6,0,L|240:252,1,100,4|8,1:2|0:0,0:0:0:0:
176,322,53382,2,0,L|69:322,1,100,2|8,1:2|0:0,0:0:0:0:
40,286,54165,2,0,L|36:128,1,150,2|8,1:2|0:0,0:0:0:0:
36,35,55469,2,0,P|92:6|136:10,1,100,2|8,1:2|1:2,0:0:0:0:
148,53,56252,1,0,1:0:0:0:
170,98,56513,6,0,P|215:106|275:66,1,100,4|8,1:2|0:0,0:0:0:0:
345,28,57556,2,0,P|413:8|489:32,2,150,0|2|10,1:0|1:2|0:0,0:0:0:0:
304,56,59382,1,2,1:2:0:0:
332,204,60165,2,0,L|332:272,1,50,8|2,1:2|0:0,0:0:0:0:
296,289,60687,6,0,P|253:264|232:219,1,100,4|8,1:2|0:0,0:0:0:0:
161,149,61730,1,0,1:0:0:0:
72,194,62252,1,8,0:0:0:0:
39,232,62513,2,0,P|11:300|43:364,1,150,2|8,1:2|0:0,0:0:0:0:
143,355,63817,2,0,L|203:355,1,50,0|2,1:0|1:2,0:0:0:0:
243,354,64339,1,8,1:2:0:0:
302,273,64861,6,0,L|402:273,1,100,4|8,1:2|0:0,0:0:0:0:
388,174,65904,2,0,L|288:174,1,100,4|8,1:2|1:2,0:0:0:0:
256,135,66687,1,2,0:0:0:0:
225,95,66947,1,0,1:0:0:0:
124,95,67469,1,0,1:0:0:0:
23,95,67991,2,0,L|23:199,1,100,0|8,1:0|0:0,0:0:0:0:
64,284,69034,6,0,B|160:284|196:341|196:341|240:284|328:281,1,300,6|10,0:0|0:0,0:0:0:0:
424,307,71121,2,0,P|504:192|424:76,1,300,4|10,1:2|0:0,0:0:0:0:
328,102,73208,6,0,B|240:100|196:43|196:43|160:100|64:100,1,300,4|10,1:2|0:0,0:0:0:0:
16,188,75295,2,0,P|1:235|21:291,1,100,4|8,0:0|0:0,0:0:0:0:
86,354,76339,2,0,P|133:369|189:349,1,100,2|8,0:0|0:0,0:0:0:0:
256,288,77382,6,0,B|221:226|237:142|237:142|309:94|396:128,1,300,6|8,0:0|0:0,0:0:0:0:
452,192,79469,1,4,1:2:0:0:
382,263,79991,1,12,1:2:0:0:
453,334,80513,2,0,P|408:360|356:360,1,100,4|12,1:2|1:2,0:0:0:0:
256,192,81556,12,0,83600,0:0:0:0:
92,360,91208,6,0,L|152:360,1,50,2|2,0:0|3:2,0:0:0:0:
224,304,91991,6,0,P|240:260|224:200,1,100,2|0,1:2|0:0,0:0:0:0:
160,137,93034,1,0,0:0:0:0:
230,66,93556,2,0,L|330:66,1,100,0|0,0:0|0:0,0:0:0:0:
365,101,94339,1,2,3:2:0:0:
400,136,94600,2,0,L|400:236,2,100,2|2|10,1:2|0:0|0:0,0:0:0:0:
329,65,96165,5,0,1:0:0:0:
258,135,96687,1,8,0:0:0:0:
187,64,97208,2,0,P|136:52|84:68,1,100,2|10,1:2|0:0,0:0:0:0:
48,91,97991,1,2,0:0:0:0:
57,140,98252,2,0,L|57:256,1,100,0|8,1:0|0:0,0:0:0:0:
156,248,99295,2,0,L|156:364,1,100,0|8,1:0|0:0,0:0:0:0:
251,379,100339,6,0,L|363:371,1,100,0|8,1:0|0:0,0:0:0:0:
350,271,101382,2,0,L|449:278,1,100,0|8,1:0|0:0,0:0:0:0:
480,236,102165,1,2,0:0:0:0:
512,196,102426,1,0,1:0:0:0:
444,124,102947,1,8,0:0:0:0:
476,28,103469,2,0,P|396:36|372:56,1,100,0|8,1:0|0:0,0:0:0:0:
356,88,104252,1,2,1:2:0:0:
328,132,104513,6,2,P|268:168|136:120,1,200,0|0,1:0|1:0,0:0:0:0:
78,64,106078,1,8,0:0:0:0:
7,134,106600,2,0,L|7:234,1,100,4|4,1:2|0:0,0:0:0:0:
77,304,107643,1,4,1:2:0:0:
486,128,110252,6,0,L|485:187,1,50,2|2,0:0|0:0,0:0:0:0:
464,224,110774,6,0,P|408:208|360:224,1,100,4|8,1:2|0:0,0:0:0:0:
298,289,111817,2,0,P|242:305|194:289,1,100,0|8,1:0|0:0,0:0:0:0:
160,268,112600,2,0,P|84:240|20:268,1,150,2|8,1:2|0:0,0:0:0:0:
40,166,113904,6,0,P|58:120|54:68,1,100,2|8,1:2|0:0,0:0:0:0:
83,29,114687,1,0,1:0:0:0:
132,31,114947,2,0,L|161:142,1,100,4|8,0:0|0:0,0:0:0:0:
240,184,115991,2,0,B|288:160|288:160|384:160,2,150,0|2|10,1:2|1:2|0:0,0:0:0:0:
200,212,117817,1,2,1:2:0:0:
117,337,118600,2,0,L|99:285,1,50,10|2,0:0|0:0,0:0:0:0:
84,242,119121,6,0,P|76:183|92:145,1,100,4|8,1:2|0:0,0:0:0:0:
140,59,120165,1,0,1:0:0:0:
196,141,120687,1,8,0:0:0:0:
226,180,120947,2,0,L|395:181,1,150,2|8,1:2|0:0,0:0:0:0:
423,92,122252,2,0,L|323:92,1,100,2|8,1:2|1:2,0:0:0:0:
244,30,123295,5,4,1:2:0:0:
208,124,123817,1,8,0:0:0:0:
143,51,124339,2,0,L|39:51,1,100,0|8,1:0|1:2,0:0:0:0:
10,88,125121,1,2,0:0:0:0:
16,137,125383,2,0,P|7:185|28:229,1,100,0|0,1:0|1:0,0:0:0:0:
128,220,126426,1,0,1:0:0:0:
88,311,126947,1,8,0:0:0:0:
187,299,127469,5,4,0:1:0:0:
156,60,135817,6,2,P|256:153|356:60,1,300,10|2,0:0|0:0,0:0:0:0:
256,40,137904,2,0,B|256:340,1,300,10|0,0:0|0:0,0:0:0:0:
355,323,139991,6,0,P|255:231|156:324,1,300,10|0,0:0|0:0,0:0:0:0:
51,322,142078,2,0,L|36:204,1,100,10|8,0:0|0:0,0:0:0:0:
110,152,143121,2,0,L|95:34,1,100,10|8,0:0|0:0,0:0:0:0:
184,4,144165,1,0,0:0:0:0:
129,271,147817,6,0,P|126:238|136:205,1,50,2|2,0:0|0:0,0:0:0:0:
176,204,148339,6,0,B|256:264|256:264|340:196,1,200,4|0,1:2|1:0,0:0:0:0:
404,271,149904,1,8,0:0:0:0:
439,235,150165,2,0,P|429:175|488:100,1,150,2|8,1:2|0:0,0:0:0:0:
405,33,151469,2,0,P|356:43|308:30,1,100,2|8,1:2|0:0,0:0:0:0:
258,31,152252,1,2,1:2:0:0:
225,68,152513,6,0,P|249:144|217:264,1,200,4|0,1:2|1:0,0:0:0:0:
128,296,154078,1,8,0:0:0:0:
80,280,154339,2,0,P|36:212|52:140,1,150,2|10,1:2|0:0,0:0:0:0:
70,103,155382,1,0,1:0:0:0:
218,79,156165,2,0,L|225:128,1,50,2|2,0:0|0:0,0:0:0:0:
260,164,156687,6,0,P|309:122|444:120,1,200,4|0,1:2|1:0,0:0:0:0:
496,200,158252,1,8,0:0:0:0:
462,236,158513,2,0,L|389:310,1,100,0|0,1:0|0:0,0:0:0:0:
354,340,159295,1,8,0:0:0:0:
280,272,159817,2,0,P|256:324|261:379,1,100,2|8,1:2|1:2,0:0:0:0:
206,365,160600,1,0,1:2:0:0:
156,365,160861,6,0,B|120:272|120:272|156:172,1,200,4|0,1:2|1:0,0:0:0:0:
254,177,162426,1,8,0:0:0:0:
324,247,162947,1,0,1:0:0:0:
394,176,163469,1,0,1:0:0:0:
323,105,163991,1,0,1:0:0:0:
393,34,164513,1,0,1:0:0:0:
463,104,165034,6,0,B|500:140|500:140|500:192,1,100,4|8,1:2|0:0,0:0:0:0:
500,238,165817,1,0,0:0:0:0:
500,288,166078,2,0,B|500:336|500:336|463:372,1,100,0|8,1:0|0:0,0:0:0:0:
412,372,166861,2,0,L|252:372,1,150,2|8,1:2|0:0,0:0:0:0:
262,271,168165,2,0,L|364:272,2,100,2|8|4,1:2|1:2|1:2,0:0:0:0:
174,320,169730,5,8,0:0:0:0:
172,219,170252,1,0,1:0:0:0:
258,168,170774,1,8,0:0:0:0:
275,121,171034,2,0,P|264:75|225:35,1,100,0|0,1:0|0:0,0:0:0:0:
178,39,171817,1,8,0:0:0:0:
144,76,172078,2,0,B|116:120|116:120|132:224,1,150,0|8,1:0|1:2,0:0:0:0:
191,294,173382,6,0,B|284:260|284:260|384:296,1,200,4|0,1:2|1:0,0:0:0:0:
449,223,174947,1,8,0:0:0:0:
416,184,175208,2,0,P|392:144|392:36,1,150,2|8,1:2|0:0,0:0:0:0:
494,43,176513,2,0,P|506:83|494:143,1,100,2|8,1:2|1:2,0:0:0:0:
476,184,177295,1,2,1:2:0:0:
449,223,177556,6,0,B|353:251|353:251|257:223,1,200,4|0,1:2|1:0,0:0:0:0:
164,184,179121,1,8,0:0:0:0:
112,268,179643,2,0,P|99:322|119:370,1,100,0|0,1:0|1:0,0:0:0:0:
213,362,180687,2,0,P|227:314|214:267,1,100,0|8,1:0|1:2,0:0:0:0:
285,196,181730,6,0,B|340:176|340:176|389:232|473:232|520:168|509:96,1,300,6|10,0:0|0:0,0:0:0:0:
496,12,183817,2,0,B|452:28|452:28|400:68|416:120|416:120|388:76|316:72|316:72|260:92,1,300,6|10,0:0|0:0,0:0:0:0:
192,44,185904,6,0,B|176:88|176:88|196:136|196:136|156:188|156:280|212:336,1,300,6|10,0:0|0:0,0:0:0:0:
284,376,187991,2,0,L|400:368,1,100,6|8,0:0|0:0,0:0:0:0:
454,298,189034,2,0,L|446:182,1,100,0|8,0:0|0:0,0:0:0:0:
376,127,190078,6,0,P|306:146|380:53,1,300,6|8,0:0|0:0,0:0:0:0:
452,96,192165,2,0,P|456:148|416:200,2,100,4|12|4,0:0|0:0|0:0,0:0:0:0:
370,41,193730,1,12,0:0:0:0:
