osu file format v14

[General]
AudioFilename: T-ara - Cry Cry.mp3
AudioLeadIn: 0
PreviewTime: 51687
Countdown: 1
SampleSet: Soft
StackLeniency: 0.3
Mode: 0
LetterboxInBreaks: 0
WidescreenStoryboard: 0

[Editor]
Bookmarks: 25203,52334,83638,127464,135812,165029
DistanceSpacing: 1
BeatDivisor: 4
GridSize: 4
TimelineZoom: 1

[Metadata]
Title:Cry Cry
TitleUnicode:Cry Cry
Artist:T-ara
ArtistUnicode:티아라
Creator:Gabe
Version:Hard
Source:
Tags:Tiara Black Eyes K-pop Girl Group W_h_i_t_e Collab Collaboration Veus Pachiru
BeatmapID:1406769
BeatmapSetID:664712

[Difficulty]
HPDrainRate:6
CircleSize:5
OverallDifficulty:6
ApproachRate:7
SliderMultiplier:1.6
SliderTickRate:2

[Events]
//Background and Video events
0,0,"T-ara bg.jpg",0,0
Video,-590,"T-ara vid.avi"
//Break Periods
2,83800,89899
2,127669,134395
//Storyboard Layer 0 (Background)
//Storyboard Layer 1 (Fail)
//Storyboard Layer 2 (Pass)
//Storyboard Layer 3 (Foreground)
//Storyboard Sound Samples

[TimingPoints]
16861,521.739130434783,4,2,0,50,1,0
52339,-100,4,2,0,50,0,1
68904,-100,4,2,0,50,0,0
69034,-100,4,2,0,50,0,1
69165,-100,4,2,0,50,0,0
81556,-100,4,2,0,40,0,0
83600,-100,4,2,0,10,0,0
91208,-100,4,2,0,40,0,0
95121,-100,4,2,0,50,0,0
95643,-100,4,2,0,60,0,0
96165,-100,4,2,0,50,0,0
110774,-100,4,2,0,50,0,1
127339,-100,4,2,0,50,0,0
127469,-100,4,2,0,50,0,1
127600,-100,4,2,0,50,0,0
148339,-100,4,2,0,50,0,1
164904,-100,4,2,0,50,0,0
165034,-100,4,2,0,50,0,1
181600,-100,4,2,0,50,0,0
181730,-100,4,2,0,50,0,1
181861,-100,4,2,0,50,0,0

[Colours]
Combo1 : 222,206,95
Combo2 : 107,0,215

[HitObjects]
444,12,25208,6,0,P|429:54|444:90,1,80,4|0,1:2|0:0,0:0:0:0:
480,156,25730,2,0,P|488:196|472:240,1,80,8|2,0:0|0:0,0:0:0:0:
416,284,26252,1,0,1:0:0:0:
416,284,26513,1,0,0:0:0:0:
392,360,26774,1,10,0:0:0:0:
392,360,27034,1,2,0:0:0:0:
296,292,27295,6,0,L|216:292,1,80,0|0,1:0|0:0,0:0:0:0:
88,232,27817,2,0,L|168:232,1,80,8|0,0:0|0:0,0:0:0:0:
280,192,28339,1,2,1:2:0:0:
328,84,28600,1,2,1:2:0:0:
398,178,28861,1,8,0:0:0:0:
280,192,29121,1,2,1:2:0:0:
200,104,29382,6,0,L|184:16,1,80,0|0,1:0|0:0,0:0:0:0:
124,152,29904,2,0,L|108:64,1,80,8|0,0:0|0:0,0:0:0:0:
48,200,30426,2,0,L|32:112,2,80,2|2|8,1:2|0:0|0:0,0:0:0:0:
64,280,31208,1,2,0:0:0:0:
84,356,31469,6,0,P|116:380|156:376,1,80,0|0,1:0|0:0,0:0:0:0:
215,325,31991,1,8,0:0:0:0:
195,247,32252,2,0,P|163:223|124:226,1,80,0|0,0:0|1:0,0:0:0:0:
64,280,32774,1,0,1:0:0:0:
46,200,33034,2,0,L|33:121,1,80,8|2,0:0|1:2,0:0:0:0:
20,44,33556,5,0,3:0:0:0:
396,188,35904,5,2,0:0:0:0:
396,188,36165,1,2,3:2:0:0:
256,48,36687,1,2,0:0:0:0:
116,188,37208,1,10,0:0:0:0:
256,336,37730,5,0,1:0:0:0:
116,188,38252,1,8,0:0:0:0:
396,188,38774,1,0,1:0:0:0:
349,252,39034,1,2,0:0:0:0:
396,320,39295,1,8,0:0:0:0:
472,295,39556,1,2,0:0:0:0:
472,212,39817,1,0,1:0:0:0:
472,212,40078,6,0,L|484:132,1,80,2|0,0:0|1:0,0:0:0:0:
404,116,40600,2,0,L|366:45,1,80,2|0,0:0|1:0,0:0:0:0:
312,104,41121,2,0,L|232:100,1,80,2|8,0:0|0:0,0:0:0:0:
152,92,41643,1,2,1:2:0:0:
40,192,41904,6,0,P|16:244|60:336,2,160,2|10|0,1:2|0:0|1:0,0:0:0:0:
116,164,43208,1,2,0:0:0:0:
192,192,43469,2,0,L|256:244,1,80,8|2,0:0|0:0,0:0:0:0:
260,348,43991,6,0,L|136:244,2,160,2|10|0,1:2|0:0|1:0,0:0:0:0:
316,288,45295,1,2,1:2:0:0:
396,276,45556,2,0,P|444:276|480:312,1,80,8|2,0:0|1:2,0:0:0:0:
416,356,46078,6,2,L|452:196,1,160,2|8,1:2|0:0,0:0:0:0:
468,120,46861,1,2,0:0:0:0:
452,40,47121,2,0,P|416:16|372:28,1,80,0|2,1:0|0:0,0:0:0:0:
288,136,47643,2,0,P|324:160|368:148,1,80,8|2,0:0|0:0,0:0:0:0:
264,56,48165,5,4,1:2:0:0:
132,120,48426,1,4,0:0:0:0:
248,212,48687,1,4,0:0:0:0:
252,220,49208,1,4,1:2:0:0:
256,192,50252,12,2,51817,0:0:0:0:
256,192,52078,5,2,0:0:0:0:
312,247,52339,6,0,P|331:213|331:174,1,80,4|0,1:2|0:0,0:0:0:0:
199,136,52861,2,0,P|180:170|180:209,1,80,8|0,0:0|0:0,0:0:0:0:
238,268,53382,1,2,1:2:0:0:
160,288,53643,1,2,0:0:0:0:
181,210,53904,1,8,0:0:0:0:
219,348,54165,6,0,P|144:368|80:324,1,160,2|0,1:2|0:0,0:0:0:0:
64,248,54947,2,0,L|60:168,1,80,8|0,0:0|0:0,0:0:0:0:
56,88,55469,1,2,1:2:0:0:
128,124,55730,1,2,1:2:0:0:
60,168,55991,1,8,1:2:0:0:
124,44,56252,1,2,1:2:0:0:
256,88,56513,6,0,B|320:88|320:88|352:80|352:80|416:80,1,160,4|8,1:2|0:0,0:0:0:0:
448,152,57295,1,2,1:2:0:0:
368,160,57556,2,0,B|340:168|340:168|288:168,1,80,0|2,1:0|0:0,0:0:0:0:
212,148,58078,1,8,0:0:0:0:
232,224,58339,6,0,P|280:276|260:364,1,160,2|0,1:2|0:0,0:0:0:0:
200,304,59121,1,10,0:0:0:0:
168,384,59382,2,0,P|120:332|140:244,1,160,2|0,1:2|1:0,0:0:0:0:
168,176,60165,1,8,1:2:0:0:
88,184,60426,1,2,0:0:0:0:
134,250,60687,6,0,P|97:264|58:260,1,80,4|0,1:2|0:0,0:0:0:0:
40,120,61208,2,0,P|76:105|116:109,1,80,8|2,0:0|0:0,0:0:0:0:
168,176,61730,1,0,1:0:0:0:
199,99,61991,2,0,P|191:61|203:23,1,80,2|8,0:0|0:0,0:0:0:0:
272,64,62513,2,0,B|316:52|348:76|348:76|384:100|424:88,1,160,2|0,1:2|0:0,0:0:0:0:
496,52,63295,1,8,0:0:0:0:
496,52,63817,6,0,P|504:92|492:132,1,80,0|2,1:0|1:2,0:0:0:0:
452,196,64339,2,0,P|421:222|380:232,1,80,8|2,1:2|1:2,0:0:0:0:
304,236,64861,2,0,P|228:232|176:172,1,160,4|8,1:2|0:0,0:0:0:0:
208,100,65643,1,2,1:2:0:0:
264,160,65904,2,0,L|240:320,1,160,4|8,1:2|1:2,0:0:0:0:
168,352,66687,1,2,0:0:0:0:
176,272,66947,1,0,1:0:0:0:
110,223,67208,6,0,P|96:260|100:300,1,80,2|0,0:0|1:0,0:0:0:0:
176,272,67730,2,0,P|190:235|186:195,1,80,2|0,0:0|1:0,0:0:0:0:
124,144,68252,1,2,0:0:0:0:
124,144,68513,2,0,L|139:41,1,80,8|2,0:0|0:0,0:0:0:0:
60,92,69034,5,6,0:0:0:0:
200,116,69295,1,2,0:0:0:0:
280,128,69556,2,0,L|360:124,1,80,8|2,0:0|0:0,0:0:0:0:
416,180,70078,2,0,P|432:144|416:68,1,120,2|0,0:0|0:0,0:0:0:0:
384,40,70600,2,0,L|304:36,1,80,10|2,0:0|0:0,0:0:0:0:
224,28,71121,5,4,1:2:0:0:
316,136,71382,1,2,0:0:0:0:
296,212,71643,1,8,0:0:0:0:
240,156,71904,1,2,0:0:0:0:
376,196,72165,2,0,P|395:252|377:308,1,120,2|0,0:0|0:0,0:0:0:0:
352,328,72687,2,0,L|272:336,1,80,10|2,0:0|0:0,0:0:0:0:
192,340,73208,5,4,1:2:0:0:
272,224,73469,1,2,0:0:0:0:
204,264,73730,2,0,L|124:256,1,80,8|2,0:0|0:0,0:0:0:0:
56,300,74252,2,0,P|44:252|76:192,1,120,2|0,0:0|0:0,0:0:0:0:
108,168,74774,1,10,0:0:0:0:
248,188,75034,1,2,0:0:0:0:
168,76,75295,6,0,P|93:96|37:40,2,160,4|8|2,0:0|0:0|0:0,0:0:0:0:
112,16,76600,1,2,0:0:0:0:
248,84,76861,2,0,L|328:80,1,80,8|2,0:0|0:0,0:0:0:0:
400,115,77382,6,0,P|407:77|397:38,2,80,6|2|8,0:0|0:0|0:0,0:0:0:0:
332,160,78165,1,2,0:0:0:0:
404,200,78426,2,0,P|441:187|469:159,2,80,6|2|8,0:0|0:0|0:0,0:0:0:0:
332,160,79208,1,2,0:0:0:0:
332,240,79469,6,0,L|292:236,3,40,4|0|0|0,1:2|0:0|0:0|0:0,0:0:0:0:
256,252,79991,2,0,L|230:220,3,40,12|0|0|0,1:2|0:0|0:0|0:0,0:0:0:0:
192,212,80513,2,0,L|196:172,3,40,4|0|0|0,1:2|0:0|0:0|0:0,0:0:0:0:
180,136,81034,2,0,L|211:110,3,40,12|0|0|0,1:2|0:0|0:0|0:0,0:0:0:0:
248,100,81556,5,4,1:0:0:0:
256,192,81687,12,0,83600,0:0:0:0:
328,192,91208,5,2,0:0:0:0:
256,72,91469,1,2,3:2:0:0:
256,72,91991,5,2,1:2:0:0:
256,72,94339,5,2,3:2:0:0:
256,72,94600,1,2,1:2:0:0:
140,272,95121,1,2,0:0:0:0:
372,272,95643,1,10,0:0:0:0:
256,72,96165,5,0,1:0:0:0:
24,72,96687,1,8,0:0:0:0:
140,272,97208,1,2,1:2:0:0:
204,224,97469,1,0,0:0:0:0:
256,288,97730,1,10,0:0:0:0:
308,224,97991,1,2,0:0:0:0:
372,272,98252,1,0,1:0:0:0:
328,144,98513,6,0,P|338:103|340:60,1,80,2|0,0:0|1:0,0:0:0:0:
256,152,99034,2,0,L|256:48,1,80,2|0,0:0|1:0,0:0:0:0:
183,143,99556,2,0,P|173:105|171:65,1,80,2|8,0:0|0:0,0:0:0:0:
116,8,100078,1,2,1:2:0:0:
121,194,100339,6,0,P|102:271|113:349,2,160,0|8|0,1:0|0:0|1:0,0:0:0:0:
184,144,101643,1,2,0:0:0:0:
256,180,101904,2,0,L|256:216|256:264,1,80,8|2,0:0|0:0,0:0:0:0:
304,324,102426,6,0,P|384:348|444:272,2,160,0|8|0,1:0|0:0|1:0,0:0:0:0:
364,272,103730,1,2,1:2:0:0:
428,220,103991,1,8,0:0:0:0:
500,252,104252,1,2,1:2:0:0:
488,152,104513,6,2,P|412:132|344:180,1,160,0|8,1:0|0:0,0:0:0:0:
428,220,105295,1,0,0:0:0:0:
347,174,105556,2,0,L|335:94,1,80,0|2,1:0|0:0,0:0:0:0:
198,41,106078,2,0,L|210:121,1,80,8|2,0:0|0:0,0:0:0:0:
147,230,106600,5,4,1:2:0:0:
275,298,106861,1,4,0:0:0:0:
347,174,107121,1,4,0:0:0:0:
355,170,107643,1,4,1:2:0:0:
256,192,108687,12,2,110252,0:0:0:0:
256,112,110513,5,2,0:0:0:0:
204,172,110774,6,0,P|192:212|204:252,1,80,4|0,1:2|0:0,0:0:0:0:
310,248,111295,2,0,P|319:209|308:172,1,80,8|0,0:0|0:0,0:0:0:0:
256,112,111817,1,0,1:0:0:0:
176,96,112078,1,2,0:0:0:0:
204,172,112339,1,8,0:0:0:0:
228,32,112600,6,0,P|176:16|96:80,1,160,2|0,1:2|0:0,0:0:0:0:
120,152,113382,2,0,L|120:236,1,80,8|0,0:0|0:0,0:0:0:0:
96,308,113904,1,2,1:2:0:0:
176,292,114165,1,2,1:2:0:0:
120,232,114426,1,8,1:2:0:0:
96,308,114687,1,2,1:2:0:0:
200,216,114947,6,0,P|264:248|336:204,1,160,4|8,1:2|0:0,0:0:0:0:
264,168,115730,1,2,1:2:0:0:
192,136,115991,2,0,P|224:96|264:88,1,80,0|2,1:0|0:0,0:0:0:0:
264,168,116513,1,8,0:0:0:0:
128,184,116774,6,0,P|122:120|174:42,1,160,2|0,1:2|0:0,0:0:0:0:
244,16,117556,1,10,0:0:0:0:
316,48,117817,2,0,L|496:48,1,160,2|0,1:2|1:0,0:0:0:0:
488,128,118600,2,0,P|464:168|464:212,1,80,8|2,1:2|0:0,0:0:0:0:
464,336,119121,5,4,1:2:0:0:
404,284,119382,1,0,0:0:0:0:
348,228,119643,2,0,P|304:232|268:212,1,80,8|2,0:0|0:0,0:0:0:0:
132,164,120165,2,0,P|176:160|212:180,1,80,0|2,1:0|0:0,0:0:0:0:
160,240,120687,1,8,0:0:0:0:
84,224,120947,2,0,P|56:172|104:88,1,160,2|0,1:2|0:0,0:0:0:0:
180,80,121730,1,8,0:0:0:0:
180,80,122252,5,2,1:2:0:0:
248,120,122513,1,2,1:2:0:0:
328,124,122774,1,8,1:2:0:0:
396,84,123034,1,2,1:2:0:0:
392,164,123295,6,0,L|384:256,1,80,4|0,1:2|0:0,0:0:0:0:
372,324,123817,1,8,0:0:0:0:
448,292,124078,1,2,1:2:0:0:
304,276,124339,2,0,L|212:292,1,80,0|2,1:0|0:0,0:0:0:0:
144,276,124861,2,0,L|52:292,1,80,8|2,1:2|0:0,0:0:0:0:
0,340,125382,5,0,1:0:0:0:
24,216,125643,2,0,P|56:187|69:153,1,80,2|0,0:0|1:0,0:0:0:0:
136,196,126165,2,0,P|172:172|190:140,1,80,2|0,0:0|1:0,0:0:0:0:
229,71,126687,1,2,0:0:0:0:
268,188,126947,2,0,P|280:252|280:280,1,80,8|2,0:0|0:0,0:0:0:0:
255,341,127469,5,4,0:1:0:0:
391,143,135295,5,0,0:0:0:0:
391,143,135817,2,2,P|255:72|120:144,1,320,10|8,0:0|0:0,0:0:0:0:
204,173,137121,2,2,P|256:147|308:172,2,120,2|2|10,0:0|0:0|0:0,0:0:0:0:
140,224,138165,5,8,0:0:0:0:
208,300,138426,1,8,0:0:0:0:
304,300,138687,1,0,0:0:0:0:
372,224,138947,1,8,0:0:0:0:
307,171,139208,6,2,P|255:147|203:173,2,120,2|2|10,0:0|0:0|0:0,0:0:0:0:
372,224,140252,5,8,0:0:0:0:
295,251,140513,2,0,P|256:258|216:251,1,80,8|0,0:0|0:0,0:0:0:0:
140,224,141034,1,8,0:0:0:0:
196,328,141295,6,2,P|255:335|315:327,2,120,2|2|10,0:0|0:0|0:0,0:0:0:0:
380,192,142600,5,8,0:0:0:0:
220,96,143121,1,10,0:0:0:0:
124,256,143643,1,8,0:0:0:0:
284,352,144165,1,0,0:0:0:0:
284,352,146252,5,2,0:0:0:0:
207,327,146513,1,2,0:0:0:0:
207,247,146774,1,0,0:0:0:0:
284,222,147034,1,2,0:0:0:0:
331,287,147295,5,0,0:0:0:0:
207,327,147556,1,2,0:0:0:0:
84,284,147817,2,0,L|80:204,1,80,2|2,0:0|0:0,0:0:0:0:
32,84,148339,6,0,P|69:73|109:79,1,80,4|0,1:2|0:0,0:0:0:0:
232,149,148861,2,0,P|192:155|154:143,1,80,8|0,0:0|0:0,0:0:0:0:
200,77,149382,1,0,1:0:0:0:
264,29,149643,2,0,P|301:17|341:23,1,80,2|8,0:0|0:0,0:0:0:0:
416,84,150165,6,0,L|420:256,1,160,2|0,1:2|0:0,0:0:0:0:
384,316,150947,2,0,P|423:322|461:310,1,80,8|0,0:0|0:0,0:0:0:0:
340,252,151469,2,0,P|302:240|262:246,1,80,2|2,1:2|1:2,0:0:0:0:
216,312,151991,1,8,0:0:0:0:
296,320,152252,1,2,1:2:0:0:
180,240,152513,6,0,B|180:176|180:176|172:144|172:144|172:80,1,160,4|8,1:2|0:0,0:0:0:0:
172,0,153295,1,2,1:2:0:0:
244,40,153556,2,0,L|324:40,1,80,0|2,1:0|0:0,0:0:0:0:
404,40,154078,1,8,0:0:0:0:
440,112,154339,6,0,B|428:156|452:188|452:188|476:224|464:264,1,160,2|0,1:2|0:0,0:0:0:0:
388,240,155121,1,10,0:0:0:0:
312,264,155382,2,0,B|300:224|324:188|324:188|348:156|336:112,1,160,2|0,1:2|1:0,0:0:0:0:
276,60,156165,1,8,1:2:0:0:
260,140,156426,1,2,0:0:0:0:
200,84,156687,6,0,P|160:80|125:95,1,80,4|0,1:2|0:0,0:0:0:0:
148,236,157208,2,0,P|188:240|226:225,1,80,8|2,0:0|0:0,0:0:0:0:
176,160,157730,1,0,1:0:0:0:
96,172,157991,2,0,L|16:168,1,80,2|8,0:0|0:0,0:0:0:0:
148,236,158513,6,0,B|174:245|205:240|224:224|224:224|268:228|288:264,1,160,2|0,1:2|0:0,0:0:0:0:
328,336,159295,1,8,0:0:0:0:
328,336,159817,2,0,B|288:352|248:336,1,80,2|2,1:2|1:2,0:0:0:0:
248,192,160339,2,0,B|288:176|328:192,1,80,8|0,1:2|1:2,0:0:0:0:
288,264,160861,6,0,L|128:264,1,160,4|8,1:2|0:0,0:0:0:0:
84,196,161643,1,2,1:2:0:0:
44,124,161904,2,0,P|36:84|40:44,2,80,0|2|8,1:0|0:0|0:0,0:0:0:0:
84,196,162687,1,2,0:0:0:0:
128,264,162947,5,0,1:0:0:0:
172,168,163208,2,0,P|193:210|219:246,1,80,2|0,0:0|1:0,0:0:0:0:
340,168,163730,2,0,P|319:211|293:247,1,80,2|0,0:0|1:0,0:0:0:0:
256,304,164252,1,0,1:0:0:0:
256,180,164514,2,0,L|256:100,1,80,0|0,1:0|0:0,0:0:0:0:
216,16,165034,6,0,P|256:8|296:16,1,80,4|0,1:2|0:0,0:0:0:0:
256,100,165556,1,8,0:0:0:0:
256,100,165816,1,0,0:0:0:0:
294,183,166078,2,0,P|254:191|214:183,1,80,0|0,1:0|0:0,0:0:0:0:
256,100,166600,1,8,0:0:0:0:
356,139,166861,6,0,P|404:159|420:259,1,160,2|0,1:2|0:0,0:0:0:0:
374,322,167643,1,8,0:0:0:0:
374,322,168165,2,0,L|306:370,1,80,2|2,1:2|1:2,0:0:0:0:
242,322,168687,2,0,L|176:368,1,80,8|2,1:2|1:2,0:0:0:0:
96,363,169208,6,0,P|48:348|11:253,1,160,4|8,1:2|0:0,0:0:0:0:
43,180,169991,1,2,1:2:0:0:
11,106,170252,2,0,L|7:14,1,80,0|2,1:0|0:0,0:0:0:0:
112,192,170774,1,8,0:0:0:0:
112,192,171034,2,0,L|120:360,1,160,2|0,1:2|0:0,0:0:0:0:
196,332,171817,5,8,0:0:0:0:
196,332,172078,2,0,P|232:360|268:360,1,80,0|0,1:0|0:0,0:0:0:0:
396,280,172600,2,0,P|356:283|327:308,1,80,0|8,1:0|1:2,0:0:0:0:
388,360,173121,1,2,0:0:0:0:
460,328,173382,6,0,L|496:244,1,80,4|0,1:2|0:0,0:0:0:0:
428,208,173904,2,0,L|428:128,1,80,8|2,0:0|0:0,0:0:0:0:
352,104,174426,2,0,L|324:28,1,80,0|2,1:0|0:0,0:0:0:0:
248,8,174947,1,8,0:0:0:0:
260,88,175208,6,0,P|236:140|228:248,1,160,2|0,1:2|0:0,0:0:0:0:
256,316,175991,1,8,0:0:0:0:
256,316,176513,1,2,1:2:0:0:
108,360,176774,1,2,1:2:0:0:
188,364,177034,1,8,1:2:0:0:
52,300,177295,1,2,1:2:0:0:
52,220,177556,6,0,P|60:168|52:128,1,80,4|0,1:2|0:0,0:0:0:0:
28,68,178078,1,8,0:0:0:0:
28,68,178339,1,2,1:2:0:0:
108,80,178600,2,0,L|172:136,1,80,0|2,1:0|0:0,0:0:0:0:
244,112,179121,2,0,L|305:164,1,80,8|2,0:0|0:0,0:0:0:0:
360,224,179643,5,0,1:0:0:0:
356,304,179904,2,0,P|308:320|296:356,1,80,2|0,0:0|1:0,0:0:0:0:
156,303,180426,2,0,P|194:311|215:344,1,80,2|0,0:0|1:0,0:0:0:0:
256,276,180947,1,2,0:0:0:0:
256,276,181208,2,0,L|256:192,1,80,8|0,1:2|0:0,0:0:0:0:
340,216,181730,6,0,P|320:172|324:136,1,80,6|2,0:0|0:0,0:0:0:0:
396,164,182252,2,0,L|484:152,1,80,8|0,0:0|0:0,0:0:0:0:
380,80,182774,2,0,P|320:56|264:80,1,120,2|0,0:0|0:0,0:0:0:0:
244,104,183295,2,0,L|156:116,1,80,10|2,0:0|0:0,0:0:0:0:
96,168,183817,5,6,0:0:0:0:
36,224,184078,1,2,0:0:0:0:
116,248,184339,1,8,0:0:0:0:
16,148,184600,1,0,0:0:0:0:
116,248,184861,2,0,P|172:229|228:248,1,120,2|0,0:0|0:0,0:0:0:0:
252,280,185382,2,0,L|332:272,1,80,10|0,0:0|0:0,0:0:0:0:
388,328,185904,5,6,0:0:0:0:
404,248,186165,1,2,0:0:0:0:
348,188,186426,2,0,L|268:196,1,80,8|0,0:0|0:0,0:0:0:0:
292,120,186947,2,0,L|168:132,1,120,2|0,0:0|0:0,0:0:0:0:
132,136,187469,1,10,0:0:0:0:
60,104,187730,1,2,0:0:0:0:
12,168,187991,6,0,P|12:248|84:288,2,160,6|8|0,0:0|0:0|0:0,0:0:0:0:
80,208,189295,1,2,0:0:0:0:
148,248,189556,2,0,L|228:244,1,80,8|2,0:0|0:0,0:0:0:0:
296,284,190078,6,0,L|376:280,1,80,6|2,0:0|0:0,0:0:0:0:
456,276,190600,1,8,0:0:0:0:
456,276,190861,1,0,0:0:0:0:
484,200,191121,2,0,L|480:120,1,80,4|0,0:0|0:0,0:0:0:0:
476,40,191643,1,8,0:0:0:0:
476,40,191904,1,0,0:0:0:0:
400,64,192165,6,0,L|360:60,3,40,4|0|0|0,0:0|0:0|0:0|0:0,0:0:0:0:
336,92,192687,2,0,L|288:100,3,40,12|0|0|0,0:0|0:0|0:0|0:0,0:0:0:0:
288,136,193208,2,0,L|236:172,3,40,4|0|0|0,0:0|0:0|0:0|0:0,0:0:0:0:
260,200,193730,2,0,L|252:252,3,40,12|0|0|2,0:0|0:0|0:0|0:0,0:0:0:0:
