osu file format v14

[General]
AudioFilename: T SQUARE 35thAnniversary JapaneseSoulBrothers.mp3
AudioLeadIn: 0
PreviewTime: 233725
Countdown: 0
SampleSet: Soft
StackLeniency: 0.7
Mode: 3
LetterboxInBreaks: 0
SpecialStyle: 0
WidescreenStoryboard: 1

[Editor]
DistanceSpacing: 0.8
BeatDivisor: 4
GridSize: 32
TimelineZoom: 1.6

[Metadata]
Title:JAPANESE SOUL BROTHERS (Cut & Live Ver.)
TitleUnicode:JAPANESE SOUL BROTHERS (Cut & Live Ver.)
Artist:T-SQUARE SUPER BAND SPECIAL
ArtistUnicode:T-SQUARE SUPER BAND SPECIAL
Creator:Ska
Version:35th Anniversary | Part 2
Source:
Tags:JSB T-SQUARE 35th Anniversary “Festival" The Square Fusion Jazz Instrumental Gravity 安藤正容 Andoh Masahiro 伊東たけし Itoh Takeshi 仙波清彦 Senba Kiyohiko 宮城純子 Miyagi Junko 和泉宏隆 Izumi Hirotaka 田中豊雪 Tanaka Toyoyuki 長谷部徹 Hasebe Toru 則竹裕之 Noritake Hiroyuki 須藤満 Sutoh Mitsuru 宮崎隆睦 Miyazaki Takahiro 河野啓三 Kawano Keizo 坂東慧 Satoshi Bandoh 田中晋吾 Tanaka Shingo 伊東毅 Marathon 大阪フェスティバルホール Technical Dump Streams Jacks Stamina
BeatmapID:3466516
BeatmapSetID:1683567

[Difficulty]
HPDrainRate:8.5
CircleSize:4
OverallDifficulty:8.5
ApproachRate:5
SliderMultiplier:1.4
SliderTickRate:1

[Events]
//Background and Video events
0,0,"isnan-min.jpg",0,0
//Break Periods
//Storyboard Layer 0 (Background)
//Storyboard Layer 1 (Fail)
//Storyboard Layer 2 (Pass)
//Storyboard Layer 3 (Foreground)
//Storyboard Layer 4 (Overlay)
//Storyboard Sound Samples

[TimingPoints]
5308,362.259776,4,2,1,35,1,0
5308,-115.8230771,4,2,1,35,0,0
6033,385.537214,4,2,1,35,1,0
6033,-108.8300699,4,2,1,35,0,0
6804,432.816118,4,2,1,35,1,0
6804,-96.94195806,4,2,1,35,0,0
7237,409.20158,4,2,1,35,1,0
7237,-102.5363635,4,2,1,35,0,0
7646,393.115242,4,2,1,35,1,0
7646,-106.7321678,4,2,1,35,0,0
8039,383.075715,4,2,1,35,1,0
8039,-109.5293706,4,2,1,35,0,0
8422,368.942427,4,2,1,35,1,0
8422,-113.7251747,4,2,1,35,0,0
9160,390.556348,4,2,1,35,1,0
9160,-107.4314684,4,2,1,35,0,0
9550,406.429718,4,2,1,35,1,0
9550,-103.2356644,4,2,1,35,0,0
9957,403.695156,4,2,1,35,1,0
9957,-103.9349651,4,2,1,35,0,0
10764,398.33496,4,2,1,35,1,0
10764,-105.3335664,4,2,1,35,0,0
11561,403.695156,4,2,1,35,1,0
11561,-103.9349651,4,2,1,35,0,0
12368,423.648033,4,2,1,35,1,0
12368,-99.03986019,4,2,1,35,0,0
12792,385.537214,4,2,1,35,1,0
12792,-108.8300699,4,2,1,35,0,0
13177,403.695156,4,2,1,35,1,0
13177,-103.9349651,4,2,1,35,0,0
13581,373.536205,4,2,1,35,1,0
13581,-112.3265734,4,2,1,35,0,0
13955,423.648033,4,2,1,35,1,0
13955,-99.03986019,4,2,1,35,0,0
14378,398.33496,4,2,1,35,1,0
14378,-105.3335664,4,2,1,35,0,0
14777,403.695156,4,2,1,35,1,0
14777,-103.9349651,4,2,1,35,0,0
16391,393.115242,4,2,1,35,1,0
16391,-106.7321678,4,2,1,35,0,0
16785,390.556348,4,2,1,35,1,0
16785,-107.4314684,4,2,1,35,0,0
17175,403.695156,4,2,1,35,1,0
17175,-103.9349651,4,2,1,35,0,0
17579,409.20158,4,2,1,35,1,0
17579,-102.5363635,4,2,1,35,0,0
18806,388.030551,4,2,1,35,1,0
18806,-108.1307692,4,2,1,35,0,0
19194,393.115242,4,2,1,35,1,0
19194,-106.7321678,4,2,1,35,0,0
19588,398.33496,4,2,1,35,1,0
19588,-105.3335664,4,2,1,35,0,0
19986,403.695156,4,2,1,35,1,0
19986,-103.9349651,4,2,1,35,0,0
20390,395.707888,4,2,1,35,1,0
20390,-106.0328672,4,2,1,35,0,0
21577,414.860296,4,2,1,35,1,0
21577,-101.1377622,4,2,1,35,0,0
22406,380.645448,4,2,1,35,1,0
22406,-110.2286713,4,2,1,35,0,0
22787,409.20158,4,2,1,35,1,0
22787,-102.5363635,4,2,1,35,0,0
23196,368.942427,4,2,1,35,1,0
23196,-113.7251747,4,2,1,35,0,0
23565,400.997146,4,2,1,35,1,0
23565,-104.6342658,4,2,1,35,0,0
23966,395.707888,4,2,1,35,1,0
23966,-106.0328672,4,2,1,35,0,0
24362,420.677712,4,2,1,35,1,0
24362,-99.73916079,4,2,1,35,0,0
24783,388.030551,4,2,1,35,1,0
24783,-108.1307692,4,2,1,35,0,0
25171,400.997146,4,2,1,35,1,0
25171,-104.6342658,4,2,1,35,0,0
25572,412.011509,4,2,1,35,1,0
25572,-101.8370629,4,2,1,35,0,0
25984,406.429718,4,2,1,35,1,0
25984,-103.2356644,4,2,1,35,0,0
26390,390.556348,4,2,1,35,1,0
26390,-107.4314684,4,2,1,35,0,0
26781,393.115242,4,2,1,35,1,0
26781,-106.7321678,4,2,1,35,0,0
27567,406.429718,4,2,1,35,1,0
27567,-103.2356644,4,2,1,35,0,0
27973,403.695156,4,2,1,35,1,0
27973,-103.9349651,4,2,1,35,0,0
29184,388.030551,4,2,1,35,1,0
29184,-108.1307692,4,2,1,35,0,0
30348,406.429718,4,2,1,35,1,0
30348,-103.2356644,4,2,1,35,0,0
31161,420.677712,4,2,1,35,1,0
31161,-99.73916079,4,2,1,35,0,0
31582,400.997146,4,2,1,35,1,0
31582,-104.6342658,4,2,1,35,0,0
31983,385.537214,4,2,1,35,1,0
31983,-108.8300699,4,2,1,35,0,0
32754,378.245822,4,2,1,35,1,0
32754,-110.927972,4,2,1,35,0,0
33132,393.115242,4,2,1,35,1,0
33132,-106.7321678,4,2,1,35,0,0
33525,373.536205,4,2,1,35,1,0
33525,-112.3265734,4,2,1,35,0,0
33899,426.660599,4,2,1,35,1,0
33899,-98.34055935,4,2,1,35,0,0
34326,420.677712,4,2,1,35,1,0
34326,-99.73916079,4,2,1,35,0,0
34746,403.695156,4,2,1,35,1,0
34746,-103.9349651,4,2,1,35,0,0
35150,383.075715,4,2,1,35,1,0
35150,-109.5293706,4,2,1,35,0,0
35533,395.707888,4,2,1,35,1,0
35533,-106.0328672,4,2,1,35,0,0
35929,385.537214,4,2,1,35,1,0
35929,-108.8300699,4,2,1,35,0,0
36314,393.115242,4,2,1,35,1,0
36314,-106.7321678,4,2,1,35,0,0
37494,375.876262,4,2,1,35,1,0
37494,-111.6272726,4,2,1,35,0,0
37870,362.259776,4,2,1,35,1,0
37870,-115.8230771,4,2,1,35,0,0
38232,360.0857,4,2,1,35,1,0
38232,-116.5223778,4,2,1,35,0,0
38952,357.937564,4,2,1,35,1,0
38952,-117.2216782,4,2,1,35,0,0
39668,351.64423,4,2,1,35,1,0
39668,-119.3195804,4,2,1,35,0,0
40019,390.556348,4,2,1,35,1,0
40019,-107.4314684,4,2,1,35,0,0
40410,351.64423,4,2,1,35,1,0
40410,-119.3195804,4,2,1,35,0,0
40762,357.937564,4,2,1,35,1,0
40762,-117.2216782,4,2,1,35,0,0
41478,360.0857,4,2,1,35,1,0
41478,-116.5223778,4,2,1,35,0,0
41838,400.997146,4,2,1,35,1,0
41838,-104.6342658,4,2,1,35,0,0
42239,412.011509,4,2,1,35,1,0
42239,-101.8370629,4,2,1,35,0,0
42651,393.115242,4,2,1,35,1,0
42651,-106.7321678,4,2,1,35,0,0
43830,403.695156,4,2,1,35,1,0
43830,-103.9349651,4,2,1,35,0,0
44234,383.075715,4,2,1,35,1,0
44234,-109.5293706,4,2,1,35,0,0
44617,328.538496,4,2,1,35,1,0
44617,-127.711189,4,2,1,35,0,0
44945,311.482814,4,2,1,35,1,0
44945,-134.7041958,4,2,1,35,0,0
45568,357.937564,4,2,1,35,1,0
45568,-117.2216782,4,2,1,35,0,0
45926,388.030551,4,2,1,35,1,0
45926,-108.1307692,4,2,1,35,0,0
46314,395.707888,4,2,1,35,1,0
46314,-106.0328672,4,2,1,35,0,0
46710,390.556348,4,2,1,35,1,0
46710,-107.4314684,4,2,1,35,0,0
47101,409.20158,4,2,1,35,1,0
47101,-102.5363635,4,2,1,35,0,0
47510,373.536205,4,2,1,35,1,0
47510,-112.3265734,4,2,1,35,0,0
47883,409.20158,4,2,1,35,1,0
47883,-102.5363635,4,2,1,35,0,0
48292,373.536205,4,2,1,35,1,0
48292,-112.3265734,4,2,1,35,0,0
48666,378.245822,4,2,1,35,1,0
48666,-110.927972,4,2,1,35,0,0
49044,412.011509,4,2,1,35,1,0
49044,-101.8370629,4,2,1,35,0,0
49868,409.20158,4,2,1,35,1,0
49868,-102.5363635,4,2,1,35,0,0
50277,373.536205,4,2,1,35,1,0
50277,-112.3265734,4,2,1,35,0,0
50651,390.556348,4,2,1,35,1,0
50651,-107.4314684,4,2,1,35,0,0
51042,385.537214,4,2,1,35,1,0
51042,-108.8300699,4,2,1,35,0,0
51427,388.030551,4,2,1,35,1,0
51427,-108.1307692,4,2,1,35,0,0
51815,398.33496,4,2,1,35,1,0
51815,-105.3335664,4,2,1,35,0,0
52213,383.075715,4,2,1,35,1,0
52213,-109.5293706,4,2,1,35,0,0
52597,400.997146,4,2,1,35,1,0
52597,-104.6342658,4,2,1,35,0,0
52998,388.030551,4,2,1,35,1,0
52998,-108.1307692,4,2,1,35,0,0
53386,409.20158,4,2,1,35,1,0
53386,-102.5363635,4,2,1,35,0,0
53795,371.225105,4,2,1,35,1,0
53795,-113.025874,4,2,1,35,0,0
54166,423.648033,4,2,1,35,1,0
54166,-99.03986019,4,2,1,35,0,0
54590,383.075715,4,2,1,35,1,0
54590,-109.5293706,4,2,1,35,0,0
55739,423.648033,4,2,1,35,1,0
55739,-99.03986019,4,2,1,35,0,0
56162,412.011509,4,2,1,35,1,0
56162,-101.8370629,4,2,1,35,0,0
56987,403.695156,4,2,1,35,1,0
56987,-103.9349651,4,2,1,35,0,0
57390,406.429718,4,2,1,35,1,0
57390,-103.2356644,4,2,1,35,0,0
57797,398.33496,4,2,1,35,1,0
57797,-105.3335664,4,2,1,35,0,0
58195,400.997146,4,2,1,35,1,0
58195,-104.6342658,4,2,1,35,0,0
58997,403.695156,4,2,1,35,1,0
58997,-103.9349651,4,2,1,35,0,0
59401,406.429718,4,2,1,35,1,0
59401,-103.2356644,4,2,1,35,0,0
61026,400.997146,4,2,1,35,1,0
61026,-104.6342658,4,2,1,35,0,0
63031,409.20158,4,2,1,35,1,0
63031,-102.5363635,4,2,1,35,0,0
63441,403.695156,4,2,1,35,1,0
63441,-103.9349651,4,2,1,35,0,0
64652,400.997146,4,2,1,35,1,0
64652,-104.6342658,4,2,1,35,0,0
65053,412.011509,4,2,1,35,1,0
65053,-101.8370629,4,2,1,35,0,0
65877,398.33496,4,2,1,35,1,0
65877,-105.3335664,4,2,1,35,0,0
66275,406.429718,4,2,1,35,1,0
66275,-103.2356644,4,2,1,35,0,0
66681,403.695156,4,2,1,35,1,0
66681,-103.9349651,4,2,1,35,0,0
67085,406.429718,4,2,1,35,1,0
67085,-103.2356644,4,2,1,35,0,0
67492,403.695156,4,2,1,35,1,0
67492,-103.9349651,4,2,1,35,0,0
67895,395.707888,4,2,1,35,1,0
67895,-106.0328672,4,2,1,35,0,0
68291,412.011509,4,2,1,35,1,0
68291,-101.8370629,4,2,1,35,0,0
68703,409.20158,4,2,1,35,1,0
68703,-102.5363635,4,2,1,35,0,0
69521,406.429718,4,2,1,35,1,0
69521,-103.2356644,4,2,1,35,0,0
69928,403.695156,4,2,1,35,1,0
69928,-103.9349651,4,2,1,35,0,0
70735,417.748752,4,2,1,35,1,0
70735,-100.4384615,4,2,1,35,0,0
71153,398.33496,4,2,1,35,1,0
71153,-105.3335664,4,2,1,35,0,0
71551,403.695156,4,2,1,35,1,0
71551,-103.9349651,4,2,1,35,0,0
71955,412.011509,4,2,1,35,1,0
71955,-101.8370629,4,2,1,35,0,0
72367,406.429718,4,2,1,35,1,0
72367,-103.2356644,4,2,1,35,0,0
72773,412.011509,4,2,1,35,1,0
72773,-101.8370629,4,2,1,35,0,0
73185,400.997146,4,2,1,35,1,0
73185,-104.6342658,4,2,1,35,0,0
73586,406.429718,4,2,1,35,1,0
73586,-103.2356644,4,2,1,35,0,0
73993,400.997146,4,2,1,35,1,0
73993,-104.6342658,4,2,1,35,0,0
74394,403.695156,4,2,1,35,1,0
74394,-103.9349651,4,2,1,35,0,0
75201,406.429718,4,2,1,35,1,0
75201,-103.2356644,4,2,1,35,0,0
76421,390.556348,4,2,1,35,1,0
76421,-107.4314684,4,2,1,35,0,0
76811,414.860296,4,2,1,35,1,0
76811,-101.1377622,4,2,1,35,0,0
77226,398.33496,4,2,1,35,1,0
77226,-105.3335664,4,2,1,35,0,0
80811,400.997146,4,2,1,35,1,0
80811,-104.6342658,4,2,1,35,0,0
81613,398.33496,4,2,1,35,1,0
81613,-105.3335664,4,2,1,35,0,0
82011,432.816118,4,2,1,35,1,0
82011,-96.94195806,4,2,1,35,0,0
82444,385.537214,4,2,1,35,1,0
82444,-108.8300699,4,2,1,35,0,0
82830,420.677712,4,2,1,35,1,0
82830,-99.73916079,4,2,1,35,0,0
83250,403.695156,4,2,1,35,1,0
83250,-103.9349651,4,2,1,35,0,0
84058,412.011509,4,2,1,35,1,0
84058,-101.8370629,4,2,1,35,0,0
84470,398.33496,4,2,1,35,1,0
84470,-105.3335664,4,2,1,35,0,0
84868,417.748752,4,2,1,35,1,0
84868,-100.4384615,4,2,1,35,0,0
85286,390.556348,4,2,1,35,1,0
85286,-107.4314684,4,2,1,35,0,0
85676,412.011509,4,2,1,35,1,0
85676,-101.8370629,4,2,1,35,0,0
86088,403.695156,4,2,1,35,1,0
86088,-103.9349651,4,2,1,35,0,0
88914,400.997146,4,2,1,35,1,0
88914,-104.6342658,4,2,1,35,0,0
89716,406.429718,4,2,1,35,1,0
89716,-103.2356644,4,2,1,35,0,0
90123,398.33496,4,2,1,35,1,0
90123,-105.3335664,4,2,1,35,0,0
90521,412.011509,4,2,1,35,1,0
90521,-101.8370629,4,2,1,35,0,0
90933,400.997146,4,2,1,35,1,0
90933,-104.6342658,4,2,1,35,0,0
91334,403.695156,4,2,1,35,1,0
91334,-103.9349651,4,2,1,35,0,0
93352,398.33496,4,2,1,35,1,0
93352,-105.3335664,4,2,1,35,0,0
93751,400.997146,4,2,1,35,1,0
93751,-104.6342658,4,2,1,35,0,0
94152,383.075715,4,2,1,35,1,0
94152,-109.5293706,4,2,1,35,0,0
94535,393.115242,4,2,1,35,1,0
94535,-106.7321678,4,2,1,35,0,0
94928,442.38979,4,2,1,35,1,0
94928,-94.84405587,4,2,1,35,0,0
95370,409.20158,4,2,1,35,1,0
95370,-102.5363635,4,2,1,35,0,0
96598,398.33496,4,2,1,35,1,0
96598,-105.3335664,4,2,1,35,0,0
97395,403.695156,4,2,1,35,1,0
97395,-103.9349651,4,2,1,35,0,0
97798,412.011509,4,2,1,35,1,0
97798,-101.8370629,4,2,1,35,0,0
98210,403.695156,4,2,1,35,1,0
98210,-103.9349651,4,2,1,35,0,0
99018,395.707888,4,2,1,35,1,0
99018,-106.0328672,4,2,1,35,0,0
99413,400.997146,4,2,1,35,1,0
99413,-104.6342658,4,2,1,35,0,0
99814,403.695156,4,2,1,35,1,0
99814,-103.9349651,4,2,1,35,0,0
100218,409.20158,4,2,1,35,1,0
100218,-102.5363635,4,2,1,35,0,0
100627,395.707888,4,2,1,35,1,0
100627,-106.0328672,4,2,1,35,0,0
101023,420.677712,4,2,1,35,1,0
101023,-99.73916079,4,2,1,35,0,0
101444,400.997146,4,2,1,35,1,0
101444,-104.6342658,4,2,1,35,0,0
101845,403.695156,4,2,1,35,1,0
101845,-103.9349651,4,2,1,35,0,0
102652,414.860296,4,2,1,35,1,0
102652,-101.1377622,4,2,1,35,0,0
103067,400.997146,4,2,1,35,1,0
103067,-104.6342658,4,2,1,35,0,0
103869,403.695156,4,2,1,35,1,0
103869,-103.9349651,4,2,1,35,0,0
104273,406.429718,4,2,1,35,1,0
104273,-103.2356644,4,2,1,35,0,0
104679,400.997146,4,2,1,35,1,0
104679,-104.6342658,4,2,1,35,0,0
105481,398.33496,4,2,1,35,1,0
105481,-105.3335664,4,2,1,35,0,0
105879,400.997146,4,2,1,35,1,0
105879,-104.6342658,4,2,1,35,0,0
106280,395.707888,4,2,1,35,1,0
106280,-106.0328672,4,2,1,35,0,0
106676,378.245822,4,2,1,35,1,0
106676,-110.927972,4,2,1,35,0,0
107054,390.556348,4,2,1,35,1,0
107054,-107.4314684,4,2,1,35,0,0
107445,406.429718,4,2,1,35,1,0
107445,-103.2356644,4,2,1,35,0,0
107851,403.695156,4,2,1,35,1,0
107851,-103.9349651,4,2,1,35,0,0
108659,390.556348,4,2,1,35,1,0
108659,-107.4314684,4,2,1,35,0,0
109049,388.030551,4,2,1,35,1,0
109049,-108.1307692,4,2,1,35,0,0
109437,406.429718,4,2,1,35,1,0
109437,-103.2356644,4,2,1,35,0,0
109844,412.011509,4,2,1,35,1,0
109844,-101.8370629,4,2,1,35,0,0
110256,395.707888,4,2,1,35,1,0
110256,-106.0328672,4,2,1,35,0,0
110652,406.429718,4,2,1,35,1,0
110652,-103.2356644,4,2,1,35,0,0
111058,400.997146,4,2,1,35,1,0
111058,-104.6342658,4,2,1,35,0,0
111459,403.695156,4,2,1,35,1,0
111459,-103.9349651,4,2,1,35,0,0
111863,390.556348,4,2,1,35,1,0
111863,-107.4314684,4,2,1,35,0,0
112253,429.716316,4,2,1,35,1,0
112253,-97.64125865,4,2,1,35,0,0
112683,393.115242,4,2,1,35,1,0
112683,-106.7321678,4,2,1,35,0,0
113469,403.695156,4,2,1,35,1,0
113469,-103.9349651,4,2,1,35,0,0
114277,412.011509,4,2,1,35,1,0
114277,-101.8370629,4,2,1,35,0,0
115101,409.20158,4,2,1,35,1,0
115101,-102.5363635,4,2,1,35,0,0
115510,417.748752,4,2,1,35,1,0
115510,-100.4384615,4,2,1,35,0,0
115928,406.429718,4,2,1,35,1,0
115928,-103.2356644,4,2,1,35,0,0
116334,398.33496,4,2,1,35,1,0
116334,-105.3335664,4,2,1,35,0,0
117529,403.695156,4,2,1,35,1,0
117529,-103.9349651,4,2,1,35,0,0
118336,400.997146,4,2,1,35,1,0
118336,-104.6342658,4,2,1,35,0,0
119138,403.695156,4,2,1,35,1,0
119138,-103.9349651,4,2,1,35,0,0
119542,409.20158,4,2,1,35,1,0
119542,-102.5363635,4,2,1,35,0,0
119951,395.707888,4,2,1,35,1,0
119951,-106.0328672,4,2,1,35,0,0
120347,398.33496,4,2,1,35,1,0
120347,-105.3335664,4,2,1,35,0,0
120745,409.20158,4,2,1,35,1,0
120745,-102.5363635,4,2,1,35,0,0
121973,417.748752,4,2,1,35,1,0
121973,-100.4384615,4,2,1,35,0,0
122808,395.707888,4,2,1,35,1,0
122808,-106.0328672,4,2,1,35,0,0
123204,400.997146,4,2,1,35,1,0
123204,-104.6342658,4,2,1,35,0,0
123605,403.695156,4,2,1,35,1,0
123605,-103.9349651,4,2,1,35,0,0
124009,420.677712,4,2,1,35,1,0
124009,-99.73916079,4,2,1,35,0,0
124429,390.556348,4,2,1,35,1,0
124429,-107.4314684,4,2,1,35,0,0
124820,414.860296,4,2,1,35,1,0
124820,-101.1377622,4,2,1,35,0,0
125235,398.33496,4,2,1,35,1,0
125235,-105.3335664,4,2,1,35,0,0
125633,412.011509,4,2,1,35,1,0
125633,-101.8370629,4,2,1,35,0,0
126045,388.030551,4,2,1,35,1,0
126045,-108.1307692,4,2,1,35,0,0
126433,417.748752,4,2,1,35,1,0
126433,-100.4384615,4,2,1,35,0,0
126851,412.011509,4,2,1,35,1,0
126851,-101.8370629,4,2,1,35,0,0
127263,406.429718,4,2,1,35,1,0
127263,-103.2356644,4,2,1,35,0,0
129295,393.115242,4,2,1,35,1,0
129295,-106.7321678,4,2,1,35,0,0
129688,412.011509,4,2,1,35,1,0
129688,-101.8370629,4,2,1,35,0,0
130512,409.20158,4,2,1,35,1,0
130512,-102.5363635,4,2,1,35,0,0
130921,390.556348,4,2,1,35,1,0
130921,-107.4314684,4,2,1,35,0,0
131312,406.429718,4,2,1,35,1,0
131312,-103.2356644,4,2,1,35,0,0
132125,395.707888,4,2,1,35,1,0
132125,-106.0328672,4,2,1,35,0,0
132521,398.33496,4,2,1,35,1,0
132521,-105.3335664,4,2,1,35,0,0
133317,400.997146,4,2,1,35,1,0
133317,-104.6342658,4,2,1,35,0,0
133718,423.648033,4,2,1,35,1,0
133718,-99.03986019,4,2,1,35,0,0
134142,390.556348,4,2,1,35,1,0
134142,-107.4314684,4,2,1,35,0,0
134532,400.997146,4,2,1,35,1,0
134532,-104.6342658,4,2,1,35,0,0
134933,403.695156,4,2,1,35,1,0
134933,-103.9349651,4,2,1,35,0,0
135337,406.429718,4,2,1,35,1,0
135337,-103.2356644,4,2,1,35,0,0
135744,409.20158,4,2,1,35,1,0
135744,-102.5363635,4,2,1,35,0,0
136153,406.429718,4,2,1,35,1,0
136153,-103.2356644,4,2,1,35,0,0
136559,398.33496,4,2,1,35,1,0
136559,-105.3335664,4,2,1,35,0,0
137356,395.707888,4,2,1,35,1,0
137356,-106.0328672,4,2,1,35,0,0
137752,398.33496,4,2,1,35,1,0
137752,-105.3335664,4,2,1,35,0,0
138548,390.556348,4,2,1,35,1,0
138548,-107.4314684,4,2,1,35,0,0
138939,395.707888,4,2,1,35,1,0
138939,-106.0328672,4,2,1,35,0,0
139730,403.695156,4,2,1,35,1,0
139730,-103.9349651,4,2,1,35,0,0
140134,414.860296,4,2,1,35,1,0
140134,-101.1377622,4,2,1,35,0,0
140549,400.997146,4,2,1,35,1,0
140549,-104.6342658,4,2,1,35,0,0
141351,398.33496,4,2,1,35,1,0
141351,-105.3335664,4,2,1,35,0,0
142944,403.695156,4,2,1,35,1,0
142944,-103.9349651,4,2,1,35,0,0
143752,400.997146,4,2,1,35,1,0
143752,-104.6342658,4,2,1,35,0,0
145757,380.645448,4,2,1,35,1,0
145757,-110.2286713,4,2,1,35,0,0
146137,398.33496,4,2,1,35,1,0
146137,-105.3335664,4,2,1,35,0,0
146536,406.429718,4,2,1,35,1,0
146536,-103.2356644,4,2,1,35,0,0
146942,414.860296,4,2,1,35,1,0
146942,-101.1377622,4,2,1,35,0,0
147357,388.030551,4,2,1,35,1,0
147357,-108.1307692,4,2,1,35,0,0
147745,398.33496,4,2,1,35,1,0
147745,-105.3335664,4,2,1,35,0,0
148143,406.429718,4,2,1,35,1,0
148143,-103.2356644,4,2,1,35,0,0
148956,385.537214,4,2,1,35,1,0
148956,-108.8300699,4,2,1,35,0,0
149342,412.011509,4,2,1,35,1,0
149342,-101.8370629,4,2,1,35,0,0
149754,398.33496,4,2,1,35,1,0
149754,-105.3335664,4,2,1,35,0,0
150152,429.716316,4,2,1,35,1,0
150152,-97.64125865,4,2,1,35,0,0
150582,378.245822,4,2,1,35,1,0
150582,-110.927972,4,2,1,35,0,0
150960,395.707888,4,2,1,35,1,0
150960,-106.0328672,4,2,1,35,0,0
151751,393.115242,4,2,1,35,1,0
151751,-106.7321678,4,2,1,35,0,0
152144,403.695156,4,2,1,35,1,0
152144,-103.9349651,4,2,1,35,0,0
152548,393.115242,4,2,1,35,1,0
152548,-106.7321678,4,2,1,35,0,0
152941,395.707888,4,2,1,35,1,0
152941,-106.0328672,4,2,1,35,0,0
153337,406.429718,4,2,1,35,1,0
153337,-103.2356644,4,2,1,35,0,0
154150,395.707888,4,2,1,35,1,0
154150,-106.0328672,4,2,1,35,0,0
156524,393.115242,4,2,1,35,1,0
156524,-106.7321678,4,2,1,35,0,0
157310,398.33496,4,2,1,35,1,0
157310,-105.3335664,4,2,1,35,0,0
158107,395.707888,4,2,1,35,1,0
158107,-106.0328672,4,2,1,35,0,0
158503,390.556348,4,2,1,35,1,0
158503,-107.4314684,4,2,1,35,0,0
159284,403.695156,4,2,1,35,1,0
159284,-103.9349651,4,2,1,35,0,0
159687,406.429718,4,2,1,35,1,0
159687,-103.2356644,4,2,1,35,0,0
160500,403.695156,4,2,1,35,1,0
160500,-103.9349651,4,2,1,35,0,0
161711,409.20158,4,2,1,35,1,0
161711,-102.5363635,4,2,1,35,0,0
162530,398.33496,4,2,1,35,1,0
162530,-105.3335664,4,2,1,35,0,0
162928,385.537214,4,2,1,35,1,0
162928,-108.8300699,4,2,1,35,0,0
163314,400.997146,4,2,1,35,1,0
163314,-104.6342658,4,2,1,35,0,0
163715,403.695156,4,2,1,35,1,0
163715,-103.9349651,4,2,1,35,0,0
164522,393.115242,4,2,1,35,1,0
164522,-106.7321678,4,2,1,35,0,0
164915,398.33496,4,2,1,35,1,0
164915,-105.3335664,4,2,1,35,0,0
165314,406.429718,4,2,1,35,1,0
165314,-103.2356644,4,2,1,35,0,0
166126,390.556348,4,2,1,35,1,0
166126,-107.4314684,4,2,1,35,0,0
166517,406.429718,4,2,1,35,1,0
166517,-103.2356644,4,2,1,35,0,0
166923,409.20158,4,2,1,35,1,0
166923,-102.5363635,4,2,1,35,0,0
167333,420.677712,4,2,1,35,1,0
167333,-99.73916079,4,2,1,35,0,0
167753,406.429718,4,2,1,35,1,0
167753,-103.2356644,4,2,1,35,0,0
168160,393.115242,4,2,1,35,1,0
168160,-106.7321678,4,2,1,35,0,0
168553,398.33496,4,2,1,35,1,0
168553,-105.3335664,4,2,1,35,0,0
168951,409.20158,4,2,1,35,1,0
168951,-102.5363635,4,2,1,35,0,0
169360,393.115242,4,2,1,35,1,0
169360,-106.7321678,4,2,1,35,0,0
169753,400.997146,4,2,1,35,1,0
169753,-104.6342658,4,2,1,35,0,0
170154,403.695156,4,2,1,35,1,0
170154,-103.9349651,4,2,1,35,0,0
170558,400.997146,4,2,1,35,1,0
170558,-104.6342658,4,2,1,35,0,0
171761,398.33496,4,2,1,35,1,0
171761,-105.3335664,4,2,1,35,0,0
172159,420.677712,4,2,1,35,1,0
172159,-99.73916079,4,2,1,35,0,0
172580,412.011509,4,2,1,35,1,0
172580,-101.8370629,4,2,1,35,0,0
173404,395.707888,4,2,1,35,1,0
173404,-106.0328672,4,2,1,35,0,0
173800,398.33496,4,2,1,35,1,0
173800,-105.3335664,4,2,1,35,0,0
174198,412.011509,4,2,1,35,1,0
174198,-101.8370629,4,2,1,35,0,0
174610,388.030551,4,2,1,35,1,0
174610,-108.1307692,4,2,1,35,0,0
174998,414.860296,4,2,1,35,1,0
174998,-101.1377622,4,2,1,35,0,0
175413,400.997146,4,2,1,35,1,0
175413,-104.6342658,4,2,1,35,0,0
176616,403.695156,4,2,1,35,1,0
176616,-103.9349651,4,2,1,35,0,0
177827,383.075715,4,2,1,35,1,0
177827,-109.5293706,4,2,1,35,0,0
178210,395.707888,4,2,1,35,1,0
178210,-106.0328672,4,2,1,35,0,0
178606,400.997146,4,2,1,35,1,0
178606,-104.6342658,4,2,1,35,0,0
179809,414.860296,4,2,1,35,1,0
179809,-101.1377622,4,2,1,35,0,0
180639,409.20158,4,2,1,35,1,0
180639,-102.5363635,4,2,1,35,0,0
181048,393.115242,4,2,1,35,1,0
181048,-106.7321678,4,2,1,35,0,0
181441,409.20158,4,2,1,35,1,0
181441,-102.5363635,4,2,1,35,0,0
181850,412.011509,4,2,1,35,1,0
181850,-101.8370629,4,2,1,35,0,0
182674,395.707888,4,2,1,35,1,0
182674,-106.0328672,4,2,1,35,0,0
183466,400.997146,4,2,1,35,1,0
183466,-104.6342658,4,2,1,35,0,0
183867,393.115242,4,2,1,35,1,0
183867,-106.7321678,4,2,1,35,0,0
184260,395.707888,4,2,1,35,1,0
184260,-106.0328672,4,2,1,35,0,0
185051,414.860296,4,2,1,35,1,0
185051,-101.1377622,4,2,1,35,0,0
185466,406.429718,4,2,1,35,1,0
185466,-103.2356644,4,2,1,35,0,0
186279,400.997146,4,2,1,35,1,0
186279,-104.6342658,4,2,1,35,0,0
186680,403.695156,4,2,1,35,1,0
186680,-103.9349651,4,2,1,35,0,0
187084,400.997146,4,2,1,35,1,0
187084,-104.6342658,4,2,1,35,0,0
190292,403.695156,4,2,1,35,1,0
190292,-103.9349651,4,2,1,35,0,0
190695,390.556348,4,2,1,35,1,0
190695,-107.4314684,4,2,1,35,0,0
191086,412.011509,4,2,1,35,1,0
191086,-101.8370629,4,2,1,35,0,0
191498,400.997146,4,2,1,35,1,0
191498,-104.6342658,4,2,1,35,0,0
192300,398.33496,4,2,1,35,1,0
192300,-105.3335664,4,2,1,35,0,0
194291,400.997146,4,2,1,35,1,0
194291,-104.6342658,4,2,1,35,0,0
194692,393.115242,4,2,1,35,1,0
194692,-106.7321678,4,2,1,35,0,0
195086,406.429718,4,2,1,35,1,0
195086,-103.2356644,4,2,1,35,0,0
195492,398.33496,4,2,1,35,1,0
195492,-105.3335664,4,2,1,35,0,0
196289,406.429718,4,2,1,35,1,0
196289,-103.2356644,4,2,1,35,0,0
196695,395.707888,4,2,1,35,1,0
196695,-106.0328672,4,2,1,35,0,0
197091,400.997146,4,2,1,35,1,0
197091,-104.6342658,4,2,1,35,0,0
197893,435.960967,4,2,1,35,1,0
197893,-96.24265733,4,2,1,35,0,0
198329,395.707888,4,2,1,35,1,0
198329,-106.0328672,4,2,1,35,0,0
198724,403.695156,4,2,1,35,1,0
198724,-103.9349651,4,2,1,35,0,0
199128,406.429718,4,2,1,35,1,0
199128,-103.2356644,4,2,1,35,0,0
199535,417.748752,4,2,1,35,1,0
199535,-100.4384615,4,2,1,35,0,0
199952,395.707888,4,2,1,35,1,0
199952,-106.0328672,4,2,1,35,0,0
200348,403.695156,4,2,1,35,1,0
200348,-103.9349651,4,2,1,35,0,0
200752,406.429718,4,2,1,35,1,0
200752,-103.2356644,4,2,1,35,0,0
201158,414.860296,4,2,1,35,1,0
201158,-101.1377622,4,2,1,35,0,0
201573,398.33496,4,2,1,35,1,0
201573,-105.3335664,4,2,1,35,0,0
201971,403.695156,4,2,1,35,1,0
201971,-103.9349651,4,2,1,35,0,0
202779,412.011509,4,2,1,35,1,0
202779,-101.8370629,4,2,1,35,0,0
203191,406.429718,4,2,1,35,1,0
203191,-103.2356644,4,2,1,35,0,0
203597,390.556348,4,2,1,35,1,0
203597,-107.4314684,4,2,1,35,0,0
204378,409.20158,4,2,1,35,1,0
204378,-102.5363635,4,2,1,35,0,0
204788,406.429718,4,2,1,35,1,0
204788,-103.2356644,4,2,1,35,0,0
205194,403.695156,4,2,1,35,1,0
205194,-103.9349651,4,2,1,35,0,0
206809,393.115242,4,2,1,35,1,0
206809,-106.7321678,4,2,1,35,0,0
207202,406.429718,4,2,1,35,1,0
207202,-103.2356644,4,2,1,35,0,0
207608,403.695156,4,2,1,35,1,0
207608,-103.9349651,4,2,1,35,0,0
208012,412.011509,4,2,1,35,1,0
208012,-101.8370629,4,2,1,35,0,0
208836,360.0857,4,2,1,35,1,0
208836,-116.5223778,4,2,1,35,0,0
209196,324.979553,4,2,1,35,1,0
209196,-129.1097904,4,2,1,35,0,0
209521,303.602241,4,2,1,35,1,0
209521,-138.2006991,4,2,1,35,0,0
209825,318.088079,4,2,1,35,1,0
209825,-131.9069928,4,2,1,35,0,0
210143,269.509089,4,2,1,35,1,0
210143,-155.6832169,4,2,1,35,0,0
210412,409.20158,4,2,1,35,1,0
210412,-102.5363635,4,2,1,35,0,0
210821,429.716316,4,2,1,35,1,0
210821,-97.64125865,4,2,1,35,0,0
211681,417.748752,4,2,1,35,1,0
211681,-100.4384615,4,2,1,35,0,0
212516,439.151851,4,2,1,35,1,0
212516,-95.54335673,4,2,1,35,0,0
212956,414.860296,4,2,1,35,1,0
212956,-101.1377622,4,2,1,35,0,0
213785,432.816118,4,2,1,35,1,0
213785,-96.94195806,4,2,1,35,0,0
214218,426.660599,4,2,1,35,1,0
214218,-98.34055935,4,2,1,35,0,0
215071,406.429718,4,2,1,35,1,0
215071,-103.2356644,4,2,1,35,0,0
215884,414.860296,4,2,1,35,1,0
215884,-101.1377622,4,2,1,35,0,0
217129,406.429718,4,2,1,35,1,0
217129,-103.2356644,4,2,1,35,0,0
217535,414.860296,4,2,1,35,1,0
217535,-101.1377622,4,2,1,35,0,0
217950,412.011509,4,2,1,35,1,0
217950,-101.8370629,4,2,1,35,0,0
218774,393.115242,4,2,1,35,1,0
218774,-106.7321678,4,2,1,35,0,0
219167,420.677712,4,2,1,35,1,0
219167,-99.73916079,4,2,1,35,0,0
219588,390.556348,4,2,1,35,1,0
219588,-107.4314684,4,2,1,35,0,0
219979,426.660599,4,2,1,35,1,0
219979,-98.34055935,4,2,1,35,0,0
220405,420.677712,4,2,1,35,1,0
220405,-99.73916079,4,2,1,35,0,0
220826,417.748752,4,2,1,35,1,0
220826,-100.4384615,4,2,1,35,0,0
221244,414.860296,4,2,1,35,1,0
221244,-101.1377622,4,2,1,35,0,0
221658,412.011509,4,2,1,35,1,0
221658,-101.8370629,4,2,1,35,0,0
224543,417.748752,4,2,1,35,1,0
224543,-100.4384615,4,2,1,35,0,0
224960,420.677712,4,2,1,35,1,0
224960,-99.73916079,4,2,1,35,0,0
226222,406.429718,4,2,1,35,1,0
226222,-103.2356644,4,2,1,35,0,0
226629,409.20158,4,2,1,35,1,0
226629,-102.5363635,4,2,1,35,0,0
227447,420.677712,4,2,1,35,1,0
227447,-99.73916079,4,2,1,35,0,0
227868,417.748752,4,2,1,35,1,0
227868,-100.4384615,4,2,1,35,0,0
228703,420.677712,4,2,1,35,1,0
228703,-99.73916079,4,2,1,35,0,0
229545,417.748752,4,2,1,35,1,0
229545,-100.4384615,4,2,1,35,0,0
231216,414.860296,4,2,1,35,1,0
231216,-101.1377622,4,2,1,35,0,0
232045,420.677712,4,2,1,35,1,0
232045,-99.73916079,4,2,1,35,0,0
232887,414.860296,4,2,1,35,1,0
232887,-101.1377622,4,2,1,35,0,0
233302,423.648033,4,2,1,35,1,0
233302,-99.03986019,4,2,1,35,0,0
233725,481.436607,4,2,1,35,1,0
233725,-87.15174822,4,2,1,35,0,0
234207,398.33496,4,2,1,35,1,0
234207,-105.3335664,4,2,1,35,0,0
234605,445.67583,4,2,1,35,1,0
234605,-94.1447553,4,2,1,35,0,0
235496,432.816118,4,2,1,35,1,0
235496,-96.94195806,4,2,1,35,0,0
236362,417.748752,4,2,1,35,1,0
236362,-100.4384615,4,2,1,35,0,0
236780,429.716316,4,2,1,35,1,0
236780,-97.64125865,4,2,1,35,0,0
237639,442.38979,4,2,1,35,1,0
237639,-94.84405587,4,2,1,35,0,0
238524,435.960967,4,2,1,35,1,0
238524,-96.24265733,4,2,1,35,0,0
238960,432.816118,4,2,1,35,1,0
238960,-96.94195806,4,2,1,35,0,0
241124,429.716316,4,2,1,35,1,0
241124,-97.64125865,4,2,1,35,0,0
241554,439.151851,4,2,1,35,1,0
241554,-95.54335673,4,2,1,35,0,0
241993,426.660599,4,2,1,35,1,0
241993,-98.34055935,4,2,1,35,0,0
242420,432.816118,4,2,1,35,1,0
242420,-96.94195806,4,2,1,35,0,0
243718,420.677712,4,2,1,35,1,0
243718,-99.73916079,4,2,1,35,0,0
245401,406.429718,4,2,1,35,1,0
245401,-103.2356644,4,2,1,35,0,0
246214,423.648033,4,2,1,35,1,0
246214,-99.03986019,4,2,1,35,0,0
247485,388.030551,4,2,1,35,1,0
247485,-108.1307692,4,2,1,35,0,0
247873,429.716316,4,2,1,35,1,0
247873,-97.64125865,4,2,1,35,0,0
248732,420.677712,4,2,1,35,1,0
248732,-99.73916079,4,2,1,35,0,0
249573,412.011509,4,2,1,35,1,0
249573,-101.8370629,4,2,1,35,0,0
249985,409.20158,4,2,1,35,1,0
249985,-102.5363635,4,2,1,35,0,0
250395,412.011509,4,2,1,35,1,0
250395,-101.8370629,4,2,1,35,0,0
250807,423.648033,4,2,1,35,1,0
250807,-99.03986019,4,2,1,35,0,0
251654,414.860296,4,2,1,35,1,0
251654,-101.1377622,4,2,1,35,0,0
252069,423.648033,4,2,1,35,1,0
252069,-99.03986019,4,2,1,35,0,0
253340,400.997146,4,2,1,35,1,0
253340,-104.6342658,4,2,1,35,0,0
253741,432.816118,4,2,1,35,1,0
253741,-96.94195806,4,2,1,35,0,0
254173,400.997146,4,2,1,35,1,0
254173,-104.6342658,4,2,1,35,0,0
254574,423.648033,4,2,1,35,1,0
254574,-99.03986019,4,2,1,35,0,0
255422,417.748752,4,2,1,35,1,0
255422,-100.4384615,4,2,1,35,0,0
255840,406.429718,4,2,1,35,1,0
255840,-103.2356644,4,2,1,35,0,0
256246,426.660599,4,2,1,35,1,0
256246,-98.34055935,4,2,1,35,0,0
256673,417.748752,4,2,1,35,1,0
256673,-100.4384615,4,2,1,35,0,0
257090,420.677712,4,2,1,35,1,0
257090,-99.73916079,4,2,1,35,0,0
259194,412.011509,4,2,1,35,1,0
259194,-101.8370629,4,2,1,35,0,0
259606,409.20158,4,2,1,35,1,0
259606,-102.5363635,4,2,1,35,0,0
260424,414.860296,4,2,1,35,1,0
260424,-101.1377622,4,2,1,35,0,0
261254,426.660599,4,2,1,35,1,0
261254,-98.34055935,4,2,1,35,0,0
261681,423.648033,4,2,1,35,1,0
261681,-99.03986019,4,2,1,35,0,0
262528,417.748752,4,2,1,35,1,0
262528,-100.4384615,4,2,1,35,0,0
262946,426.660599,4,2,1,35,1,0
262946,-98.34055935,4,2,1,35,0,0
263372,420.677712,4,2,1,35,1,0
263372,-99.73916079,4,2,1,35,0,0
263793,435.960967,4,2,1,35,1,0
263793,-96.24265733,4,2,1,35,0,0
264229,426.660599,4,2,1,35,1,0
264229,-98.34055935,4,2,1,35,0,0
264656,442.38979,4,2,1,35,1,0
264656,-94.84405587,4,2,1,35,0,0
266425,432.816118,4,2,1,35,1,0
266425,-96.94195806,4,2,1,35,0,0
266858,429.716316,4,2,1,35,1,0
266858,-97.64125865,4,2,1,35,0,0
267288,435.960967,4,2,1,35,1,0
267288,-96.24265733,4,2,1,35,0,0
269903,439.151851,4,2,1,35,1,0
269903,-95.54335673,4,2,1,35,0,0
270343,435.960967,4,2,1,35,1,0
270343,-96.24265733,4,2,1,35,0,0
271214,445.67583,4,2,1,35,1,0
271214,-94.1447553,4,2,1,35,0,0
272551,432.816118,4,2,1,35,1,0
272551,-96.94195806,4,2,1,35,0,0
272984,452.396571,4,2,1,35,1,0
272984,-92.74615381,4,2,1,35,0,0
273437,432.816118,4,2,1,35,1,0
273437,-96.94195806,4,2,1,35,0,0
274302,442.38979,4,2,1,35,1,0
274302,-94.84405587,4,2,1,35,0,0
274745,435.960967,4,2,1,35,1,0
274745,-96.24265733,4,2,1,35,0,0
275617,429.716316,4,2,1,35,1,0
275617,-97.64125865,4,2,1,35,0,0
276046,439.151851,4,2,1,35,1,0
276046,-95.54335673,4,2,1,35,0,0
276486,429.716316,4,2,1,35,1,0
276486,-97.64125865,4,2,1,35,0,0
276915,442.38979,4,2,1,35,1,0
276915,-94.84405587,4,2,1,35,0,0
277800,429.716316,4,2,1,35,1,0
277800,-97.64125865,4,2,1,35,0,0
278230,439.151851,4,2,1,35,1,0
278230,-95.54335673,4,2,1,35,0,0
279108,449.011053,4,2,1,35,1,0
279108,-93.44545458,4,2,1,35,0,0
279557,439.151851,4,2,1,35,1,0
279557,-95.54335673,4,2,1,35,0,0
279996,435.960967,4,2,1,35,1,0
279996,-96.24265733,4,2,1,35,0,0
281304,445.67583,4,2,1,35,1,0
281304,-94.1447553,4,2,1,35,0,0
281750,442.38979,4,2,1,35,1,0
281750,-94.84405587,4,2,1,35,0,0
282192,435.960967,4,2,1,35,1,0
282192,-96.24265733,4,2,1,35,0,0
283064,445.67583,4,2,1,35,1,0
283064,-94.1447553,4,2,1,35,0,0
285292,432.816118,4,2,1,35,1,0
285292,-96.94195806,4,2,1,35,0,0
285725,445.67583,4,2,1,35,1,0
285725,-94.1447553,4,2,1,35,0,0
286617,439.151851,4,2,1,35,1,0
286617,-95.54335673,4,2,1,35,0,0
289252,432.816118,4,2,1,35,1,0
289252,-96.94195806,4,2,1,35,0,0
289684,435.960967,4,2,1,35,1,0
289684,-96.24265733,4,2,1,35,0,0
290120,442.38979,4,2,1,35,1,0
290120,-94.84405587,4,2,1,35,0,0
292332,435.960967,4,2,1,35,1,0
292332,-96.24265733,4,2,1,35,0,0
292768,449.011053,4,2,1,35,1,0
292768,-93.44545458,4,2,1,35,0,0
293666,445.67583,4,2,1,35,1,0
293666,-94.1447553,4,2,1,35,0,0
294112,459.323111,4,2,1,35,1,0
294112,-91.34755242,4,2,1,35,0,0
295031,412.011509,4,2,1,35,1,0
295031,-101.8370629,4,2,1,35,0,0
295443,442.38979,4,2,1,35,1,0
295443,-94.84405587,4,2,1,35,0,0
296327,435.960967,4,2,1,35,1,0
296327,-96.24265733,4,2,1,35,0,0
297199,449.011053,4,2,1,35,1,0
297199,-93.44545458,4,2,1,35,0,0
298097,439.151851,4,2,1,35,1,0
298097,-95.54335673,4,2,1,35,0,0
298536,442.38979,4,2,1,35,1,0
298536,-94.84405587,4,2,1,35,0,0
298979,452.396571,4,2,1,35,1,0
298979,-92.74615381,4,2,1,35,0,0
299884,439.151851,4,2,1,35,1,0
299884,-95.54335673,4,2,1,35,0,0
300762,445.67583,4,2,1,35,1,0
300762,-94.1447553,4,2,1,35,0,0
301653,442.38979,4,2,1,35,1,0
301653,-94.84405587,4,2,1,35,0,0
303865,445.67583,4,2,1,35,1,0
303865,-94.1447553,4,2,1,35,0,0
304311,442.38979,4,2,1,35,1,0
304311,-94.84405587,4,2,1,35,0,0
305638,412.011509,4,2,1,35,1,0
305638,-101.8370629,4,2,1,35,0,0
306050,455.83353,4,2,1,35,1,0
306050,-92.04685307,4,2,1,35,0,0
306506,439.151851,4,2,1,35,1,0
306506,-95.54335673,4,2,1,35,0,0
306945,442.38979,4,2,1,35,1,0
306945,-94.84405587,4,2,1,35,0,0
308272,429.716316,4,2,1,35,1,0
308272,-97.64125865,4,2,1,35,0,0
308702,435.960967,4,2,1,35,1,0
308702,-96.24265733,4,2,1,35,0,0
310010,432.816118,4,2,1,35,1,0
310010,-96.94195806,4,2,1,35,0,0
310875,445.67583,4,2,1,35,1,0
310875,-94.1447553,4,2,1,35,0,0
311767,435.960967,4,2,1,35,1,0
311767,-96.24265733,4,2,1,35,0,0
312639,423.648033,4,2,1,35,1,0
312639,-99.03986019,4,2,1,35,0,0
313062,432.816118,4,2,1,35,1,0
313062,-96.94195806,4,2,1,35,0,0
313495,449.011053,4,2,1,35,1,0
313495,-93.44545458,4,2,1,35,0,0
313944,445.67583,4,2,1,35,1,0
313944,-94.1447553,4,2,1,35,0,0
314390,420.677712,4,2,1,35,1,0
314390,-99.73916079,4,2,1,35,0,0
314811,442.38979,4,2,1,35,1,0
314811,-94.84405587,4,2,1,35,0,0
315695,439.151851,4,2,1,35,1,0
315695,-95.54335673,4,2,1,35,0,0
316135,432.816118,4,2,1,35,1,0
316135,-96.94195806,4,2,1,35,0,0
316567,435.960967,4,2,1,35,1,0
316567,-96.24265733,4,2,1,35,0,0
317439,442.38979,4,2,1,35,1,0
317439,-94.84405587,4,2,1,35,0,0
317882,423.648033,4,2,1,35,1,0
317882,-99.03986019,4,2,1,35,0,0
318305,442.38979,4,2,1,35,1,0
318305,-94.84405587,4,2,1,35,0,0
319190,432.816118,4,2,1,35,1,0
319190,-96.94195806,4,2,1,35,0,0
319623,429.716316,4,2,1,35,1,0
319623,-97.64125865,4,2,1,35,0,0
320053,439.151851,4,2,1,35,1,0
320053,-95.54335673,4,2,1,35,0,0
321809,442.38979,4,2,1,35,1,0
321809,-94.84405587,4,2,1,35,0,0
322694,439.151851,4,2,1,35,1,0
322694,-95.54335673,4,2,1,35,0,0
324890,432.816118,4,2,1,35,1,0
324890,-96.94195806,4,2,1,35,0,0
325323,435.960967,4,2,1,35,1,0
325323,-96.24265733,4,2,1,35,0,0
328374,432.816118,4,2,1,35,1,0
328374,-96.94195806,4,2,1,35,0,0
329240,442.38979,4,2,1,35,1,0
329240,-94.84405587,4,2,1,35,0,0
329682,435.960967,4,2,1,35,1,0
329682,-96.24265733,4,2,1,35,0,0
330554,432.816118,4,2,1,35,1,0
330554,-96.94195806,4,2,1,35,0,0
331420,435.960967,4,2,1,35,1,0
331420,-96.24265733,4,2,1,35,0,0
332292,442.38979,4,2,1,35,1,0
332292,-94.84405587,4,2,1,35,0,0
333177,439.151851,4,2,1,35,1,0
333177,-95.54335673,4,2,1,35,0,0
334933,462.866532,4,2,1,35,1,0
334933,-90.64825183,4,2,1,35,0,0
335396,429.716316,4,2,1,35,1,0
335396,-97.64125865,4,2,1,35,0,0
336255,439.151851,4,2,1,35,1,0
336255,-95.54335673,4,2,1,35,0,0
336695,435.960967,4,2,1,35,1,0
336695,-96.24265733,4,2,1,35,0,0
337567,426.660599,4,2,1,35,1,0
337567,-98.34055935,4,2,1,35,0,0
338420,439.151851,4,2,1,35,1,0
338420,-95.54335673,4,2,1,35,0,0
339298,432.816118,4,2,1,35,1,0
339298,-96.94195806,4,2,1,35,0,0
340164,435.960967,4,2,1,35,1,0
340164,-96.24265733,4,2,1,35,0,0
343216,439.151851,4,2,1,35,1,0
343216,-95.54335673,4,2,1,35,0,0
343655,435.960967,4,2,1,35,1,0
343655,-96.24265733,4,2,1,35,0,0
344527,439.151851,4,2,1,35,1,0
344527,-95.54335673,4,2,1,35,0,0
348040,435.960967,4,2,1,35,1,0
348040,-96.24265733,4,2,1,35,0,0
348912,426.660599,4,2,1,35,1,0
348912,-98.34055935,4,2,1,35,0,0
349765,429.716316,4,2,1,35,1,0
349765,-97.64125865,4,2,1,35,0,0
350195,445.67583,4,2,1,35,1,0
350195,-94.1447553,4,2,1,35,0,0
350640,429.716316,4,2,1,35,1,0
350640,-97.64125865,4,2,1,35,0,0
351500,435.960967,4,2,1,35,1,0
351500,-96.24265733,4,2,1,35,0,0
353680,445.67583,4,2,1,35,1,0
353680,-94.1447553,4,2,1,35,0,0
354125,429.716316,4,2,1,35,1,0
354125,-97.64125865,4,2,1,35,0,0
356704,435.960967,4,2,1,35,1,0
356704,-96.24265733,4,2,1,35,0,0
357576,429.716316,4,2,1,35,1,0
357576,-97.64125865,4,2,1,35,0,0
358865,432.816118,4,2,1,35,1,0
358865,-96.94195806,4,2,1,35,0,0
359298,429.716316,4,2,1,35,1,0
359298,-97.64125865,4,2,1,35,0,0
360587,423.648033,4,2,1,35,1,0
360587,-99.03986019,4,2,1,35,0,0
361434,417.748752,4,2,1,35,1,0
361434,-100.4384615,4,2,1,35,0,0
362687,412.011509,4,2,1,35,1,0
362687,-101.8370629,4,2,1,35,0,0
363099,417.748752,4,2,1,35,1,0
363099,-100.4384615,4,2,1,35,0,0
363517,423.648033,4,2,1,35,1,0
363517,-99.03986019,4,2,1,35,0,0
366906,426.660599,4,2,1,35,1,0
366906,-98.34055935,4,2,1,35,0,0
367760,423.648033,4,2,1,35,1,0
367760,-99.03986019,4,2,1,35,0,0
368183,417.748752,4,2,1,35,1,0
368183,-100.4384615,4,2,1,35,0,0
369019,426.660599,4,2,1,35,1,0
369019,-98.34055935,4,2,1,35,0,0
370299,420.677712,4,2,1,35,1,0
370299,-99.73916079,4,2,1,35,0,0
371140,426.660599,4,2,1,35,1,0
371140,-98.34055935,4,2,1,35,0,0
374127,417.748752,4,2,1,35,1,0
374127,-100.4384615,4,2,1,35,0,0
374544,420.677712,4,2,1,35,1,0
374544,-99.73916079,4,2,1,35,0,0
375386,426.660599,4,2,1,35,1,0
375386,-98.34055935,4,2,1,35,0,0
376239,417.748752,4,2,1,35,1,0
376239,-100.4384615,4,2,1,35,0,0
377075,426.660599,4,2,1,35,1,0
377075,-98.34055935,4,2,1,35,0,0
380061,423.648033,4,2,1,35,1,0
380061,-99.03986019,4,2,1,35,0,0
380485,420.677712,4,2,1,35,1,0
380485,-99.73916079,4,2,1,35,0,0
380905,417.748752,4,2,1,35,1,0
380905,-100.4384615,4,2,1,35,0,0
381323,432.816118,4,2,1,35,1,0
381323,-96.94195806,4,2,1,35,0,0
382189,417.748752,4,2,1,35,1,0
382189,-100.4384615,4,2,1,35,0,0
382607,429.716316,4,2,1,35,1,0
382607,-97.64125865,4,2,1,35,0,0
383466,420.677712,4,2,1,35,1,0
383466,-99.73916079,4,2,1,35,0,0
383887,423.648033,4,2,1,35,1,0
383887,-99.03986019,4,2,1,35,0,0
384734,429.716316,4,2,1,35,1,0
384734,-97.64125865,4,2,1,35,0,0
386453,420.677712,4,2,1,35,1,0
386453,-99.73916079,4,2,1,35,0,0
386874,423.648033,4,2,1,35,1,0
386874,-99.03986019,4,2,1,35,0,0
387721,420.677712,4,2,1,35,1,0
387721,-99.73916079,4,2,1,35,0,0
389404,417.748752,4,2,1,35,1,0
389404,-100.4384615,4,2,1,35,0,0
390657,429.716316,4,2,1,35,1,0
390657,-97.64125865,4,2,1,35,0,0
391946,426.660599,4,2,1,35,1,0
391946,-98.34055935,4,2,1,35,0,0
392373,420.677712,4,2,1,35,1,0
392373,-99.73916079,4,2,1,35,0,0
392793,423.648033,4,2,1,35,1,0
392793,-99.03986019,4,2,1,35,0,0
393641,420.677712,4,2,1,35,1,0
393641,-99.73916079,4,2,1,35,0,0
394061,423.648033,4,2,1,35,1,0
394061,-99.03986019,4,2,1,35,0,0
394485,435.960967,4,2,1,35,1,0
394485,-96.24265733,4,2,1,35,0,0
394921,423.648033,4,2,1,35,1,0
394921,-99.03986019,4,2,1,35,0,0
395768,420.677712,4,2,1,35,1,0
395768,-99.73916079,4,2,1,35,0,0
396189,429.716316,4,2,1,35,1,0
396189,-97.64125865,4,2,1,35,0,0
397048,409.20158,4,2,1,35,1,0
397048,-102.5363635,4,2,1,35,0,0
397458,423.648033,4,2,1,35,1,0
397458,-99.03986019,4,2,1,35,0,0
399576,429.716316,4,2,1,35,1,0
399576,-97.64125865,4,2,1,35,0,0
400435,420.677712,4,2,1,35,1,0
400435,-99.73916079,4,2,1,35,0,0
401697,417.748752,4,2,1,35,1,0
401697,-100.4384615,4,2,1,35,0,0
402115,420.677712,4,2,1,35,1,0
402115,-99.73916079,4,2,1,35,0,0
402536,417.748752,4,2,1,35,1,0
402536,-100.4384615,4,2,1,35,0,0
403371,423.648033,4,2,1,35,1,0
403371,-99.03986019,4,2,1,35,0,0
404218,439.151851,4,2,1,35,1,0
404218,-95.54335673,4,2,1,35,0,0
404658,420.677712,4,2,1,35,1,0
404658,-99.73916079,4,2,1,35,0,0
407182,423.648033,4,2,1,35,1,0
407182,-99.03986019,4,2,1,35,0,0
407605,420.677712,4,2,1,35,1,0
407605,-99.73916079,4,2,1,35,0,0
408447,426.660599,4,2,1,35,1,0
408447,-98.34055935,4,2,1,35,0,0
409300,412.011509,4,2,1,35,1,0
409300,-101.8370629,4,2,1,35,0,0
410124,429.716316,4,2,1,35,1,0
410124,-97.64125865,4,2,1,35,0,0
410983,409.20158,4,2,1,35,1,0
410983,-102.5363635,4,2,1,35,0,0
411597,462.866532,4,2,1,35,1,0
411597,-90.64825183,4,2,1,35,0,0
411829,409.20158,4,2,1,35,1,0
411829,-102.5363635,4,2,1,35,0,0
412238,414.860296,4,2,1,35,1,0
412238,-101.1377622,4,2,1,35,0,0
413068,439.151851,4,2,1,35,1,0
413068,-95.54335673,4,2,1,35,0,0
413507,412.011509,4,2,1,35,1,0
413507,-101.8370629,4,2,1,35,0,0
414331,417.748752,4,2,1,35,1,0
414331,-100.4384615,4,2,1,35,0,0
416420,423.648033,4,2,1,35,1,0
416420,-99.03986019,4,2,1,35,0,0
417690,420.677712,4,2,1,35,1,0
417690,-99.73916079,4,2,1,35,0,0
418952,423.648033,4,2,1,35,1,0
418952,-99.03986019,4,2,1,35,0,0
421071,420.677712,4,2,1,35,1,0
421071,-99.73916079,4,2,1,35,0,0
421912,412.011509,4,2,1,35,1,0
421912,-101.8370629,4,2,1,35,0,0
422324,409.20158,4,2,1,35,1,0
422324,-102.5363635,4,2,1,35,0,0
422733,412.011509,4,2,1,35,1,0
422733,-101.8370629,4,2,1,35,0,0
423145,420.677712,4,2,1,35,1,0
423145,-99.73916079,4,2,1,35,0,0
423987,417.748752,4,2,1,35,1,0
423987,-100.4384615,4,2,1,35,0,0
424822,420.677712,4,2,1,35,1,0
424822,-99.73916079,4,2,1,35,0,0
425664,414.860296,4,2,1,35,1,0
425664,-101.1377622,4,2,1,35,0,0
426078,417.748752,4,2,1,35,1,0
426078,-100.4384615,4,2,1,35,0,0
426496,426.660599,4,2,1,35,1,0
426496,-98.34055935,4,2,1,35,0,0
427136,420.677712,4,2,1,35,1,0
427136,-99.73916079,4,2,1,35,0,0
427767,403.695156,4,2,1,35,1,0
427767,-103.9349651,4,2,1,35,0,0
428575,420.677712,4,2,1,35,1,0
428575,-99.73916079,4,2,1,35,0,0
428995,409.20158,4,2,1,35,1,0
428995,-102.5363635,4,2,1,35,0,0
430223,417.748752,4,2,1,35,1,0
430223,-100.4384615,4,2,1,35,0,0
431476,429.716316,4,2,1,35,1,0
431476,-97.64125865,4,2,1,35,0,0
431906,412.011509,4,2,1,35,1,0
431906,-101.8370629,4,2,1,35,0,0
432318,414.860296,4,2,1,35,1,0
432318,-101.1377622,4,2,1,35,0,0
433147,417.748752,4,2,1,35,1,0
433147,-100.4384615,4,2,1,35,0,0
434818,435.960967,4,2,1,35,1,0
434818,-96.24265733,4,2,1,35,0,0
435254,409.20158,4,2,1,35,1,0
435254,-102.5363635,4,2,1,35,0,0
436891,432.816118,4,2,1,35,1,0
436891,-96.94195806,4,2,1,35,0,0
437324,420.677712,4,2,1,35,1,0
437324,-99.73916079,4,2,1,35,0,0
439848,412.011509,4,2,1,35,1,0
439848,-101.8370629,4,2,1,35,0,0
440672,417.748752,4,2,1,35,1,0
440672,-100.4384615,4,2,1,35,0,0
441508,406.429718,4,2,1,35,1,0
441508,-103.2356644,4,2,1,35,0,0
441914,423.648033,4,2,1,35,1,0
441914,-99.03986019,4,2,1,35,0,0
443185,409.20158,4,2,1,35,1,0
443185,-102.5363635,4,2,1,35,0,0
443594,426.660599,4,2,1,35,1,0
443594,-98.34055935,4,2,1,35,0,0
444448,414.860296,4,2,1,35,1,0
444448,-101.1377622,4,2,1,35,0,0
445277,429.716316,4,2,1,35,1,0
445277,-97.64125865,4,2,1,35,0,0
446137,417.748752,4,2,1,35,1,0
446137,-100.4384615,4,2,1,35,0,0
447390,426.660599,4,2,1,35,1,0
447390,-98.34055935,4,2,1,35,0,0
448243,429.716316,4,2,1,35,1,0
448243,-97.64125865,4,2,1,35,0,0
449103,423.648033,4,2,1,35,1,0
449103,-99.03986019,4,2,1,35,0,0
450374,420.677712,4,2,1,35,1,0
450374,-99.73916079,4,2,1,35,0,0
451636,439.151851,4,2,1,35,1,0
451636,-95.54335673,4,2,1,35,0,0
452075,423.648033,4,2,1,35,1,0
452075,-99.03986019,4,2,1,35,0,0
453769,414.860296,4,2,1,35,1,0
453769,-101.1377622,4,2,1,35,0,0
454184,426.660599,4,2,1,35,1,0
454184,-98.34055935,4,2,1,35,0,0
455038,406.429718,4,2,1,35,1,0
455038,-103.2356644,4,2,1,35,0,0
455444,429.716316,4,2,1,35,1,0
455444,-97.64125865,4,2,1,35,0,0
455874,423.648033,4,2,1,35,1,0
455874,-99.03986019,4,2,1,35,0,0
456721,409.20158,4,2,1,35,1,0
456721,-102.5363635,4,2,1,35,0,0
457130,432.816118,4,2,1,35,1,0
457130,-96.94195806,4,2,1,35,0,0
457563,414.860296,4,2,1,35,1,0
457563,-101.1377622,4,2,1,35,0,0
458393,412.011509,4,2,1,35,1,0
458393,-101.8370629,4,2,1,35,0,0
459217,435.960967,4,2,1,35,1,0
459217,-96.24265733,4,2,1,35,0,0
460089,420.677712,4,2,1,35,1,0
460089,-99.73916079,4,2,1,35,0,0
463875,435.960967,4,2,1,35,1,0
463875,-96.24265733,4,2,1,35,0,0
464747,420.677712,4,2,1,35,1,0
464747,-99.73916079,4,2,1,35,0,0
465588,426.660599,4,2,1,35,1,0
465588,-98.34055935,4,2,1,35,0,0
466441,420.677712,4,2,1,35,1,0
466441,-99.73916079,4,2,1,35,0,0
467283,429.716316,4,2,1,35,1,0
467283,-97.64125865,4,2,1,35,0,0
468142,414.860296,4,2,1,35,1,0
468142,-101.1377622,4,2,1,35,0,0
468972,423.648033,4,2,1,35,1,0
468972,-99.03986019,4,2,1,35,0,0
469819,417.748752,4,2,1,35,1,0
469819,-100.4384615,4,2,1,35,0,0
470655,406.429718,4,2,1,35,1,0
470655,-103.2356644,4,2,1,35,0,0
471468,429.716316,4,2,1,35,1,0
471468,-97.64125865,4,2,1,35,0,0
471897,445.67583,4,2,1,35,1,0
471897,-94.1447553,4,2,1,35,0,0
472343,409.20158,4,2,1,35,1,0
472343,-102.5363635,4,2,1,35,0,0
472752,423.648033,4,2,1,35,1,0
472752,-99.03986019,4,2,1,35,0,0
473176,420.677712,4,2,1,35,1,0
473176,-99.73916079,4,2,1,35,0,0
474859,412.011509,4,2,1,35,1,0
474859,-101.8370629,4,2,1,35,0,0
475683,426.660599,4,2,1,35,1,0
475683,-98.34055935,4,2,1,35,0,0
476536,420.677712,4,2,1,35,1,0
476536,-99.73916079,4,2,1,35,0,0
478219,417.748752,4,2,1,35,1,0
478219,-100.4384615,4,2,1,35,0,0
478636,420.677712,4,2,1,35,1,0
478636,-99.73916079,4,2,1,35,0,0
480319,426.660599,4,2,1,35,1,0
480319,-98.34055935,4,2,1,35,0,0
481599,414.860296,4,2,1,35,1,0
481599,-101.1377622,4,2,1,35,0,0
482014,423.648033,4,2,1,35,1,0
482014,-99.03986019,4,2,1,35,0,0
482861,412.011509,4,2,1,35,1,0
482861,-101.8370629,4,2,1,35,0,0
483685,420.677712,4,2,1,35,1,0
483685,-99.73916079,4,2,1,35,0,0
484527,417.748752,4,2,1,35,1,0
484527,-100.4384615,4,2,1,35,0,0
485362,420.677712,4,2,1,35,1,0
485362,-99.73916079,4,2,1,35,0,0
489148,423.648033,4,2,1,35,1,0
489148,-99.03986019,4,2,1,35,0,0
489995,417.748752,4,2,1,35,1,0
489995,-100.4384615,4,2,1,35,0,0
491666,414.860296,4,2,1,35,1,0
491666,-101.1377622,4,2,1,35,0,0
492911,417.748752,4,2,1,35,1,0
492911,-100.4384615,4,2,1,35,0,0
494164,420.677712,4,2,1,35,1,0
494164,-99.73916079,4,2,1,35,0,0
495006,414.860296,4,2,1,35,1,0
495006,-101.1377622,4,2,1,35,0,0
495835,412.011509,4,2,1,35,1,0
495835,-101.8370629,4,2,1,35,0,0
496247,409.20158,4,2,1,35,1,0
496247,-102.5363635,4,2,1,35,0,0
496657,417.748752,4,2,1,35,1,0
496657,-100.4384615,4,2,1,35,0,0
497492,429.716316,4,2,1,35,1,0
497492,-97.64125865,4,2,1,35,0,0
498352,412.011509,4,2,1,35,1,0
498352,-101.8370629,4,2,1,35,0,0
499176,414.860296,4,2,1,35,1,0
499176,-101.1377622,4,2,1,35,0,0
500420,429.716316,4,2,1,35,1,0
500420,-97.64125865,4,2,1,35,0,0
501280,423.648033,4,2,1,35,1,0
501280,-99.03986019,4,2,1,35,0,0
502550,426.660599,4,2,1,35,1,0
502550,-98.34055935,4,2,1,35,0,0
503404,445.67583,4,2,1,35,1,0
503404,-94.1447553,4,2,1,35,0,0
503849,406.429718,4,2,1,35,1,0
503849,-103.2356644,4,2,1,35,0,0
504256,432.816118,4,2,1,35,1,0
504256,-96.94195806,4,2,1,35,0,0
504689,420.677712,4,2,1,35,1,0
504689,-99.73916079,4,2,1,35,0,0
505530,423.648033,4,2,1,35,1,0
505530,-99.03986019,4,2,1,35,0,0
508072,426.660599,4,2,1,35,1,0
508072,-98.34055935,4,2,1,35,0,0
508499,420.677712,4,2,1,35,1,0
508499,-99.73916079,4,2,1,35,0,0
510181,423.648033,4,2,1,35,1,0
510181,-99.03986019,4,2,1,35,0,0
511029,429.716316,4,2,1,35,1,0
511029,-97.64125865,4,2,1,35,0,0
511888,417.748752,4,2,1,35,1,0
511888,-100.4384615,4,2,1,35,0,0
512724,423.648033,4,2,1,35,1,0
512724,-99.03986019,4,2,1,35,0,0
513571,414.860296,4,2,1,35,1,0
513571,-101.1377622,4,2,1,35,0,0
513986,432.816118,4,2,1,35,1,0
513986,-96.94195806,4,2,1,35,0,0
514419,423.648033,4,2,1,35,1,0
514419,-99.03986019,4,2,1,35,0,0
515689,435.960967,4,2,1,35,1,0
515689,-96.24265733,4,2,1,35,0,0
516125,417.748752,4,2,1,35,1,0
516125,-100.4384615,4,2,1,35,0,0
516961,439.151851,4,2,1,35,1,0
516961,-95.54335673,4,2,1,35,0,0
517400,459.323111,4,2,1,35,1,0
517400,-91.34755242,4,2,1,35,0,0
518319,445.67583,4,2,1,35,1,0
518319,-94.1447553,4,2,1,35,0,0
518764,442.38979,4,2,1,35,1,0
518764,-94.84405587,4,2,1,35,0,0
519207,449.011053,4,2,1,35,1,0
519207,-93.44545458,4,2,1,35,0,0
520105,442.38979,4,2,1,35,1,0
520105,-94.84405587,4,2,1,35,0,0
523202,439.151851,4,2,1,35,1,0
523202,-95.54335673,4,2,1,35,0,0
524080,429.716316,4,2,1,35,1,0
524080,-97.64125865,4,2,1,35,0,0
524510,445.67583,4,2,1,35,1,0
524510,-94.1447553,4,2,1,35,0,0
525401,432.816118,4,2,1,35,1,0
525401,-96.94195806,4,2,1,35,0,0
526699,423.648033,4,2,1,35,1,0
526699,-99.03986019,4,2,1,35,0,0
527123,439.151851,4,2,1,35,1,0
527123,-95.54335673,4,2,1,35,0,0
527562,429.716316,4,2,1,35,1,0
527562,-97.64125865,4,2,1,35,0,0
528422,435.960967,4,2,1,35,1,0
528422,-96.24265733,4,2,1,35,0,0
530165,432.816118,4,2,1,35,1,0
530165,-96.94195806,4,2,1,35,0,0
531031,417.748752,4,2,1,35,1,0
531031,-100.4384615,4,2,1,35,0,0
531867,432.816118,4,2,1,35,1,0
531867,-96.94195806,4,2,1,35,0,0
532299,435.960967,4,2,1,35,1,0
532299,-96.24265733,4,2,1,35,0,0
532735,380.645448,4,2,1,35,1,0
532735,-110.2286713,4,2,1,35,0,0
534258,364.460265,4,2,1,35,1,0
534258,-115.1237761,4,2,1,35,0,0
534622,353.717274,4,2,1,35,1,0
534622,-118.6202796,4,2,1,35,0,0
534976,371.225105,4,2,1,35,1,0
534976,-113.025874,4,2,1,35,0,0
535347,470.119959,4,2,1,35,1,0
535347,-89.24965034,4,2,1,35,0,0
535817,393.115242,4,2,1,35,1,0
535817,-106.7321678,4,2,1,35,0,0
536211,452.396571,4,2,1,35,1,0
536211,-92.74615381,4,2,1,35,0,0
536663,432.816118,4,2,1,35,1,0
536663,-96.94195806,4,2,1,35,0,0
537096,383.075715,4,2,1,35,1,0
537096,-109.5293706,4,2,1,35,0,0
537479,423.648033,4,2,1,35,1,0
537479,-99.03986019,4,2,1,35,0,0
537903,442.38979,4,2,1,35,1,0
537903,-94.84405587,4,2,1,35,0,0
538345,470.119959,4,2,1,35,1,0
538345,-89.24965034,4,2,1,35,0,0
538815,432.816118,4,2,1,35,1,0
538815,-96.94195806,4,2,1,35,0,0
539248,423.648033,4,2,1,35,1,0
539248,-99.03986019,4,2,1,35,0,0
539671,420.677712,4,2,1,35,1,0
539671,-99.73916079,4,2,1,35,0,0
540092,439.151851,4,2,1,35,1,0
540092,-95.54335673,4,2,1,35,0,0
540531,462.866532,4,2,1,35,1,0
540531,-90.64825183,4,2,1,35,0,0
542383,426.660599,4,2,1,35,1,0
542383,-98.34055935,4,2,1,35,0,0

[HitObjects]
64,192,5308,128,0,5557:0:0:0:0:
448,192,5308,128,0,5557:0:0:0:0:
64,192,5624,1,0,0:0:0:0:
192,192,5624,1,0,0:0:0:0:
320,192,5624,1,0,0:0:0:0:
448,192,5624,1,0,0:0:0:0:
448,192,6033,1,0,0:0:0:0:
320,192,6097,1,0,0:0:0:0:
64,192,6129,1,0,0:0:0:0:
192,192,6225,1,0,0:0:0:0:
192,192,6322,1,0,0:0:0:0:
320,192,6418,1,0,0:0:0:0:
320,192,6514,1,0,0:0:0:0:
64,192,6731,1,0,0:0:0:0:
448,192,6731,1,0,0:0:0:0:
64,192,6939,1,0,0:0:0:0:
448,192,6939,1,0,0:0:0:0:
64,192,7237,1,0,0:0:0:0:
320,192,7237,1,0,0:0:0:0:
192,192,7339,1,0,0:0:0:0:
320,192,7441,1,0,0:0:0:0:
448,192,7441,1,0,0:0:0:0:
448,192,7646,1,0,0:0:0:0:
64,192,7744,1,0,0:0:0:0:
320,192,7793,1,0,0:0:0:0:
64,192,7842,1,0,0:0:0:0:
320,192,7891,1,0,0:0:0:0:
192,192,7940,1,0,0:0:0:0:
448,192,7989,1,0,0:0:0:0:
64,192,8039,1,0,0:0:0:0:
192,192,8086,1,0,0:0:0:0:
320,192,8134,1,0,0:0:0:0:
448,192,8182,1,0,0:0:0:0:
64,192,8230,1,0,0:0:0:0:
320,192,8278,1,0,0:0:0:0:
192,192,8326,1,0,0:0:0:0:
448,192,8374,1,0,0:0:0:0:
64,192,8422,1,0,0:0:0:0:
192,192,8537,128,0,8814:0:0:0:0:
320,192,8537,128,0,8814:0:0:0:0:
64,192,8860,1,0,0:0:0:0:
192,192,8860,1,0,0:0:0:0:
320,192,8860,1,0,0:0:0:0:
448,192,8860,1,0,0:0:0:0:
448,192,9246,1,0,0:0:0:0:
192,192,9327,1,0,0:0:0:0:
192,192,9438,1,0,0:0:0:0:
448,192,9651,1,0,0:0:0:0:
64,192,9753,1,0,0:0:0:0:
320,192,9753,1,0,0:0:0:0:
64,192,10024,1,0,0:0:0:0:
192,192,10158,1,0,0:0:0:0:
448,192,10158,1,0,0:0:0:0:
448,192,10360,1,0,0:0:0:0:
64,192,10461,1,0,0:0:0:0:
320,192,10461,1,0,0:0:0:0:
64,192,10764,1,0,0:0:0:0:
192,192,10764,1,0,0:0:0:0:
448,192,10830,1,0,0:0:0:0:
64,192,11062,1,0,0:0:0:0:
192,192,11095,1,0,0:0:0:0:
320,192,11129,1,0,0:0:0:0:
64,192,11261,1,0,0:0:0:0:
448,192,11261,1,0,0:0:0:0:
320,192,11361,1,0,0:0:0:0:
64,192,11461,1,0,0:0:0:0:
448,192,11461,1,0,0:0:0:0:
64,192,11661,1,0,0:0:0:0:
192,192,11762,128,0,12015:0:0:0:0:
448,192,11762,128,0,12015:0:0:0:0:
64,192,12065,1,0,0:0:0:0:
192,192,12065,1,0,0:0:0:0:
320,192,12065,1,0,0:0:0:0:
448,192,12065,1,0,0:0:0:0:
64,192,12267,1,0,0:0:0:0:
320,192,12267,1,0,0:0:0:0:
192,192,12473,1,0,0:0:0:0:
320,192,12473,1,0,0:0:0:0:
64,192,12685,1,0,0:0:0:0:
320,192,12685,1,0,0:0:0:0:
64,192,12888,1,0,0:0:0:0:
192,192,12984,1,0,0:0:0:0:
448,192,12984,1,0,0:0:0:0:
320,192,13177,1,0,0:0:0:0:
448,192,13177,1,0,0:0:0:0:
64,192,13378,1,0,0:0:0:0:
320,192,13378,1,0,0:0:0:0:
64,192,13581,1,0,0:0:0:0:
192,192,13674,1,0,0:0:0:0:
448,192,13674,1,0,0:0:0:0:
448,192,13861,1,0,0:0:0:0:
64,192,13955,1,0,0:0:0:0:
192,192,14060,1,0,0:0:0:0:
320,192,14060,1,0,0:0:0:0:
192,192,14166,1,0,0:0:0:0:
320,192,14166,1,0,0:0:0:0:
192,192,14378,1,0,0:0:0:0:
64,192,14402,1,0,0:0:0:0:
192,192,14577,1,0,0:0:0:0:
320,192,14577,1,0,0:0:0:0:
448,192,14877,1,0,0:0:0:0:
192,192,14978,128,0,15214:0:0:0:0:
320,192,14978,128,0,15214:0:0:0:0:
64,192,15281,1,0,0:0:0:0:
192,192,15281,1,0,0:0:0:0:
320,192,15281,1,0,0:0:0:0:
448,192,15281,1,0,0:0:0:0:
64,192,15584,1,0,0:0:0:0:
192,192,15584,1,0,0:0:0:0:
448,192,15786,1,0,0:0:0:0:
64,192,15887,1,0,0:0:0:0:
320,192,15887,1,0,0:0:0:0:
64,192,16077,1,0,0:0:0:0:
192,192,16167,1,0,0:0:0:0:
448,192,16167,1,0,0:0:0:0:
320,192,16257,1,0,0:0:0:0:
192,192,16434,1,0,0:0:0:0:
448,192,16554,1,0,0:0:0:0:
64,192,16587,1,0,0:0:0:0:
192,192,16636,1,0,0:0:0:0:
320,192,16685,1,0,0:0:0:0:
64,192,16734,1,0,0:0:0:0:
448,192,16785,1,0,0:0:0:0:
320,192,16833,1,0,0:0:0:0:
192,192,16882,1,0,0:0:0:0:
64,192,16931,1,0,0:0:0:0:
448,192,16980,1,0,0:0:0:0:
192,192,17029,1,0,0:0:0:0:
448,192,17077,1,0,0:0:0:0:
320,192,17126,1,0,0:0:0:0:
64,192,17175,1,0,0:0:0:0:
192,192,17225,1,0,0:0:0:0:
448,192,17326,1,0,0:0:0:0:
64,192,17376,1,0,0:0:0:0:
192,192,17376,1,0,0:0:0:0:
320,192,17376,1,0,0:0:0:0:
192,192,17579,128,0,17834:0:0:0:0:
448,192,17579,128,0,17834:0:0:0:0:
64,192,17885,128,0,18141:0:0:0:0:
192,192,17885,1,0,0:0:0:0:
320,192,17885,128,0,18141:0:0:0:0:
192,192,18192,128,0,18422:0:0:0:0:
320,192,18192,128,0,18422:0:0:0:0:
448,192,18192,1,0,0:0:0:0:
64,192,18499,1,0,0:0:0:0:
192,192,18499,1,0,0:0:0:0:
320,192,18499,1,0,0:0:0:0:
448,192,18499,1,0,0:0:0:0:
64,192,18704,1,0,0:0:0:0:
192,192,18704,1,0,0:0:0:0:
64,192,18903,1,0,0:0:0:0:
192,192,18903,1,0,0:0:0:0:
64,192,19097,1,0,0:0:0:0:
192,192,19097,1,0,0:0:0:0:
64,192,19292,1,0,0:0:0:0:
192,192,19292,1,0,0:0:0:0:
64,192,19390,1,0,0:0:0:0:
192,192,19390,1,0,0:0:0:0:
64,192,19588,1,0,0:0:0:0:
192,192,19588,1,0,0:0:0:0:
448,192,19787,1,0,0:0:0:0:
192,192,19886,1,0,0:0:0:0:
320,192,19886,1,0,0:0:0:0:
64,192,20086,1,0,0:0:0:0:
192,192,20187,1,0,0:0:0:0:
320,192,20187,1,0,0:0:0:0:
64,192,20488,1,0,0:0:0:0:
192,192,20488,1,0,0:0:0:0:
448,192,20587,1,0,0:0:0:0:
64,192,20686,1,0,0:0:0:0:
192,192,20785,1,0,0:0:0:0:
320,192,20785,1,0,0:0:0:0:
448,192,20785,1,0,0:0:0:0:
64,192,20884,1,0,0:0:0:0:
320,192,20884,1,0,0:0:0:0:
192,192,20983,1,0,0:0:0:0:
192,192,21082,1,0,0:0:0:0:
448,192,21181,1,0,0:0:0:0:
320,192,21280,1,0,0:0:0:0:
64,192,21379,128,0,21628:0:0:0:0:
448,192,21379,128,0,21628:0:0:0:0:
64,192,21680,1,0,0:0:0:0:
192,192,21680,1,0,0:0:0:0:
320,192,21680,1,0,0:0:0:0:
448,192,21680,1,0,0:0:0:0:
320,192,21991,1,0,0:0:0:0:
448,192,21991,1,0,0:0:0:0:
64,192,22095,1,0,0:0:0:0:
192,192,22173,1,0,0:0:0:0:
320,192,22268,1,0,0:0:0:0:
448,192,22268,1,0,0:0:0:0:
192,192,22380,1,0,0:0:0:0:
320,192,22453,1,0,0:0:0:0:
64,192,22572,1,0,0:0:0:0:
448,192,22572,1,0,0:0:0:0:
192,192,22787,1,0,0:0:0:0:
320,192,22787,1,0,0:0:0:0:
64,192,22991,1,0,0:0:0:0:
64,192,23093,1,0,0:0:0:0:
320,192,23093,1,0,0:0:0:0:
64,192,23288,1,0,0:0:0:0:
448,192,23380,1,0,0:0:0:0:
320,192,23380,1,0,0:0:0:0:
192,192,23380,1,0,0:0:0:0:
64,192,23472,1,0,0:0:0:0:
192,192,23565,1,0,0:0:0:0:
320,192,23565,1,0,0:0:0:0:
448,192,23565,1,0,0:0:0:0:
64,192,23665,1,0,0:0:0:0:
448,192,23765,1,0,0:0:0:0:
320,192,23832,1,0,0:0:0:0:
64,192,23865,1,0,0:0:0:0:
192,192,23865,1,0,0:0:0:0:
192,192,23966,1,0,0:0:0:0:
448,192,23966,1,0,0:0:0:0:
320,192,24064,1,0,0:0:0:0:
64,192,24163,1,0,0:0:0:0:
192,192,24163,1,0,0:0:0:0:
320,192,24213,1,0,0:0:0:0:
448,192,24262,1,0,0:0:0:0:
64,192,24295,1,0,0:0:0:0:
320,192,24362,1,0,0:0:0:0:
192,192,24432,1,0,0:0:0:0:
448,192,24502,1,0,0:0:0:0:
64,192,24572,128,0,24831:0:0:0:0:
320,192,24572,128,0,24831:0:0:0:0:
64,192,24880,1,0,0:0:0:0:
192,192,24880,1,0,0:0:0:0:
320,192,24880,1,0,0:0:0:0:
448,192,24880,1,0,0:0:0:0:
64,192,25171,1,0,0:0:0:0:
192,192,25171,1,0,0:0:0:0:
448,192,25237,1,0,0:0:0:0:
320,192,25304,1,0,0:0:0:0:
64,192,25371,1,0,0:0:0:0:
192,192,25371,1,0,0:0:0:0:
192,192,25471,1,0,0:0:0:0:
448,192,25471,1,0,0:0:0:0:
64,192,25572,1,0,0:0:0:0:
320,192,25572,1,0,0:0:0:0:
192,192,25778,1,0,0:0:0:0:
320,192,25778,1,0,0:0:0:0:
64,192,25984,1,0,0:0:0:0:
448,192,25984,1,0,0:0:0:0:
320,192,26051,1,0,0:0:0:0:
448,192,26051,1,0,0:0:0:0:
64,192,26119,1,0,0:0:0:0:
192,192,26187,1,0,0:0:0:0:
64,192,26254,1,0,0:0:0:0:
192,192,26322,1,0,0:0:0:0:
448,192,26390,1,0,0:0:0:0:
64,192,26455,1,0,0:0:0:0:
320,192,26455,1,0,0:0:0:0:
192,192,26520,1,0,0:0:0:0:
448,192,26520,1,0,0:0:0:0:
320,192,26609,1,0,0:0:0:0:
448,192,26682,1,0,0:0:0:0:
64,192,26781,1,0,0:0:0:0:
192,192,26846,1,0,0:0:0:0:
320,192,26846,1,0,0:0:0:0:
64,192,26912,1,0,0:0:0:0:
448,192,26912,1,0,0:0:0:0:
192,192,26977,1,0,0:0:0:0:
448,192,27043,1,0,0:0:0:0:
320,192,27108,1,0,0:0:0:0:
192,192,27174,1,0,0:0:0:0:
448,192,27230,1,0,0:0:0:0:
64,192,27272,1,0,0:0:0:0:
192,192,27321,1,0,0:0:0:0:
320,192,27370,1,0,0:0:0:0:
192,192,27436,1,0,0:0:0:0:
320,192,27501,1,0,0:0:0:0:
64,192,27567,1,0,0:0:0:0:
448,192,27567,1,0,0:0:0:0:
192,192,27770,128,0,28023:0:0:0:0:
320,192,27770,128,0,28023:0:0:0:0:
64,192,28073,1,0,0:0:0:0:
192,192,28073,1,0,0:0:0:0:
320,192,28073,1,0,0:0:0:0:
448,192,28073,1,0,0:0:0:0:
192,192,28376,1,0,0:0:0:0:
320,192,28578,1,0,0:0:0:0:
448,192,28578,1,0,0:0:0:0:
64,192,28629,1,0,0:0:0:0:
192,192,28629,1,0,0:0:0:0:
448,192,28679,1,0,0:0:0:0:
64,192,28729,1,0,0:0:0:0:
320,192,28780,1,0,0:0:0:0:
192,192,28830,1,0,0:0:0:0:
448,192,28881,1,0,0:0:0:0:
64,192,28931,1,0,0:0:0:0:
192,192,28982,1,0,0:0:0:0:
320,192,29083,1,0,0:0:0:0:
448,192,29083,1,0,0:0:0:0:
64,192,29133,1,0,0:0:0:0:
192,192,29133,1,0,0:0:0:0:
448,192,29184,1,0,0:0:0:0:
64,192,29232,1,0,0:0:0:0:
320,192,29281,1,0,0:0:0:0:
192,192,29329,1,0,0:0:0:0:
448,192,29378,1,0,0:0:0:0:
64,192,29426,1,0,0:0:0:0:
192,192,29475,1,0,0:0:0:0:
320,192,29572,1,0,0:0:0:0:
448,192,29572,1,0,0:0:0:0:
64,192,29620,1,0,0:0:0:0:
192,192,29620,1,0,0:0:0:0:
448,192,29669,1,0,0:0:0:0:
64,192,29717,1,0,0:0:0:0:
320,192,29766,1,0,0:0:0:0:
192,192,29814,1,0,0:0:0:0:
448,192,29863,1,0,0:0:0:0:
64,192,29911,1,0,0:0:0:0:
192,192,29960,1,0,0:0:0:0:
64,192,30057,1,0,0:0:0:0:
320,192,30057,1,0,0:0:0:0:
448,192,30057,1,0,0:0:0:0:
192,192,30348,128,0,30602:0:0:0:0:
320,192,30348,1,0,0:0:0:0:
448,192,30348,128,0,30602:0:0:0:0:
64,192,30652,1,0,0:0:0:0:
192,192,30652,128,0,30906:0:0:0:0:
320,192,30652,128,0,30906:0:0:0:0:
64,192,30957,128,0,31213:0:0:0:0:
320,192,30957,1,0,0:0:0:0:
448,192,30957,128,0,31213:0:0:0:0:
64,192,31266,1,0,0:0:0:0:
192,192,31266,1,0,0:0:0:0:
448,192,31266,1,0,0:0:0:0:
320,192,31371,1,0,0:0:0:0:
64,192,31441,1,0,0:0:0:0:
320,192,31511,1,0,0:0:0:0:
448,192,31511,1,0,0:0:0:0:
64,192,31582,1,0,0:0:0:0:
192,192,31582,1,0,0:0:0:0:
448,192,31648,1,0,0:0:0:0:
320,192,31715,1,0,0:0:0:0:
64,192,31715,1,0,0:0:0:0:
192,192,31782,1,0,0:0:0:0:
448,192,31849,1,0,0:0:0:0:
320,192,31849,1,0,0:0:0:0:
192,192,31916,1,0,0:0:0:0:
64,192,31983,1,0,0:0:0:0:
448,192,31983,1,0,0:0:0:0:
192,192,32079,1,0,0:0:0:0:
320,192,32079,1,0,0:0:0:0:
64,192,32175,1,0,0:0:0:0:
448,192,32175,1,0,0:0:0:0:
64,192,32272,1,0,0:0:0:0:
192,192,32272,1,0,0:0:0:0:
320,192,32368,1,0,0:0:0:0:
448,192,32368,1,0,0:0:0:0:
64,192,32464,1,0,0:0:0:0:
320,192,32464,1,0,0:0:0:0:
192,192,32561,1,0,0:0:0:0:
448,192,32561,1,0,0:0:0:0:
448,192,32754,1,0,0:0:0:0:
192,192,32848,1,0,0:0:0:0:
320,192,32848,1,0,0:0:0:0:
64,192,33037,1,0,0:0:0:0:
192,192,33132,1,0,0:0:0:0:
320,192,33132,1,0,0:0:0:0:
320,192,33230,1,0,0:0:0:0:
448,192,33230,1,0,0:0:0:0:
64,192,33328,1,0,0:0:0:0:
192,192,33328,1,0,0:0:0:0:
448,192,33377,1,0,0:0:0:0:
192,192,33426,1,0,0:0:0:0:
64,192,33525,1,0,0:0:0:0:
320,192,33525,1,0,0:0:0:0:
448,192,33525,1,0,0:0:0:0:
64,192,33688,1,0,0:0:0:0:
192,192,33688,1,0,0:0:0:0:
320,192,33688,1,0,0:0:0:0:
448,192,33774,1,0,0:0:0:0:
64,192,33836,1,0,0:0:0:0:
192,192,33899,1,0,0:0:0:0:
320,192,33899,1,0,0:0:0:0:
192,192,34112,128,0,34378:0:0:0:0:
320,192,34112,128,0,34378:0:0:0:0:
64,192,34431,1,0,0:0:0:0:
192,192,34431,1,0,0:0:0:0:
320,192,34431,1,0,0:0:0:0:
448,192,34431,1,0,0:0:0:0:
320,192,34588,1,0,0:0:0:0:
64,192,34641,1,0,0:0:0:0:
192,192,34694,1,0,0:0:0:0:
320,192,34746,1,0,0:0:0:0:
448,192,34746,1,0,0:0:0:0:
64,192,34846,1,0,0:0:0:0:
64,192,34947,1,0,0:0:0:0:
448,192,34947,1,0,0:0:0:0:
192,192,35048,1,0,0:0:0:0:
320,192,35048,1,0,0:0:0:0:
64,192,35150,1,0,0:0:0:0:
448,192,35150,1,0,0:0:0:0:
320,192,35245,1,0,0:0:0:0:
448,192,35245,1,0,0:0:0:0:
64,192,35303,1,0,0:0:0:0:
192,192,35303,1,0,0:0:0:0:
192,192,35389,1,0,0:0:0:0:
320,192,35437,1,0,0:0:0:0:
448,192,35437,1,0,0:0:0:0:
64,192,35509,1,0,0:0:0:0:
192,192,35582,1,0,0:0:0:0:
320,192,35582,1,0,0:0:0:0:
448,192,35582,1,0,0:0:0:0:
64,192,35691,1,0,0:0:0:0:
448,192,35770,1,0,0:0:0:0:
64,192,35849,1,0,0:0:0:0:
192,192,35849,1,0,0:0:0:0:
320,192,35849,1,0,0:0:0:0:
448,192,35984,1,0,0:0:0:0:
320,192,35984,1,0,0:0:0:0:
64,192,36039,1,0,0:0:0:0:
192,192,36121,1,0,0:0:0:0:
320,192,36121,1,0,0:0:0:0:
448,192,36266,1,0,0:0:0:0:
64,192,36314,1,0,0:0:0:0:
192,192,36314,1,0,0:0:0:0:
320,192,36363,1,0,0:0:0:0:
192,192,36412,1,0,0:0:0:0:
64,192,36510,1,0,0:0:0:0:
448,192,36510,1,0,0:0:0:0:
192,192,36608,1,0,0:0:0:0:
448,192,36608,1,0,0:0:0:0:
64,192,36707,1,0,0:0:0:0:
320,192,36805,1,0,0:0:0:0:
448,192,36805,1,0,0:0:0:0:
64,192,36903,1,0,0:0:0:0:
192,192,36903,1,0,0:0:0:0:
64,192,37100,1,0,0:0:0:0:
320,192,37100,1,0,0:0:0:0:
448,192,37100,1,0,0:0:0:0:
192,192,37296,128,0,37494:0:0:0:0:
320,192,37296,128,0,37494:0:0:0:0:
448,192,37296,1,0,0:0:0:0:
64,192,37494,1,0,0:0:0:0:
192,192,37587,1,0,0:0:0:0:
448,192,37634,1,0,0:0:0:0:
64,192,37681,1,0,0:0:0:0:
320,192,37681,1,0,0:0:0:0:
64,192,37870,1,0,0:0:0:0:
192,192,37870,1,0,0:0:0:0:
448,192,37921,1,0,0:0:0:0:
64,192,37973,1,0,0:0:0:0:
320,192,38025,1,0,0:0:0:0:
192,192,38025,1,0,0:0:0:0:
192,192,38202,1,0,0:0:0:0:
320,192,38232,1,0,0:0:0:0:
448,192,38232,1,0,0:0:0:0:
320,192,38304,1,0,0:0:0:0:
64,192,38304,1,0,0:0:0:0:
64,192,38502,1,0,0:0:0:0:
192,192,38502,1,0,0:0:0:0:
448,192,38562,1,0,0:0:0:0:
320,192,38622,1,0,0:0:0:0:
192,192,38682,1,0,0:0:0:0:
448,192,38772,1,0,0:0:0:0:
64,192,38817,1,0,0:0:0:0:
192,192,38862,1,0,0:0:0:0:
320,192,38862,1,0,0:0:0:0:
320,192,38952,1,0,0:0:0:0:
448,192,38952,1,0,0:0:0:0:
64,192,39011,1,0,0:0:0:0:
192,192,39071,1,0,0:0:0:0:
320,192,39071,1,0,0:0:0:0:
448,192,39071,1,0,0:0:0:0:
64,192,39220,1,0,0:0:0:0:
320,192,39265,1,0,0:0:0:0:
192,192,39309,1,0,0:0:0:0:
448,192,39354,1,0,0:0:0:0:
64,192,39399,1,0,0:0:0:0:
320,192,39399,1,0,0:0:0:0:
320,192,39578,1,0,0:0:0:0:
448,192,39578,1,0,0:0:0:0:
64,192,39668,1,0,0:0:0:0:
192,192,39668,1,0,0:0:0:0:
320,192,39755,1,0,0:0:0:0:
64,192,39843,1,0,0:0:0:0:
448,192,39843,1,0,0:0:0:0:
320,192,39931,1,0,0:0:0:0:
448,192,39931,1,0,0:0:0:0:
64,192,40019,1,0,0:0:0:0:
192,192,40019,1,0,0:0:0:0:
192,192,40116,1,0,0:0:0:0:
448,192,40165,1,0,0:0:0:0:
64,192,40214,1,0,0:0:0:0:
320,192,40214,1,0,0:0:0:0:
320,192,40311,1,0,0:0:0:0:
64,192,40410,128,0,40673:0:0:0:0:
192,192,40410,1,0,0:0:0:0:
448,192,40410,128,0,40673:0:0:0:0:
64,192,40717,1,0,0:0:0:0:
192,192,40739,1,0,0:0:0:0:
320,192,40761,1,0,0:0:0:0:
448,192,40784,1,0,0:0:0:0:
320,192,40940,1,0,0:0:0:0:
64,192,41030,1,0,0:0:0:0:
192,192,41030,1,0,0:0:0:0:
192,192,41239,1,0,0:0:0:0:
320,192,41239,1,0,0:0:0:0:
448,192,41239,1,0,0:0:0:0:
64,192,41358,1,0,0:0:0:0:
192,192,41358,1,0,0:0:0:0:
448,192,41418,1,0,0:0:0:0:
320,192,41478,1,0,0:0:0:0:
64,192,41538,1,0,0:0:0:0:
192,192,41538,1,0,0:0:0:0:
320,192,41613,1,0,0:0:0:0:
448,192,41613,1,0,0:0:0:0:
64,192,41658,1,0,0:0:0:0:
192,192,41748,1,0,0:0:0:0:
64,192,41838,1,0,0:0:0:0:
320,192,41838,1,0,0:0:0:0:
448,192,41838,1,0,0:0:0:0:
192,192,41938,1,0,0:0:0:0:
448,192,41938,1,0,0:0:0:0:
320,192,42038,1,0,0:0:0:0:
64,192,42088,1,0,0:0:0:0:
192,192,42138,1,0,0:0:0:0:
320,192,42138,1,0,0:0:0:0:
64,192,42239,1,0,0:0:0:0:
448,192,42239,1,0,0:0:0:0:
192,192,42342,1,0,0:0:0:0:
448,192,42393,1,0,0:0:0:0:
192,192,42445,1,0,0:0:0:0:
320,192,42445,1,0,0:0:0:0:
64,192,42548,1,0,0:0:0:0:
448,192,42548,1,0,0:0:0:0:
192,192,42651,1,0,0:0:0:0:
320,192,42651,1,0,0:0:0:0:
320,192,42749,1,0,0:0:0:0:
64,192,42798,1,0,0:0:0:0:
192,192,42847,1,0,0:0:0:0:
448,192,42847,1,0,0:0:0:0:
64,192,43044,128,0,43289:0:0:0:0:
320,192,43044,1,0,0:0:0:0:
448,192,43044,128,0,43289:0:0:0:0:
64,192,43338,1,0,0:0:0:0:
192,192,43338,128,0,43584:0:0:0:0:
448,192,43338,128,0,43584:0:0:0:0:
64,192,43633,128,0,43880:0:0:0:0:
192,192,43633,128,0,43880:0:0:0:0:
320,192,43633,1,0,0:0:0:0:
448,192,43732,1,0,0:0:0:0:
320,192,43781,1,0,0:0:0:0:
64,192,43930,1,0,0:0:0:0:
192,192,43930,1,0,0:0:0:0:
448,192,43930,1,0,0:0:0:0:
64,192,44031,1,0,0:0:0:0:
320,192,44031,1,0,0:0:0:0:
448,192,44031,1,0,0:0:0:0:
192,192,44132,1,0,0:0:0:0:
320,192,44234,1,0,0:0:0:0:
448,192,44234,1,0,0:0:0:0:
192,192,44329,1,0,0:0:0:0:
320,192,44425,1,0,0:0:0:0:
64,192,44521,1,0,0:0:0:0:
192,192,44521,1,0,0:0:0:0:
64,192,44617,1,0,0:0:0:0:
320,192,44617,1,0,0:0:0:0:
448,192,44617,1,0,0:0:0:0:
192,192,44699,1,0,0:0:0:0:
320,192,44781,1,0,0:0:0:0:
448,192,44781,1,0,0:0:0:0:
192,192,44863,1,0,0:0:0:0:
64,192,44945,1,0,0:0:0:0:
448,192,44945,1,0,0:0:0:0:
320,192,45022,1,0,0:0:0:0:
64,192,45100,1,0,0:0:0:0:
192,192,45100,1,0,0:0:0:0:
64,192,45178,1,0,0:0:0:0:
320,192,45178,1,0,0:0:0:0:
448,192,45178,1,0,0:0:0:0:
192,192,45256,1,0,0:0:0:0:
448,192,45334,1,0,0:0:0:0:
64,192,45412,1,0,0:0:0:0:
320,192,45412,1,0,0:0:0:0:
448,192,45490,1,0,0:0:0:0:
64,192,45567,1,0,0:0:0:0:
192,192,45567,1,0,0:0:0:0:
192,192,45657,1,0,0:0:0:0:
320,192,45657,1,0,0:0:0:0:
448,192,45657,1,0,0:0:0:0:
320,192,45836,1,0,0:0:0:0:
448,192,45836,1,0,0:0:0:0:
64,192,45926,1,0,0:0:0:0:
192,192,45926,1,0,0:0:0:0:
320,192,45926,1,0,0:0:0:0:
64,192,46023,1,0,0:0:0:0:
192,192,46023,1,0,0:0:0:0:
320,192,46120,1,0,0:0:0:0:
448,192,46120,1,0,0:0:0:0:
64,192,46217,1,0,0:0:0:0:
320,192,46217,1,0,0:0:0:0:
448,192,46217,1,0,0:0:0:0:
192,192,46314,1,0,0:0:0:0:
320,192,46412,1,0,0:0:0:0:
64,192,46511,1,0,0:0:0:0:
320,192,46610,1,0,0:0:0:0:
448,192,46610,1,0,0:0:0:0:
64,192,46710,1,0,0:0:0:0:
192,192,46710,1,0,0:0:0:0:
448,192,46710,1,0,0:0:0:0:
64,192,46807,128,0,47101:0:0:0:0:
192,192,46807,1,0,0:0:0:0:
320,192,46807,128,0,47101:0:0:0:0:
192,192,47101,1,0,0:0:0:0:
448,192,47101,1,0,0:0:0:0:
320,192,47203,1,0,0:0:0:0:
320,192,47305,1,0,0:0:0:0:
192,192,47407,1,0,0:0:0:0:
192,192,47510,1,0,0:0:0:0:
448,192,47510,1,0,0:0:0:0:
64,192,47603,1,0,0:0:0:0:
320,192,47603,1,0,0:0:0:0:
192,192,47696,1,0,0:0:0:0:
448,192,47696,1,0,0:0:0:0:
64,192,47883,1,0,0:0:0:0:
192,192,47883,1,0,0:0:0:0:
320,192,47883,128,0,48087:0:0:0:0:
64,192,48155,1,0,0:0:0:0:
192,192,48155,1,0,0:0:0:0:
64,192,48292,1,0,0:0:0:0:
192,192,48292,1,0,0:0:0:0:
64,192,48416,1,0,0:0:0:0:
192,192,48416,1,0,0:0:0:0:
64,192,48541,1,0,0:0:0:0:
192,192,48541,1,0,0:0:0:0:
192,192,48666,1,0,0:0:0:0:
320,192,48666,1,0,0:0:0:0:
320,192,48792,1,0,0:0:0:0:
448,192,48792,1,0,0:0:0:0:
320,192,48918,1,0,0:0:0:0:
448,192,48918,1,0,0:0:0:0:
320,192,49044,1,0,0:0:0:0:
448,192,49044,1,0,0:0:0:0:
320,192,49250,1,0,0:0:0:0:
64,192,49456,1,0,0:0:0:0:
192,192,49456,1,0,0:0:0:0:
448,192,49456,1,0,0:0:0:0:
64,192,49593,1,0,0:0:0:0:
192,192,49593,1,0,0:0:0:0:
448,192,49593,1,0,0:0:0:0:
64,192,49730,1,0,0:0:0:0:
192,192,49730,1,0,0:0:0:0:
448,192,49730,1,0,0:0:0:0:
64,192,49868,128,0,50123:0:0:0:0:
192,192,49868,1,0,0:0:0:0:
320,192,49868,1,0,0:0:0:0:
448,192,49868,128,0,50123:0:0:0:0:
64,192,50174,1,0,0:0:0:0:
192,192,50174,1,0,0:0:0:0:
320,192,50174,1,0,0:0:0:0:
448,192,50174,1,0,0:0:0:0:
448,192,50370,1,0,0:0:0:0:
192,192,50463,1,0,0:0:0:0:
320,192,50463,1,0,0:0:0:0:
64,192,50557,1,0,0:0:0:0:
192,192,50651,1,0,0:0:0:0:
320,192,50748,1,0,0:0:0:0:
448,192,50748,1,0,0:0:0:0:
64,192,50846,1,0,0:0:0:0:
448,192,50943,1,0,0:0:0:0:
64,192,51042,1,0,0:0:0:0:
192,192,51042,1,0,0:0:0:0:
64,192,51138,1,0,0:0:0:0:
320,192,51138,1,0,0:0:0:0:
448,192,51138,1,0,0:0:0:0:
192,192,51234,1,0,0:0:0:0:
320,192,51331,1,0,0:0:0:0:
448,192,51331,1,0,0:0:0:0:
64,192,51427,1,0,0:0:0:0:
192,192,51427,1,0,0:0:0:0:
448,192,51427,1,0,0:0:0:0:
192,192,51621,1,0,0:0:0:0:
320,192,51621,1,0,0:0:0:0:
448,192,51718,1,0,0:0:0:0:
192,192,51914,1,0,0:0:0:0:
320,192,51914,1,0,0:0:0:0:
64,192,52014,1,0,0:0:0:0:
320,192,52014,1,0,0:0:0:0:
192,192,52113,1,0,0:0:0:0:
64,192,52213,1,0,0:0:0:0:
448,192,52213,1,0,0:0:0:0:
64,192,52308,1,0,0:0:0:0:
192,192,52308,1,0,0:0:0:0:
320,192,52308,1,0,0:0:0:0:
448,192,52404,1,0,0:0:0:0:
192,192,52500,1,0,0:0:0:0:
320,192,52500,1,0,0:0:0:0:
64,192,52597,1,0,0:0:0:0:
320,192,52597,1,0,0:0:0:0:
448,192,52597,1,0,0:0:0:0:
192,192,52797,1,0,0:0:0:0:
192,192,52897,1,0,0:0:0:0:
320,192,52897,1,0,0:0:0:0:
448,192,52897,1,0,0:0:0:0:
64,192,52998,128,0,53289:0:0:0:0:
320,192,52998,1,0,0:0:0:0:
448,192,52998,128,0,53289:0:0:0:0:
64,192,53337,1,0,0:0:0:0:
192,192,53337,1,0,0:0:0:0:
320,192,53337,1,0,0:0:0:0:
448,192,53337,1,0,0:0:0:0:
192,192,53488,1,0,0:0:0:0:
448,192,53488,1,0,0:0:0:0:
64,192,53590,1,0,0:0:0:0:
320,192,53590,1,0,0:0:0:0:
192,192,53692,1,0,0:0:0:0:
320,192,53692,1,0,0:0:0:0:
64,192,53795,128,0,53887:0:0:0:0:
448,192,53795,128,0,53887:0:0:0:0:
192,192,54073,1,0,0:0:0:0:
320,192,54073,1,0,0:0:0:0:
64,192,54166,1,0,0:0:0:0:
320,192,54166,1,0,0:0:0:0:
448,192,54166,1,0,0:0:0:0:
64,192,54377,1,0,0:0:0:0:
192,192,54377,1,0,0:0:0:0:
320,192,54483,1,0,0:0:0:0:
448,192,54483,1,0,0:0:0:0:
64,192,54590,1,0,0:0:0:0:
192,192,54590,1,0,0:0:0:0:
320,192,54590,1,0,0:0:0:0:
192,192,54685,1,0,0:0:0:0:
448,192,54685,1,0,0:0:0:0:
64,192,54781,1,0,0:0:0:0:
320,192,54781,1,0,0:0:0:0:
320,192,54877,1,0,0:0:0:0:
448,192,54877,1,0,0:0:0:0:
64,192,54973,1,0,0:0:0:0:
192,192,54973,1,0,0:0:0:0:
192,192,55068,1,0,0:0:0:0:
448,192,55068,1,0,0:0:0:0:
64,192,55164,1,0,0:0:0:0:
320,192,55164,1,0,0:0:0:0:
320,192,55260,1,0,0:0:0:0:
448,192,55260,1,0,0:0:0:0:
64,192,55356,1,0,0:0:0:0:
192,192,55356,1,0,0:0:0:0:
64,192,55579,128,0,55675:0:0:0:0:
320,192,55579,128,0,55675:0:0:0:0:
448,192,55579,128,0,55675:0:0:0:0:
192,192,55739,1,0,0:0:0:0:
320,192,55739,1,0,0:0:0:0:
64,192,55844,128,0,56092:0:0:0:0:
192,192,55844,128,0,56092:0:0:0:0:
448,192,55844,128,0,55986:0:0:0:0:
320,192,56162,1,0,0:0:0:0:
448,192,56162,1,0,0:0:0:0:
64,192,56207,1,0,0:0:0:0:
192,192,56253,1,0,0:0:0:0:
320,192,56299,1,0,0:0:0:0:
448,192,56345,1,0,0:0:0:0:
64,192,56402,1,0,0:0:0:0:
192,192,56436,1,0,0:0:0:0:
320,192,56471,1,0,0:0:0:0:
448,192,56471,1,0,0:0:0:0:
64,192,56574,1,0,0:0:0:0:
192,192,56574,1,0,0:0:0:0:
448,192,56574,1,0,0:0:0:0:
64,192,56711,1,0,0:0:0:0:
192,192,56780,1,0,0:0:0:0:
448,192,56848,1,0,0:0:0:0:
320,192,56883,1,0,0:0:0:0:
192,192,56917,1,0,0:0:0:0:
64,192,56951,1,0,0:0:0:0:
448,192,56987,1,0,0:0:0:0:
320,192,57031,1,0,0:0:0:0:
192,192,57076,1,0,0:0:0:0:
64,192,57121,1,0,0:0:0:0:
448,192,57166,1,0,0:0:0:0:
320,192,57211,1,0,0:0:0:0:
192,192,57256,1,0,0:0:0:0:
64,192,57300,1,0,0:0:0:0:
448,192,57345,1,0,0:0:0:0:
320,192,57390,1,0,0:0:0:0:
192,192,57435,1,0,0:0:0:0:
64,192,57480,1,0,0:0:0:0:
448,192,57525,1,0,0:0:0:0:
320,192,57570,1,0,0:0:0:0:
64,192,57644,1,0,0:0:0:0:
192,192,57694,1,0,0:0:0:0:
64,192,57745,1,0,0:0:0:0:
320,192,57797,1,0,0:0:0:0:
448,192,57797,1,0,0:0:0:0:
192,192,57896,1,0,0:0:0:0:
448,192,57896,1,0,0:0:0:0:
64,192,57996,1,0,0:0:0:0:
320,192,57996,1,0,0:0:0:0:
192,192,58095,1,0,0:0:0:0:
192,192,58195,1,0,0:0:0:0:
320,192,58195,1,0,0:0:0:0:
448,192,58195,1,0,0:0:0:0:
320,192,58295,1,0,0:0:0:0:
64,192,58395,1,0,0:0:0:0:
192,192,58395,1,0,0:0:0:0:
448,192,58445,1,0,0:0:0:0:
320,192,58495,1,0,0:0:0:0:
64,192,58545,1,0,0:0:0:0:
192,192,58595,1,0,0:0:0:0:
448,192,58646,1,0,0:0:0:0:
320,192,58696,1,0,0:0:0:0:
192,192,58746,1,0,0:0:0:0:
64,192,58796,1,0,0:0:0:0:
448,192,58796,1,0,0:0:0:0:
192,192,58896,1,0,0:0:0:0:
320,192,58896,1,0,0:0:0:0:
64,192,58997,1,0,0:0:0:0:
320,192,58997,1,0,0:0:0:0:
448,192,58997,1,0,0:0:0:0:
192,192,59097,1,0,0:0:0:0:
448,192,59097,1,0,0:0:0:0:
64,192,59198,1,0,0:0:0:0:
320,192,59198,1,0,0:0:0:0:
320,192,59299,1,0,0:0:0:0:
448,192,59299,1,0,0:0:0:0:
64,192,59401,1,0,0:0:0:0:
192,192,59401,1,0,0:0:0:0:
64,192,59502,1,0,0:0:0:0:
192,192,59502,1,0,0:0:0:0:
448,192,59604,1,0,0:0:0:0:
192,192,59638,1,0,0:0:0:0:
320,192,59671,1,0,0:0:0:0:
448,192,59705,1,0,0:0:0:0:
64,192,59807,1,0,0:0:0:0:
320,192,59807,1,0,0:0:0:0:
192,192,59865,1,0,0:0:0:0:
64,192,59923,1,0,0:0:0:0:
192,192,59981,1,0,0:0:0:0:
448,192,60010,1,0,0:0:0:0:
320,192,60112,1,0,0:0:0:0:
64,192,60213,1,0,0:0:0:0:
192,192,60213,1,0,0:0:0:0:
320,192,60315,1,0,0:0:0:0:
448,192,60315,1,0,0:0:0:0:
192,192,60417,1,0,0:0:0:0:
320,192,60518,1,0,0:0:0:0:
448,192,60518,1,0,0:0:0:0:
64,192,60620,1,0,0:0:0:0:
192,192,60620,1,0,0:0:0:0:
448,192,60620,1,0,0:0:0:0:
320,192,60671,1,0,0:0:0:0:
192,192,60721,1,0,0:0:0:0:
448,192,60772,1,0,0:0:0:0:
64,192,60823,1,0,0:0:0:0:
192,192,60874,1,0,0:0:0:0:
320,192,60925,1,0,0:0:0:0:
448,192,60975,1,0,0:0:0:0:
64,192,61026,1,0,0:0:0:0:
320,192,61076,1,0,0:0:0:0:
192,192,61126,1,0,0:0:0:0:
320,192,61176,1,0,0:0:0:0:
64,192,61226,1,0,0:0:0:0:
448,192,61276,1,0,0:0:0:0:
320,192,61326,1,0,0:0:0:0:
192,192,61376,1,0,0:0:0:0:
64,192,61426,1,0,0:0:0:0:
448,192,61477,1,0,0:0:0:0:
192,192,61527,1,0,0:0:0:0:
448,192,61577,1,0,0:0:0:0:
320,192,61627,1,0,0:0:0:0:
64,192,61677,1,0,0:0:0:0:
192,192,61727,1,0,0:0:0:0:
320,192,61777,1,0,0:0:0:0:
448,192,61827,1,0,0:0:0:0:
64,192,61861,1,0,0:0:0:0:
320,192,61928,1,0,0:0:0:0:
192,192,61961,1,0,0:0:0:0:
64,192,61995,1,0,0:0:0:0:
64,192,62095,1,0,0:0:0:0:
64,192,62195,1,0,0:0:0:0:
320,192,62228,1,0,0:0:0:0:
448,192,62228,1,0,0:0:0:0:
448,192,62362,1,0,0:0:0:0:
320,192,62362,1,0,0:0:0:0:
320,192,62496,1,0,0:0:0:0:
448,192,62496,1,0,0:0:0:0:
64,192,62629,1,0,0:0:0:0:
192,192,62629,1,0,0:0:0:0:
448,192,62710,1,0,0:0:0:0:
320,192,62710,1,0,0:0:0:0:
64,192,62790,1,0,0:0:0:0:
192,192,62790,1,0,0:0:0:0:
448,192,62870,1,0,0:0:0:0:
320,192,62950,1,0,0:0:0:0:
64,192,62950,1,0,0:0:0:0:
192,192,63031,1,0,0:0:0:0:
448,192,63031,1,0,0:0:0:0:
320,192,63112,1,0,0:0:0:0:
64,192,63112,1,0,0:0:0:0:
192,192,63194,1,0,0:0:0:0:
448,192,63276,1,0,0:0:0:0:
320,192,63276,1,0,0:0:0:0:
192,192,63358,1,0,0:0:0:0:
64,192,63358,1,0,0:0:0:0:
320,192,63441,1,0,0:0:0:0:
448,192,63441,1,0,0:0:0:0:
192,192,63521,1,0,0:0:0:0:
448,192,63602,1,0,0:0:0:0:
64,192,63602,1,0,0:0:0:0:
320,192,63683,1,0,0:0:0:0:
192,192,63683,1,0,0:0:0:0:
64,192,63763,1,0,0:0:0:0:
448,192,63763,1,0,0:0:0:0:
320,192,63844,1,0,0:0:0:0:
64,192,63925,1,0,0:0:0:0:
192,192,63925,1,0,0:0:0:0:
320,192,64006,1,0,0:0:0:0:
448,192,64006,1,0,0:0:0:0:
192,192,64086,1,0,0:0:0:0:
64,192,64086,1,0,0:0:0:0:
320,192,64167,1,0,0:0:0:0:
64,192,64248,1,0,0:0:0:0:
448,192,64248,1,0,0:0:0:0:
64,192,64349,1,0,0:0:0:0:
448,192,64349,1,0,0:0:0:0:
192,192,64450,1,0,0:0:0:0:
320,192,64450,1,0,0:0:0:0:
64,192,64551,1,0,0:0:0:0:
448,192,64551,1,0,0:0:0:0:
192,192,64652,1,0,0:0:0:0:
320,192,64652,1,0,0:0:0:0:
192,192,64752,1,0,0:0:0:0:
320,192,64752,1,0,0:0:0:0:
64,192,64852,1,0,0:0:0:0:
448,192,64852,1,0,0:0:0:0:
192,192,64952,1,0,0:0:0:0:
320,192,65053,1,0,0:0:0:0:
448,192,65053,1,0,0:0:0:0:
64,192,65098,1,0,0:0:0:0:
192,192,65144,1,0,0:0:0:0:
320,192,65190,1,0,0:0:0:0:
64,192,65233,1,0,0:0:0:0:
448,192,65281,1,0,0:0:0:0:
320,192,65327,1,0,0:0:0:0:
192,192,65362,1,0,0:0:0:0:
448,192,65413,1,0,0:0:0:0:
64,192,65465,1,0,0:0:0:0:
192,192,65516,1,0,0:0:0:0:
320,192,65568,1,0,0:0:0:0:
448,192,65619,1,0,0:0:0:0:
64,192,65671,1,0,0:0:0:0:
320,192,65722,1,0,0:0:0:0:
64,192,65774,1,0,0:0:0:0:
448,192,65877,1,0,0:0:0:0:
320,192,65910,1,0,0:0:0:0:
192,192,65943,1,0,0:0:0:0:
64,192,65976,1,0,0:0:0:0:
448,192,66009,1,0,0:0:0:0:
320,192,66054,1,0,0:0:0:0:
192,192,66098,1,0,0:0:0:0:
448,192,66142,1,0,0:0:0:0:
64,192,66186,1,0,0:0:0:0:
192,192,66231,1,0,0:0:0:0:
320,192,66275,1,0,0:0:0:0:
64,192,66325,1,0,0:0:0:0:
448,192,66376,1,0,0:0:0:0:
320,192,66427,1,0,0:0:0:0:
64,192,66478,1,0,0:0:0:0:
192,192,66478,1,0,0:0:0:0:
192,192,66579,1,0,0:0:0:0:
448,192,66579,1,0,0:0:0:0:
64,192,66681,1,0,0:0:0:0:
320,192,66681,1,0,0:0:0:0:
320,192,66781,1,0,0:0:0:0:
64,192,66882,1,0,0:0:0:0:
192,192,66882,1,0,0:0:0:0:
192,192,66983,1,0,0:0:0:0:
448,192,66983,1,0,0:0:0:0:
64,192,67085,1,0,0:0:0:0:
320,192,67085,1,0,0:0:0:0:
448,192,67085,1,0,0:0:0:0:
192,192,67186,1,0,0:0:0:0:
320,192,67288,1,0,0:0:0:0:
448,192,67288,1,0,0:0:0:0:
320,192,67389,1,0,0:0:0:0:
448,192,67389,1,0,0:0:0:0:
64,192,67492,1,0,0:0:0:0:
192,192,67492,1,0,0:0:0:0:
64,192,67592,1,0,0:0:0:0:
192,192,67592,1,0,0:0:0:0:
320,192,67693,1,0,0:0:0:0:
448,192,67693,1,0,0:0:0:0:
64,192,67794,1,0,0:0:0:0:
192,192,67794,1,0,0:0:0:0:
64,192,67895,1,0,0:0:0:0:
320,192,67895,1,0,0:0:0:0:
448,192,67895,1,0,0:0:0:0:
192,192,67993,1,0,0:0:0:0:
448,192,67993,1,0,0:0:0:0:
192,192,68092,1,0,0:0:0:0:
192,192,68191,1,0,0:0:0:0:
64,192,68291,1,0,0:0:0:0:
320,192,68291,1,0,0:0:0:0:
320,192,68394,1,0,0:0:0:0:
320,192,68497,1,0,0:0:0:0:
64,192,68600,1,0,0:0:0:0:
192,192,68600,1,0,0:0:0:0:
64,192,68703,1,0,0:0:0:0:
320,192,68703,1,0,0:0:0:0:
448,192,68703,128,0,68805:0:0:0:0:
192,192,68805,1,0,0:0:0:0:
320,192,68907,1,0,0:0:0:0:
448,192,68907,128,0,69009:0:0:0:0:
64,192,69009,1,0,0:0:0:0:
192,192,69009,1,0,0:0:0:0:
320,192,69112,1,0,0:0:0:0:
448,192,69112,128,0,69928:0:0:0:0:
64,192,69170,1,0,0:0:0:0:
192,192,69229,1,0,0:0:0:0:
320,192,69287,1,0,0:0:0:0:
192,192,69346,1,0,0:0:0:0:
64,192,69404,1,0,0:0:0:0:
320,192,69462,1,0,0:0:0:0:
192,192,69521,1,0,0:0:0:0:
320,192,69579,1,0,0:0:0:0:
64,192,69637,1,0,0:0:0:0:
192,192,69695,1,0,0:0:0:0:
320,192,69753,1,0,0:0:0:0:
64,192,69811,1,0,0:0:0:0:
192,192,69869,1,0,0:0:0:0:
320,192,69928,1,0,0:0:0:0:
64,192,70028,1,0,0:0:0:0:
192,192,70028,1,0,0:0:0:0:
448,192,70129,1,0,0:0:0:0:
64,192,70230,1,0,0:0:0:0:
320,192,70230,1,0,0:0:0:0:
192,192,70331,1,0,0:0:0:0:
448,192,70331,1,0,0:0:0:0:
320,192,70412,1,0,0:0:0:0:
64,192,70412,1,0,0:0:0:0:
192,192,70493,1,0,0:0:0:0:
448,192,70493,1,0,0:0:0:0:
64,192,70573,1,0,0:0:0:0:
320,192,70573,1,0,0:0:0:0:
192,192,70654,1,0,0:0:0:0:
448,192,70654,1,0,0:0:0:0:
64,192,70735,1,0,0:0:0:0:
320,192,70735,1,0,0:0:0:0:
192,192,70839,1,0,0:0:0:0:
448,192,70839,1,0,0:0:0:0:
64,192,70943,1,0,0:0:0:0:
320,192,70943,1,0,0:0:0:0:
192,192,71048,1,0,0:0:0:0:
448,192,71048,1,0,0:0:0:0:
64,192,71153,1,0,0:0:0:0:
320,192,71153,1,0,0:0:0:0:
192,192,71252,1,0,0:0:0:0:
448,192,71252,1,0,0:0:0:0:
320,192,71352,1,0,0:0:0:0:
448,192,71352,1,0,0:0:0:0:
64,192,71451,1,0,0:0:0:0:
192,192,71451,1,0,0:0:0:0:
320,192,71551,1,0,0:0:0:0:
448,192,71551,1,0,0:0:0:0:
64,192,71601,1,0,0:0:0:0:
192,192,71651,1,0,0:0:0:0:
320,192,71702,1,0,0:0:0:0:
64,192,71752,1,0,0:0:0:0:
192,192,71803,1,0,0:0:0:0:
320,192,71853,1,0,0:0:0:0:
448,192,71853,1,0,0:0:0:0:
64,192,71955,1,0,0:0:0:0:
192,192,71955,1,0,0:0:0:0:
448,192,71955,1,0,0:0:0:0:
64,192,72058,1,0,0:0:0:0:
192,192,72058,1,0,0:0:0:0:
320,192,72161,1,0,0:0:0:0:
448,192,72161,1,0,0:0:0:0:
320,192,72264,1,0,0:0:0:0:
64,192,72367,1,0,0:0:0:0:
192,192,72367,1,0,0:0:0:0:
448,192,72417,1,0,0:0:0:0:
320,192,72468,1,0,0:0:0:0:
192,192,72519,1,0,0:0:0:0:
64,192,72570,1,0,0:0:0:0:
448,192,72621,1,0,0:0:0:0:
192,192,72671,1,0,0:0:0:0:
320,192,72722,1,0,0:0:0:0:
64,192,72773,1,0,0:0:0:0:
448,192,72773,1,0,0:0:0:0:
320,192,72824,1,0,0:0:0:0:
192,192,72876,1,0,0:0:0:0:
448,192,72927,1,0,0:0:0:0:
64,192,72979,1,0,0:0:0:0:
192,192,73030,1,0,0:0:0:0:
320,192,73082,1,0,0:0:0:0:
448,192,73133,1,0,0:0:0:0:
320,192,73185,1,0,0:0:0:0:
192,192,73235,1,0,0:0:0:0:
64,192,73285,1,0,0:0:0:0:
448,192,73335,1,0,0:0:0:0:
192,192,73385,1,0,0:0:0:0:
320,192,73435,1,0,0:0:0:0:
64,192,73485,1,0,0:0:0:0:
448,192,73485,1,0,0:0:0:0:
64,192,73586,1,0,0:0:0:0:
448,192,73586,1,0,0:0:0:0:
192,192,73687,1,0,0:0:0:0:
320,192,73687,1,0,0:0:0:0:
64,192,73789,1,0,0:0:0:0:
448,192,73789,1,0,0:0:0:0:
192,192,73856,1,0,0:0:0:0:
320,192,73856,1,0,0:0:0:0:
64,192,73993,1,0,0:0:0:0:
448,192,73993,1,0,0:0:0:0:
320,192,74093,1,0,0:0:0:0:
192,192,74143,1,0,0:0:0:0:
320,192,74193,1,0,0:0:0:0:
64,192,74243,1,0,0:0:0:0:
192,192,74293,1,0,0:0:0:0:
64,192,74394,1,0,0:0:0:0:
320,192,74394,1,0,0:0:0:0:
448,192,74394,1,0,0:0:0:0:
192,192,74494,1,0,0:0:0:0:
448,192,74545,1,0,0:0:0:0:
192,192,74595,1,0,0:0:0:0:
448,192,74646,1,0,0:0:0:0:
320,192,74696,1,0,0:0:0:0:
64,192,74797,1,0,0:0:0:0:
192,192,74797,1,0,0:0:0:0:
448,192,74797,1,0,0:0:0:0:
320,192,74898,1,0,0:0:0:0:
64,192,74949,1,0,0:0:0:0:
320,192,74999,1,0,0:0:0:0:
64,192,75050,1,0,0:0:0:0:
192,192,75100,1,0,0:0:0:0:
64,192,75201,1,0,0:0:0:0:
320,192,75201,1,0,0:0:0:0:
448,192,75201,1,0,0:0:0:0:
192,192,75302,1,0,0:0:0:0:
448,192,75353,1,0,0:0:0:0:
192,192,75404,1,0,0:0:0:0:
448,192,75455,1,0,0:0:0:0:
320,192,75505,1,0,0:0:0:0:
64,192,75607,1,0,0:0:0:0:
192,192,75607,1,0,0:0:0:0:
448,192,75675,1,0,0:0:0:0:
320,192,75709,1,0,0:0:0:0:
192,192,75742,1,0,0:0:0:0:
448,192,75810,1,0,0:0:0:0:
64,192,75861,1,0,0:0:0:0:
192,192,75912,1,0,0:0:0:0:
64,192,75963,1,0,0:0:0:0:
320,192,76013,1,0,0:0:0:0:
448,192,76013,1,0,0:0:0:0:
64,192,76115,1,0,0:0:0:0:
320,192,76115,1,0,0:0:0:0:
192,192,76217,1,0,0:0:0:0:
448,192,76217,1,0,0:0:0:0:
192,192,76318,1,0,0:0:0:0:
448,192,76318,1,0,0:0:0:0:
64,192,76421,1,0,0:0:0:0:
320,192,76421,1,0,0:0:0:0:
192,192,76518,1,0,0:0:0:0:
448,192,76518,1,0,0:0:0:0:
64,192,76616,1,0,0:0:0:0:
320,192,76616,1,0,0:0:0:0:
192,192,76713,1,0,0:0:0:0:
448,192,76713,1,0,0:0:0:0:
64,192,76811,1,0,0:0:0:0:
192,192,76811,1,0,0:0:0:0:
320,192,76811,1,0,0:0:0:0:
320,192,76914,1,0,0:0:0:0:
320,192,77018,1,0,0:0:0:0:
192,192,77122,1,0,0:0:0:0:
64,192,77226,1,0,0:0:0:0:
448,192,77259,1,0,0:0:0:0:
320,192,77292,1,0,0:0:0:0:
192,192,77325,1,0,0:0:0:0:
64,192,77358,1,0,0:0:0:0:
448,192,77425,1,0,0:0:0:0:
192,192,77474,1,0,0:0:0:0:
320,192,77524,1,0,0:0:0:0:
64,192,77574,1,0,0:0:0:0:
320,192,77624,1,0,0:0:0:0:
448,192,77624,1,0,0:0:0:0:
64,192,77674,1,0,0:0:0:0:
192,192,77723,1,0,0:0:0:0:
320,192,77773,1,0,0:0:0:0:
448,192,77823,1,0,0:0:0:0:
64,192,77873,1,0,0:0:0:0:
320,192,77923,1,0,0:0:0:0:
192,192,77972,1,0,0:0:0:0:
64,192,78022,1,0,0:0:0:0:
448,192,78072,1,0,0:0:0:0:
192,192,78122,1,0,0:0:0:0:
320,192,78172,1,0,0:0:0:0:
64,192,78221,1,0,0:0:0:0:
448,192,78221,1,0,0:0:0:0:
192,192,78321,1,0,0:0:0:0:
320,192,78321,1,0,0:0:0:0:
64,192,78421,1,0,0:0:0:0:
448,192,78421,1,0,0:0:0:0:
64,192,78520,1,0,0:0:0:0:
192,192,78620,1,0,0:0:0:0:
320,192,78620,1,0,0:0:0:0:
320,192,78719,1,0,0:0:0:0:
64,192,78819,1,0,0:0:0:0:
192,192,78819,1,0,0:0:0:0:
448,192,78863,1,0,0:0:0:0:
320,192,78907,1,0,0:0:0:0:
192,192,78952,1,0,0:0:0:0:
64,192,78996,1,0,0:0:0:0:
448,192,79040,1,0,0:0:0:0:
320,192,79084,1,0,0:0:0:0:
192,192,79129,1,0,0:0:0:0:
64,192,79173,1,0,0:0:0:0:
192,192,79217,1,0,0:0:0:0:
320,192,79261,1,0,0:0:0:0:
448,192,79306,1,0,0:0:0:0:
64,192,79350,1,0,0:0:0:0:
320,192,79416,1,0,0:0:0:0:
192,192,79450,1,0,0:0:0:0:
64,192,79483,1,0,0:0:0:0:
448,192,79549,1,0,0:0:0:0:
192,192,79616,1,0,0:0:0:0:
320,192,79616,1,0,0:0:0:0:
320,192,79715,1,0,0:0:0:0:
64,192,79815,1,0,0:0:0:0:
192,192,79815,1,0,0:0:0:0:
64,192,79914,1,0,0:0:0:0:
192,192,79914,1,0,0:0:0:0:
192,192,80014,1,0,0:0:0:0:
320,192,80014,1,0,0:0:0:0:
448,192,80014,1,0,0:0:0:0:
320,192,80113,1,0,0:0:0:0:
64,192,80213,1,0,0:0:0:0:
448,192,80238,1,0,0:0:0:0:
320,192,80279,1,0,0:0:0:0:
192,192,80324,1,0,0:0:0:0:
448,192,80368,1,0,0:0:0:0:
64,192,80412,1,0,0:0:0:0:
192,192,80456,1,0,0:0:0:0:
320,192,80501,1,0,0:0:0:0:
448,192,80545,1,0,0:0:0:0:
64,192,80611,1,0,0:0:0:0:
192,192,80645,1,0,0:0:0:0:
320,192,80711,1,0,0:0:0:0:
448,192,80711,1,0,0:0:0:0:
64,192,80811,1,0,0:0:0:0:
320,192,80861,1,0,0:0:0:0:
64,192,80911,1,0,0:0:0:0:
192,192,80961,1,0,0:0:0:0:
448,192,81011,1,0,0:0:0:0:
320,192,81061,1,0,0:0:0:0:
448,192,81111,1,0,0:0:0:0:
320,192,81161,1,0,0:0:0:0:
64,192,81211,1,0,0:0:0:0:
192,192,81211,1,0,0:0:0:0:
448,192,81262,1,0,0:0:0:0:
64,192,81312,1,0,0:0:0:0:
320,192,81362,1,0,0:0:0:0:
192,192,81412,1,0,0:0:0:0:
64,192,81462,1,0,0:0:0:0:
448,192,81512,1,0,0:0:0:0:
320,192,81562,1,0,0:0:0:0:
64,192,81613,1,0,0:0:0:0:
192,192,81613,1,0,0:0:0:0:
320,192,81712,1,0,0:0:0:0:
448,192,81712,1,0,0:0:0:0:
64,192,81812,1,0,0:0:0:0:
192,192,81812,1,0,0:0:0:0:
448,192,81861,1,0,0:0:0:0:
320,192,81911,1,0,0:0:0:0:
192,192,81961,1,0,0:0:0:0:
448,192,82011,1,0,0:0:0:0:
64,192,82047,1,0,0:0:0:0:
192,192,82083,1,0,0:0:0:0:
320,192,82119,1,0,0:0:0:0:
448,192,82155,1,0,0:0:0:0:
64,192,82227,1,0,0:0:0:0:
320,192,82335,1,0,0:0:0:0:
64,192,82444,1,0,0:0:0:0:
192,192,82444,1,0,0:0:0:0:
448,192,82444,1,0,0:0:0:0:
192,192,82540,1,0,0:0:0:0:
320,192,82615,1,0,0:0:0:0:
448,192,82658,1,0,0:0:0:0:
64,192,82701,1,0,0:0:0:0:
320,192,82743,1,0,0:0:0:0:
192,192,82786,1,0,0:0:0:0:
64,192,82829,1,0,0:0:0:0:
448,192,82876,1,0,0:0:0:0:
320,192,82923,1,0,0:0:0:0:
64,192,83040,1,0,0:0:0:0:
192,192,83040,1,0,0:0:0:0:
64,192,83250,1,0,0:0:0:0:
192,192,83250,1,0,0:0:0:0:
448,192,83250,1,0,0:0:0:0:
192,192,83350,1,0,0:0:0:0:
320,192,83350,1,0,0:0:0:0:
64,192,83451,1,0,0:0:0:0:
448,192,83451,1,0,0:0:0:0:
192,192,83519,1,0,0:0:0:0:
320,192,83519,1,0,0:0:0:0:
192,192,83653,1,0,0:0:0:0:
448,192,83653,1,0,0:0:0:0:
64,192,83805,1,0,0:0:0:0:
320,192,83805,1,0,0:0:0:0:
448,192,83956,1,0,0:0:0:0:
64,192,84058,1,0,0:0:0:0:
192,192,84058,1,0,0:0:0:0:
320,192,84058,1,0,0:0:0:0:
320,192,84161,1,0,0:0:0:0:
192,192,84212,1,0,0:0:0:0:
64,192,84264,1,0,0:0:0:0:
448,192,84315,1,0,0:0:0:0:
64,192,84367,1,0,0:0:0:0:
192,192,84418,1,0,0:0:0:0:
320,192,84470,1,0,0:0:0:0:
64,192,84519,1,0,0:0:0:0:
448,192,84569,1,0,0:0:0:0:
192,192,84619,1,0,0:0:0:0:
320,192,84669,1,0,0:0:0:0:
64,192,84718,1,0,0:0:0:0:
192,192,84768,1,0,0:0:0:0:
320,192,84818,1,0,0:0:0:0:
64,192,84868,1,0,0:0:0:0:
448,192,84868,1,0,0:0:0:0:
192,192,84920,1,0,0:0:0:0:
448,192,84972,1,0,0:0:0:0:
64,192,85076,1,0,0:0:0:0:
320,192,85076,1,0,0:0:0:0:
320,192,85166,1,0,0:0:0:0:
64,192,85286,1,0,0:0:0:0:
448,192,85286,1,0,0:0:0:0:
320,192,85351,1,0,0:0:0:0:
192,192,85416,1,0,0:0:0:0:
64,192,85481,1,0,0:0:0:0:
448,192,85481,1,0,0:0:0:0:
192,192,85546,1,0,0:0:0:0:
320,192,85611,1,0,0:0:0:0:
64,192,85676,1,0,0:0:0:0:
192,192,85676,1,0,0:0:0:0:
448,192,85676,1,0,0:0:0:0:
320,192,85744,1,0,0:0:0:0:
192,192,85813,1,0,0:0:0:0:
448,192,85882,1,0,0:0:0:0:
64,192,85904,1,0,0:0:0:0:
192,192,85950,1,0,0:0:0:0:
320,192,85996,1,0,0:0:0:0:
448,192,86042,1,0,0:0:0:0:
64,192,86088,1,0,0:0:0:0:
320,192,86132,1,0,0:0:0:0:
192,192,86188,1,0,0:0:0:0:
192,192,86289,1,0,0:0:0:0:
448,192,86289,1,0,0:0:0:0:
64,192,86390,1,0,0:0:0:0:
320,192,86390,1,0,0:0:0:0:
192,192,86491,1,0,0:0:0:0:
320,192,86491,1,0,0:0:0:0:
448,192,86491,1,0,0:0:0:0:
64,192,86693,1,0,0:0:0:0:
448,192,86693,1,0,0:0:0:0:
192,192,86794,1,0,0:0:0:0:
320,192,86895,1,0,0:0:0:0:
448,192,86895,1,0,0:0:0:0:
64,192,86996,1,0,0:0:0:0:
320,192,86996,1,0,0:0:0:0:
64,192,87097,1,0,0:0:0:0:
192,192,87097,1,0,0:0:0:0:
320,192,87198,1,0,0:0:0:0:
448,192,87198,1,0,0:0:0:0:
64,192,87299,1,0,0:0:0:0:
192,192,87299,1,0,0:0:0:0:
448,192,87299,1,0,0:0:0:0:
64,192,87400,1,0,0:0:0:0:
320,192,87400,1,0,0:0:0:0:
192,192,87500,1,0,0:0:0:0:
448,192,87500,1,0,0:0:0:0:
64,192,87601,1,0,0:0:0:0:
320,192,87601,1,0,0:0:0:0:
192,192,87702,1,0,0:0:0:0:
448,192,87702,1,0,0:0:0:0:
320,192,87753,1,0,0:0:0:0:
64,192,87803,1,0,0:0:0:0:
448,192,87854,1,0,0:0:0:0:
320,192,87904,1,0,0:0:0:0:
64,192,87955,1,0,0:0:0:0:
192,192,88005,1,0,0:0:0:0:
64,192,88056,1,0,0:0:0:0:
192,192,88106,1,0,0:0:0:0:
320,192,88106,1,0,0:0:0:0:
448,192,88106,1,0,0:0:0:0:
320,192,88241,1,0,0:0:0:0:
448,192,88241,1,0,0:0:0:0:
320,192,88375,1,0,0:0:0:0:
448,192,88375,1,0,0:0:0:0:
64,192,88510,1,0,0:0:0:0:
192,192,88510,1,0,0:0:0:0:
64,192,88611,1,0,0:0:0:0:
192,192,88611,1,0,0:0:0:0:
320,192,88712,1,0,0:0:0:0:
448,192,88712,1,0,0:0:0:0:
320,192,88812,1,0,0:0:0:0:
64,192,88914,1,0,0:0:0:0:
192,192,88914,1,0,0:0:0:0:
448,192,88914,1,0,0:0:0:0:
320,192,89014,1,0,0:0:0:0:
64,192,89114,1,0,0:0:0:0:
320,192,89114,1,0,0:0:0:0:
192,192,89214,1,0,0:0:0:0:
64,192,89314,1,0,0:0:0:0:
448,192,89314,1,0,0:0:0:0:
64,192,89415,1,0,0:0:0:0:
192,192,89415,1,0,0:0:0:0:
320,192,89515,1,0,0:0:0:0:
448,192,89515,1,0,0:0:0:0:
320,192,89615,1,0,0:0:0:0:
64,192,89716,1,0,0:0:0:0:
192,192,89716,1,0,0:0:0:0:
448,192,89716,1,0,0:0:0:0:
192,192,89817,1,0,0:0:0:0:
320,192,89817,1,0,0:0:0:0:
320,192,89919,1,0,0:0:0:0:
64,192,90020,1,0,0:0:0:0:
192,192,90020,1,0,0:0:0:0:
64,192,90123,1,0,0:0:0:0:
320,192,90123,1,0,0:0:0:0:
320,192,90222,1,0,0:0:0:0:
64,192,90322,1,0,0:0:0:0:
448,192,90322,1,0,0:0:0:0:
192,192,90421,1,0,0:0:0:0:
320,192,90421,1,0,0:0:0:0:
320,192,90521,1,0,0:0:0:0:
448,192,90521,1,0,0:0:0:0:
64,192,90589,1,0,0:0:0:0:
192,192,90624,1,0,0:0:0:0:
320,192,90658,1,0,0:0:0:0:
64,192,90692,1,0,0:0:0:0:
448,192,90727,1,0,0:0:0:0:
192,192,90795,1,0,0:0:0:0:
320,192,90830,1,0,0:0:0:0:
448,192,90864,1,0,0:0:0:0:
64,192,90933,1,0,0:0:0:0:
192,192,90933,1,0,0:0:0:0:
192,192,91033,1,0,0:0:0:0:
64,192,91133,1,0,0:0:0:0:
448,192,91133,1,0,0:0:0:0:
320,192,91166,1,0,0:0:0:0:
448,192,91267,1,0,0:0:0:0:
320,192,91300,1,0,0:0:0:0:
64,192,91334,1,0,0:0:0:0:
192,192,91334,1,0,0:0:0:0:
448,192,91401,1,0,0:0:0:0:
320,192,91434,1,0,0:0:0:0:
192,192,91468,1,0,0:0:0:0:
64,192,91502,1,0,0:0:0:0:
192,192,91603,1,0,0:0:0:0:
320,192,91737,1,0,0:0:0:0:
448,192,91737,1,0,0:0:0:0:
192,192,91838,1,0,0:0:0:0:
64,192,91939,1,0,0:0:0:0:
448,192,91939,1,0,0:0:0:0:
192,192,91990,1,0,0:0:0:0:
320,192,92040,1,0,0:0:0:0:
192,192,92090,1,0,0:0:0:0:
448,192,92141,1,0,0:0:0:0:
64,192,92186,1,0,0:0:0:0:
192,192,92231,1,0,0:0:0:0:
320,192,92275,1,0,0:0:0:0:
64,192,92320,1,0,0:0:0:0:
448,192,92365,1,0,0:0:0:0:
320,192,92410,1,0,0:0:0:0:
192,192,92455,1,0,0:0:0:0:
64,192,92500,1,0,0:0:0:0:
320,192,92545,1,0,0:0:0:0:
448,192,92545,1,0,0:0:0:0:
192,192,92646,1,0,0:0:0:0:
64,192,92746,1,0,0:0:0:0:
448,192,92746,1,0,0:0:0:0:
320,192,92847,1,0,0:0:0:0:
64,192,92948,1,0,0:0:0:0:
192,192,92948,1,0,0:0:0:0:
448,192,92948,1,0,0:0:0:0:
64,192,93049,1,0,0:0:0:0:
320,192,93049,1,0,0:0:0:0:
192,192,93150,1,0,0:0:0:0:
448,192,93201,1,0,0:0:0:0:
320,192,93251,1,0,0:0:0:0:
448,192,93302,1,0,0:0:0:0:
192,192,93352,1,0,0:0:0:0:
320,192,93352,1,0,0:0:0:0:
64,192,93431,1,0,0:0:0:0:
192,192,93511,1,0,0:0:0:0:
64,192,93591,1,0,0:0:0:0:
192,192,93670,1,0,0:0:0:0:
64,192,93751,1,0,0:0:0:0:
320,192,93751,1,0,0:0:0:0:
448,192,93751,1,0,0:0:0:0:
192,192,93831,1,0,0:0:0:0:
64,192,93911,1,0,0:0:0:0:
192,192,93991,1,0,0:0:0:0:
64,192,94071,1,0,0:0:0:0:
192,192,94152,1,0,0:0:0:0:
64,192,94228,1,0,0:0:0:0:
192,192,94305,1,0,0:0:0:0:
64,192,94381,1,0,0:0:0:0:
192,192,94458,1,0,0:0:0:0:
64,192,94535,1,0,0:0:0:0:
320,192,94535,128,0,94829:0:0:0:0:
448,192,94535,128,0,94829:0:0:0:0:
64,192,94928,128,0,95149:0:0:0:0:
192,192,94928,128,0,95149:0:0:0:0:
320,192,94928,128,0,95149:0:0:0:0:
448,192,94928,128,0,95149:0:0:0:0:
320,192,95204,1,0,0:0:0:0:
64,192,95370,1,0,0:0:0:0:
192,192,95370,1,0,0:0:0:0:
320,192,95370,1,0,0:0:0:0:
64,192,95472,1,0,0:0:0:0:
320,192,95472,1,0,0:0:0:0:
448,192,95472,1,0,0:0:0:0:
192,192,95574,1,0,0:0:0:0:
64,192,95676,1,0,0:0:0:0:
320,192,95676,1,0,0:0:0:0:
448,192,95676,1,0,0:0:0:0:
320,192,95779,1,0,0:0:0:0:
64,192,95881,1,0,0:0:0:0:
192,192,95881,1,0,0:0:0:0:
448,192,95881,1,0,0:0:0:0:
192,192,95983,1,0,0:0:0:0:
64,192,96086,1,0,0:0:0:0:
320,192,96086,1,0,0:0:0:0:
448,192,96086,1,0,0:0:0:0:
64,192,96188,128,0,96393:0:0:0:0:
192,192,96188,1,0,0:0:0:0:
448,192,96188,1,0,0:0:0:0:
320,192,96290,1,0,0:0:0:0:
192,192,96393,1,0,0:0:0:0:
320,192,96393,1,0,0:0:0:0:
448,192,96393,1,0,0:0:0:0:
64,192,96598,1,0,0:0:0:0:
320,192,96598,128,0,96797:0:0:0:0:
448,192,96598,1,0,0:0:0:0:
192,192,96697,1,0,0:0:0:0:
64,192,96797,1,0,0:0:0:0:
192,192,96896,128,0,97095:0:0:0:0:
320,192,96896,1,0,0:0:0:0:
448,192,96896,1,0,0:0:0:0:
448,192,96996,1,0,0:0:0:0:
64,192,97095,1,0,0:0:0:0:
192,192,97195,1,0,0:0:0:0:
320,192,97195,1,0,0:0:0:0:
448,192,97195,128,0,97495:0:0:0:0:
64,192,97295,1,0,0:0:0:0:
320,192,97395,1,0,0:0:0:0:
192,192,97495,1,0,0:0:0:0:
64,192,97596,1,0,0:0:0:0:
320,192,97596,1,0,0:0:0:0:
448,192,97596,1,0,0:0:0:0:
320,192,97697,1,0,0:0:0:0:
64,192,97798,1,0,0:0:0:0:
192,192,97798,1,0,0:0:0:0:
448,192,97798,1,0,0:0:0:0:
192,192,97901,1,0,0:0:0:0:
64,192,98004,1,0,0:0:0:0:
320,192,98004,1,0,0:0:0:0:
448,192,98004,1,0,0:0:0:0:
320,192,98107,1,0,0:0:0:0:
64,192,98210,1,0,0:0:0:0:
192,192,98210,1,0,0:0:0:0:
448,192,98310,1,0,0:0:0:0:
64,192,98411,1,0,0:0:0:0:
192,192,98411,1,0,0:0:0:0:
320,192,98411,1,0,0:0:0:0:
192,192,98512,1,0,0:0:0:0:
64,192,98613,1,0,0:0:0:0:
320,192,98613,1,0,0:0:0:0:
448,192,98613,1,0,0:0:0:0:
448,192,98714,1,0,0:0:0:0:
320,192,98815,1,0,0:0:0:0:
192,192,98916,1,0,0:0:0:0:
64,192,99018,1,0,0:0:0:0:
320,192,99018,1,0,0:0:0:0:
448,192,99018,1,0,0:0:0:0:
64,192,99116,1,0,0:0:0:0:
192,192,99215,1,0,0:0:0:0:
320,192,99215,1,0,0:0:0:0:
448,192,99215,1,0,0:0:0:0:
192,192,99314,1,0,0:0:0:0:
448,192,99413,1,0,0:0:0:0:
64,192,99513,1,0,0:0:0:0:
192,192,99613,1,0,0:0:0:0:
320,192,99613,1,0,0:0:0:0:
448,192,99613,1,0,0:0:0:0:
192,192,99713,1,0,0:0:0:0:
64,192,99814,1,0,0:0:0:0:
320,192,99814,1,0,0:0:0:0:
448,192,99814,1,0,0:0:0:0:
448,192,99914,1,0,0:0:0:0:
320,192,100015,1,0,0:0:0:0:
64,192,100116,1,0,0:0:0:0:
192,192,100218,1,0,0:0:0:0:
320,192,100218,1,0,0:0:0:0:
448,192,100218,1,0,0:0:0:0:
192,192,100320,1,0,0:0:0:0:
64,192,100422,1,0,0:0:0:0:
320,192,100422,1,0,0:0:0:0:
448,192,100422,1,0,0:0:0:0:
448,192,100524,1,0,0:0:0:0:
320,192,100627,1,0,0:0:0:0:
192,192,100725,1,0,0:0:0:0:
64,192,100824,1,0,0:0:0:0:
320,192,100824,1,0,0:0:0:0:
448,192,100824,1,0,0:0:0:0:
64,192,100923,1,0,0:0:0:0:
192,192,101023,1,0,0:0:0:0:
320,192,101023,1,0,0:0:0:0:
448,192,101023,1,0,0:0:0:0:
448,192,101128,1,0,0:0:0:0:
64,192,101233,1,0,0:0:0:0:
192,192,101233,1,0,0:0:0:0:
320,192,101233,1,0,0:0:0:0:
448,192,101338,1,0,0:0:0:0:
64,192,101444,1,0,0:0:0:0:
192,192,101444,1,0,0:0:0:0:
320,192,101444,1,0,0:0:0:0:
64,192,101544,1,0,0:0:0:0:
192,192,101644,1,0,0:0:0:0:
320,192,101644,1,0,0:0:0:0:
448,192,101644,1,0,0:0:0:0:
320,192,101744,1,0,0:0:0:0:
64,192,101845,1,0,0:0:0:0:
192,192,101845,1,0,0:0:0:0:
448,192,101945,1,0,0:0:0:0:
64,192,102046,1,0,0:0:0:0:
192,192,102046,1,0,0:0:0:0:
320,192,102046,1,0,0:0:0:0:
192,192,102147,1,0,0:0:0:0:
64,192,102248,1,0,0:0:0:0:
320,192,102248,1,0,0:0:0:0:
448,192,102248,1,0,0:0:0:0:
320,192,102349,1,0,0:0:0:0:
192,192,102450,1,0,0:0:0:0:
64,192,102551,1,0,0:0:0:0:
192,192,102652,1,0,0:0:0:0:
320,192,102652,1,0,0:0:0:0:
448,192,102652,1,0,0:0:0:0:
448,192,102755,1,0,0:0:0:0:
64,192,102859,1,0,0:0:0:0:
192,192,102859,1,0,0:0:0:0:
320,192,102859,1,0,0:0:0:0:
64,192,102963,1,0,0:0:0:0:
448,192,103067,1,0,0:0:0:0:
64,192,103167,1,0,0:0:0:0:
192,192,103267,1,0,0:0:0:0:
320,192,103267,1,0,0:0:0:0:
448,192,103267,1,0,0:0:0:0:
192,192,103367,1,0,0:0:0:0:
64,192,103467,1,0,0:0:0:0:
320,192,103467,1,0,0:0:0:0:
448,192,103467,1,0,0:0:0:0:
448,192,103568,1,0,0:0:0:0:
64,192,103668,1,0,0:0:0:0:
192,192,103768,1,0,0:0:0:0:
64,192,103869,1,0,0:0:0:0:
320,192,103869,1,0,0:0:0:0:
448,192,103869,1,0,0:0:0:0:
320,192,103969,1,0,0:0:0:0:
64,192,104070,1,0,0:0:0:0:
192,192,104070,1,0,0:0:0:0:
448,192,104070,1,0,0:0:0:0:
64,192,104171,1,0,0:0:0:0:
320,192,104273,1,0,0:0:0:0:
448,192,104374,1,0,0:0:0:0:
64,192,104476,1,0,0:0:0:0:
192,192,104476,1,0,0:0:0:0:
320,192,104476,1,0,0:0:0:0:
192,192,104577,1,0,0:0:0:0:
64,192,104679,1,0,0:0:0:0:
320,192,104679,1,0,0:0:0:0:
448,192,104679,1,0,0:0:0:0:
320,192,104779,1,0,0:0:0:0:
64,192,104879,1,0,0:0:0:0:
192,192,104979,1,0,0:0:0:0:
64,192,105079,1,0,0:0:0:0:
320,192,105079,1,0,0:0:0:0:
448,192,105079,1,0,0:0:0:0:
448,192,105180,1,0,0:0:0:0:
64,192,105280,1,0,0:0:0:0:
192,192,105280,1,0,0:0:0:0:
320,192,105280,1,0,0:0:0:0:
192,192,105380,1,0,0:0:0:0:
448,192,105481,1,0,0:0:0:0:
320,192,105580,1,0,0:0:0:0:
64,192,105680,1,0,0:0:0:0:
192,192,105680,1,0,0:0:0:0:
448,192,105680,1,0,0:0:0:0:
64,192,105779,1,0,0:0:0:0:
192,192,105879,1,0,0:0:0:0:
320,192,105879,1,0,0:0:0:0:
448,192,105879,1,0,0:0:0:0:
320,192,105979,1,0,0:0:0:0:
64,192,106079,1,0,0:0:0:0:
192,192,106079,1,0,0:0:0:0:
448,192,106179,1,0,0:0:0:0:
64,192,106280,1,0,0:0:0:0:
192,192,106280,1,0,0:0:0:0:
320,192,106280,1,0,0:0:0:0:
192,192,106378,1,0,0:0:0:0:
64,192,106477,1,0,0:0:0:0:
320,192,106477,1,0,0:0:0:0:
448,192,106477,1,0,0:0:0:0:
320,192,106576,1,0,0:0:0:0:
192,192,106676,1,0,0:0:0:0:
64,192,106770,1,0,0:0:0:0:
192,192,106865,1,0,0:0:0:0:
320,192,106865,1,0,0:0:0:0:
448,192,106865,1,0,0:0:0:0:
192,192,106959,1,0,0:0:0:0:
64,192,107054,1,0,0:0:0:0:
320,192,107054,1,0,0:0:0:0:
448,192,107054,1,0,0:0:0:0:
320,192,107151,1,0,0:0:0:0:
64,192,107249,1,0,0:0:0:0:
192,192,107249,1,0,0:0:0:0:
448,192,107249,1,0,0:0:0:0:
448,192,107346,1,0,0:0:0:0:
64,192,107445,1,0,0:0:0:0:
192,192,107445,1,0,0:0:0:0:
320,192,107445,1,0,0:0:0:0:
192,192,107546,1,0,0:0:0:0:
64,192,107648,1,0,0:0:0:0:
320,192,107648,1,0,0:0:0:0:
448,192,107648,1,0,0:0:0:0:
64,192,107749,1,0,0:0:0:0:
192,192,107851,1,0,0:0:0:0:
320,192,107851,128,0,108052:0:0:0:0:
448,192,107851,128,0,107951:0:0:0:0:
64,192,108052,1,0,0:0:0:0:
192,192,108153,1,0,0:0:0:0:
320,192,108254,1,0,0:0:0:0:
448,192,108254,1,0,0:0:0:0:
192,192,108335,1,0,0:0:0:0:
320,192,108416,1,0,0:0:0:0:
448,192,108416,1,0,0:0:0:0:
192,192,108496,1,0,0:0:0:0:
320,192,108577,1,0,0:0:0:0:
448,192,108577,1,0,0:0:0:0:
192,192,108659,1,0,0:0:0:0:
448,192,108737,1,0,0:0:0:0:
320,192,108737,1,0,0:0:0:0:
192,192,108815,1,0,0:0:0:0:
448,192,108893,1,0,0:0:0:0:
320,192,108893,1,0,0:0:0:0:
192,192,108971,1,0,0:0:0:0:
64,192,109049,1,0,0:0:0:0:
320,192,109049,1,0,0:0:0:0:
448,192,109049,1,0,0:0:0:0:
192,192,109126,1,0,0:0:0:0:
320,192,109204,1,0,0:0:0:0:
448,192,109204,1,0,0:0:0:0:
64,192,109437,1,0,0:0:0:0:
192,192,109482,1,0,0:0:0:0:
320,192,109527,1,0,0:0:0:0:
448,192,109572,1,0,0:0:0:0:
64,192,109617,1,0,0:0:0:0:
320,192,109662,1,0,0:0:0:0:
192,192,109707,1,0,0:0:0:0:
448,192,109753,1,0,0:0:0:0:
64,192,109798,1,0,0:0:0:0:
192,192,109844,1,0,0:0:0:0:
448,192,109889,1,0,0:0:0:0:
320,192,109935,1,0,0:0:0:0:
192,192,109981,1,0,0:0:0:0:
448,192,110027,1,0,0:0:0:0:
64,192,110164,1,0,0:0:0:0:
192,192,110210,1,0,0:0:0:0:
320,192,110256,1,0,0:0:0:0:
448,192,110256,1,0,0:0:0:0:
64,192,110305,1,0,0:0:0:0:
320,192,110354,1,0,0:0:0:0:
192,192,110404,1,0,0:0:0:0:
448,192,110453,1,0,0:0:0:0:
64,192,110552,1,0,0:0:0:0:
192,192,110652,1,0,0:0:0:0:
320,192,110652,1,0,0:0:0:0:
448,192,110652,1,0,0:0:0:0:
64,192,110753,1,0,0:0:0:0:
448,192,110804,1,0,0:0:0:0:
320,192,110855,1,0,0:0:0:0:
64,192,110906,1,0,0:0:0:0:
192,192,110956,1,0,0:0:0:0:
320,192,111058,1,0,0:0:0:0:
448,192,111058,1,0,0:0:0:0:
64,192,111158,1,0,0:0:0:0:
192,192,111158,1,0,0:0:0:0:
320,192,111258,1,0,0:0:0:0:
448,192,111258,1,0,0:0:0:0:
64,192,111358,1,0,0:0:0:0:
192,192,111358,1,0,0:0:0:0:
320,192,111459,1,0,0:0:0:0:
448,192,111459,1,0,0:0:0:0:
320,192,111559,1,0,0:0:0:0:
448,192,111559,1,0,0:0:0:0:
64,192,111660,1,0,0:0:0:0:
192,192,111683,1,0,0:0:0:0:
320,192,111728,1,0,0:0:0:0:
64,192,111772,1,0,0:0:0:0:
448,192,111817,1,0,0:0:0:0:
320,192,111863,1,0,0:0:0:0:
192,192,111906,1,0,0:0:0:0:
64,192,111949,1,0,0:0:0:0:
448,192,111993,1,0,0:0:0:0:
192,192,112036,1,0,0:0:0:0:
320,192,112079,1,0,0:0:0:0:
64,192,112123,1,0,0:0:0:0:
448,192,112166,1,0,0:0:0:0:
320,192,112210,1,0,0:0:0:0:
64,192,112253,1,0,0:0:0:0:
192,192,112253,1,0,0:0:0:0:
448,192,112467,1,0,0:0:0:0:
64,192,112491,1,0,0:0:0:0:
320,192,112539,1,0,0:0:0:0:
192,192,112587,1,0,0:0:0:0:
448,192,112634,1,0,0:0:0:0:
320,192,112683,1,0,0:0:0:0:
64,192,112732,1,0,0:0:0:0:
192,192,112781,1,0,0:0:0:0:
320,192,112830,1,0,0:0:0:0:
64,192,112879,1,0,0:0:0:0:
448,192,112879,1,0,0:0:0:0:
192,192,112977,1,0,0:0:0:0:
64,192,113076,1,0,0:0:0:0:
320,192,113076,1,0,0:0:0:0:
448,192,113076,1,0,0:0:0:0:
320,192,113174,1,0,0:0:0:0:
448,192,113174,1,0,0:0:0:0:
192,192,113370,1,0,0:0:0:0:
320,192,113370,1,0,0:0:0:0:
448,192,113444,1,0,0:0:0:0:
64,192,113444,1,0,0:0:0:0:
192,192,113519,1,0,0:0:0:0:
320,192,113519,1,0,0:0:0:0:
64,192,113595,1,0,0:0:0:0:
448,192,113595,1,0,0:0:0:0:
192,192,113670,1,0,0:0:0:0:
320,192,113670,1,0,0:0:0:0:
64,192,113872,128,0,114074:0:0:0:0:
320,192,113872,1,0,0:0:0:0:
448,192,113872,128,0,114074:0:0:0:0:
192,192,114074,128,0,114277:0:0:0:0:
320,192,114074,128,0,114277:0:0:0:0:
64,192,114277,1,0,0:0:0:0:
448,192,114277,1,0,0:0:0:0:
64,192,114483,1,0,0:0:0:0:
192,192,114483,1,0,0:0:0:0:
448,192,114483,1,0,0:0:0:0:
192,192,114586,1,0,0:0:0:0:
64,192,114689,1,0,0:0:0:0:
320,192,114689,1,0,0:0:0:0:
448,192,114689,1,0,0:0:0:0:
320,192,114792,1,0,0:0:0:0:
448,192,114792,1,0,0:0:0:0:
192,192,114895,1,0,0:0:0:0:
64,192,114998,1,0,0:0:0:0:
320,192,114998,1,0,0:0:0:0:
448,192,114998,1,0,0:0:0:0:
64,192,115101,1,0,0:0:0:0:
448,192,115101,1,0,0:0:0:0:
320,192,115203,1,0,0:0:0:0:
64,192,115305,1,0,0:0:0:0:
192,192,115305,1,0,0:0:0:0:
448,192,115305,1,0,0:0:0:0:
64,192,115407,1,0,0:0:0:0:
192,192,115407,1,0,0:0:0:0:
320,192,115510,1,0,0:0:0:0:
64,192,115614,1,0,0:0:0:0:
192,192,115614,1,0,0:0:0:0:
448,192,115614,1,0,0:0:0:0:
64,192,115718,1,0,0:0:0:0:
448,192,115718,1,0,0:0:0:0:
192,192,115823,1,0,0:0:0:0:
64,192,115928,1,0,0:0:0:0:
320,192,115928,1,0,0:0:0:0:
448,192,115928,1,0,0:0:0:0:
320,192,116029,1,0,0:0:0:0:
448,192,116029,1,0,0:0:0:0:
192,192,116131,1,0,0:0:0:0:
64,192,116232,1,0,0:0:0:0:
320,192,116232,1,0,0:0:0:0:
448,192,116232,1,0,0:0:0:0:
64,192,116334,1,0,0:0:0:0:
448,192,116334,1,0,0:0:0:0:
320,192,116433,1,0,0:0:0:0:
64,192,116533,1,0,0:0:0:0:
192,192,116533,1,0,0:0:0:0:
448,192,116533,1,0,0:0:0:0:
64,192,116632,1,0,0:0:0:0:
192,192,116632,1,0,0:0:0:0:
320,192,116732,1,0,0:0:0:0:
64,192,116831,1,0,0:0:0:0:
192,192,116831,1,0,0:0:0:0:
448,192,116831,1,0,0:0:0:0:
64,192,116931,1,0,0:0:0:0:
448,192,116931,1,0,0:0:0:0:
192,192,117031,1,0,0:0:0:0:
64,192,117130,1,0,0:0:0:0:
320,192,117130,1,0,0:0:0:0:
448,192,117130,1,0,0:0:0:0:
320,192,117230,1,0,0:0:0:0:
448,192,117230,1,0,0:0:0:0:
192,192,117329,1,0,0:0:0:0:
64,192,117429,1,0,0:0:0:0:
320,192,117429,1,0,0:0:0:0:
448,192,117429,1,0,0:0:0:0:
64,192,117529,1,0,0:0:0:0:
448,192,117529,1,0,0:0:0:0:
320,192,117629,1,0,0:0:0:0:
64,192,117730,1,0,0:0:0:0:
192,192,117730,1,0,0:0:0:0:
448,192,117730,1,0,0:0:0:0:
64,192,117831,1,0,0:0:0:0:
192,192,117831,1,0,0:0:0:0:
320,192,117932,1,0,0:0:0:0:
64,192,118033,1,0,0:0:0:0:
192,192,118033,1,0,0:0:0:0:
448,192,118033,1,0,0:0:0:0:
64,192,118134,1,0,0:0:0:0:
448,192,118134,1,0,0:0:0:0:
192,192,118235,1,0,0:0:0:0:
64,192,118336,1,0,0:0:0:0:
320,192,118336,1,0,0:0:0:0:
448,192,118336,1,0,0:0:0:0:
320,192,118436,1,0,0:0:0:0:
448,192,118436,1,0,0:0:0:0:
192,192,118536,1,0,0:0:0:0:
64,192,118636,1,0,0:0:0:0:
320,192,118636,1,0,0:0:0:0:
448,192,118636,1,0,0:0:0:0:
64,192,118736,1,0,0:0:0:0:
448,192,118736,1,0,0:0:0:0:
320,192,118837,1,0,0:0:0:0:
64,192,118937,1,0,0:0:0:0:
192,192,118937,1,0,0:0:0:0:
448,192,118937,1,0,0:0:0:0:
64,192,119037,1,0,0:0:0:0:
192,192,119037,1,0,0:0:0:0:
320,192,119138,1,0,0:0:0:0:
64,192,119238,1,0,0:0:0:0:
192,192,119238,1,0,0:0:0:0:
448,192,119238,1,0,0:0:0:0:
64,192,119339,1,0,0:0:0:0:
448,192,119339,1,0,0:0:0:0:
192,192,119440,1,0,0:0:0:0:
320,192,119440,1,0,0:0:0:0:
320,192,119542,1,0,0:0:0:0:
448,192,119542,128,0,120148:0:0:0:0:
64,192,119610,1,0,0:0:0:0:
192,192,119678,1,0,0:0:0:0:
320,192,119746,1,0,0:0:0:0:
192,192,119814,1,0,0:0:0:0:
64,192,119883,1,0,0:0:0:0:
192,192,119951,1,0,0:0:0:0:
320,192,120016,1,0,0:0:0:0:
192,192,120082,1,0,0:0:0:0:
64,192,120148,1,0,0:0:0:0:
320,192,120148,1,0,0:0:0:0:
192,192,120247,1,0,0:0:0:0:
64,192,120347,1,0,0:0:0:0:
448,192,120347,1,0,0:0:0:0:
320,192,120403,1,0,0:0:0:0:
448,192,120460,1,0,0:0:0:0:
192,192,120517,1,0,0:0:0:0:
320,192,120574,1,0,0:0:0:0:
64,192,120631,1,0,0:0:0:0:
192,192,120688,1,0,0:0:0:0:
64,192,120745,1,0,0:0:0:0:
448,192,120745,1,0,0:0:0:0:
320,192,120949,1,0,0:0:0:0:
192,192,121000,1,0,0:0:0:0:
64,192,121051,1,0,0:0:0:0:
192,192,121103,1,0,0:0:0:0:
320,192,121154,1,0,0:0:0:0:
448,192,121154,1,0,0:0:0:0:
64,192,121205,1,0,0:0:0:0:
192,192,121256,1,0,0:0:0:0:
320,192,121307,1,0,0:0:0:0:
64,192,121358,1,0,0:0:0:0:
448,192,121409,1,0,0:0:0:0:
192,192,121461,1,0,0:0:0:0:
320,192,121512,1,0,0:0:0:0:
448,192,121563,1,0,0:0:0:0:
64,192,121614,1,0,0:0:0:0:
192,192,121665,1,0,0:0:0:0:
320,192,121716,1,0,0:0:0:0:
192,192,121768,1,0,0:0:0:0:
320,192,121819,1,0,0:0:0:0:
448,192,121870,1,0,0:0:0:0:
64,192,121921,1,0,0:0:0:0:
192,192,121973,1,0,0:0:0:0:
320,192,122025,1,0,0:0:0:0:
64,192,122077,1,0,0:0:0:0:
448,192,122129,1,0,0:0:0:0:
192,192,122181,1,0,0:0:0:0:
320,192,122181,1,0,0:0:0:0:
320,192,122286,1,0,0:0:0:0:
448,192,122286,1,0,0:0:0:0:
64,192,122390,1,0,0:0:0:0:
192,192,122390,1,0,0:0:0:0:
448,192,122442,1,0,0:0:0:0:
64,192,122495,1,0,0:0:0:0:
320,192,122547,1,0,0:0:0:0:
192,192,122599,1,0,0:0:0:0:
448,192,122651,1,0,0:0:0:0:
64,192,122704,1,0,0:0:0:0:
320,192,122756,1,0,0:0:0:0:
192,192,122808,1,0,0:0:0:0:
448,192,122857,1,0,0:0:0:0:
320,192,122906,1,0,0:0:0:0:
192,192,122956,1,0,0:0:0:0:
64,192,123005,1,0,0:0:0:0:
448,192,123005,1,0,0:0:0:0:
64,192,123104,1,0,0:0:0:0:
320,192,123104,1,0,0:0:0:0:
192,192,123204,1,0,0:0:0:0:
448,192,123204,1,0,0:0:0:0:
320,192,123254,1,0,0:0:0:0:
64,192,123304,1,0,0:0:0:0:
192,192,123354,1,0,0:0:0:0:
320,192,123404,1,0,0:0:0:0:
64,192,123454,1,0,0:0:0:0:
448,192,123504,1,0,0:0:0:0:
320,192,123554,1,0,0:0:0:0:
192,192,123605,1,0,0:0:0:0:
448,192,123655,1,0,0:0:0:0:
64,192,123705,1,0,0:0:0:0:
192,192,123756,1,0,0:0:0:0:
320,192,123806,1,0,0:0:0:0:
448,192,123806,1,0,0:0:0:0:
64,192,123907,1,0,0:0:0:0:
320,192,123907,1,0,0:0:0:0:
64,192,124009,1,0,0:0:0:0:
192,192,124009,1,0,0:0:0:0:
448,192,124061,1,0,0:0:0:0:
320,192,124114,1,0,0:0:0:0:
192,192,124166,1,0,0:0:0:0:
64,192,124219,1,0,0:0:0:0:
448,192,124219,1,0,0:0:0:0:
192,192,124324,1,0,0:0:0:0:
320,192,124324,1,0,0:0:0:0:
64,192,124429,1,0,0:0:0:0:
192,192,124429,1,0,0:0:0:0:
448,192,124429,1,0,0:0:0:0:
320,192,124526,1,0,0:0:0:0:
64,192,124624,1,0,0:0:0:0:
192,192,124624,1,0,0:0:0:0:
64,192,124721,1,0,0:0:0:0:
448,192,124721,1,0,0:0:0:0:
192,192,124820,1,0,0:0:0:0:
320,192,124820,1,0,0:0:0:0:
448,192,124871,1,0,0:0:0:0:
64,192,124923,1,0,0:0:0:0:
320,192,124975,1,0,0:0:0:0:
192,192,125027,1,0,0:0:0:0:
448,192,125079,1,0,0:0:0:0:
64,192,125131,1,0,0:0:0:0:
192,192,125183,1,0,0:0:0:0:
320,192,125235,1,0,0:0:0:0:
448,192,125235,1,0,0:0:0:0:
64,192,125284,1,0,0:0:0:0:
448,192,125334,1,0,0:0:0:0:
192,192,125384,1,0,0:0:0:0:
320,192,125434,1,0,0:0:0:0:
64,192,125483,1,0,0:0:0:0:
448,192,125533,1,0,0:0:0:0:
320,192,125583,1,0,0:0:0:0:
192,192,125633,1,0,0:0:0:0:
64,192,125684,1,0,0:0:0:0:
192,192,125736,1,0,0:0:0:0:
320,192,125787,1,0,0:0:0:0:
448,192,125839,1,0,0:0:0:0:
64,192,125890,1,0,0:0:0:0:
192,192,125942,1,0,0:0:0:0:
320,192,125993,1,0,0:0:0:0:
64,192,126045,1,0,0:0:0:0:
448,192,126045,1,0,0:0:0:0:
320,192,126093,1,0,0:0:0:0:
192,192,126142,1,0,0:0:0:0:
448,192,126190,1,0,0:0:0:0:
64,192,126239,1,0,0:0:0:0:
192,192,126287,1,0,0:0:0:0:
320,192,126336,1,0,0:0:0:0:
448,192,126384,1,0,0:0:0:0:
64,192,126433,1,0,0:0:0:0:
320,192,126485,1,0,0:0:0:0:
192,192,126537,1,0,0:0:0:0:
64,192,126589,1,0,0:0:0:0:
448,192,126641,1,0,0:0:0:0:
320,192,126694,1,0,0:0:0:0:
192,192,126746,1,0,0:0:0:0:
320,192,126798,1,0,0:0:0:0:
64,192,126851,1,0,0:0:0:0:
192,192,126851,1,0,0:0:0:0:
448,192,126902,1,0,0:0:0:0:
320,192,126954,1,0,0:0:0:0:
192,192,127005,1,0,0:0:0:0:
448,192,127057,1,0,0:0:0:0:
64,192,127108,1,0,0:0:0:0:
192,192,127160,1,0,0:0:0:0:
320,192,127211,1,0,0:0:0:0:
64,192,127263,1,0,0:0:0:0:
448,192,127263,1,0,0:0:0:0:
192,192,127364,1,0,0:0:0:0:
320,192,127364,1,0,0:0:0:0:
320,192,127466,1,0,0:0:0:0:
64,192,127567,1,0,0:0:0:0:
192,192,127567,1,0,0:0:0:0:
192,192,127669,1,0,0:0:0:0:
320,192,127669,1,0,0:0:0:0:
448,192,127669,1,0,0:0:0:0:
64,192,127771,1,0,0:0:0:0:
448,192,127771,1,0,0:0:0:0:
320,192,127872,1,0,0:0:0:0:
64,192,127974,1,0,0:0:0:0:
192,192,127974,1,0,0:0:0:0:
192,192,128075,1,0,0:0:0:0:
64,192,128177,1,0,0:0:0:0:
320,192,128177,1,0,0:0:0:0:
320,192,128279,1,0,0:0:0:0:
192,192,128380,1,0,0:0:0:0:
448,192,128380,1,0,0:0:0:0:
64,192,128482,1,0,0:0:0:0:
192,192,128482,1,0,0:0:0:0:
320,192,128482,1,0,0:0:0:0:
320,192,128583,1,0,0:0:0:0:
448,192,128583,1,0,0:0:0:0:
64,192,128634,1,0,0:0:0:0:
192,192,128685,1,0,0:0:0:0:
64,192,128787,1,0,0:0:0:0:
320,192,128787,1,0,0:0:0:0:
64,192,128888,1,0,0:0:0:0:
192,192,128888,1,0,0:0:0:0:
448,192,128939,1,0,0:0:0:0:
320,192,128990,1,0,0:0:0:0:
192,192,129041,1,0,0:0:0:0:
320,192,129091,1,0,0:0:0:0:
448,192,129142,1,0,0:0:0:0:
64,192,129193,1,0,0:0:0:0:
192,192,129244,1,0,0:0:0:0:
320,192,129295,1,0,0:0:0:0:
448,192,129295,1,0,0:0:0:0:
64,192,129344,1,0,0:0:0:0:
192,192,129393,1,0,0:0:0:0:
64,192,129442,1,0,0:0:0:0:
448,192,129491,1,0,0:0:0:0:
320,192,129540,1,0,0:0:0:0:
192,192,129589,1,0,0:0:0:0:
64,192,129638,1,0,0:0:0:0:
448,192,129688,1,0,0:0:0:0:
192,192,129739,1,0,0:0:0:0:
448,192,129791,1,0,0:0:0:0:
320,192,129842,1,0,0:0:0:0:
64,192,129894,1,0,0:0:0:0:
192,192,129945,1,0,0:0:0:0:
448,192,129997,1,0,0:0:0:0:
320,192,130048,1,0,0:0:0:0:
64,192,130100,1,0,0:0:0:0:
192,192,130100,1,0,0:0:0:0:
448,192,130100,1,0,0:0:0:0:
192,192,130203,1,0,0:0:0:0:
64,192,130306,1,0,0:0:0:0:
448,192,130306,1,0,0:0:0:0:
192,192,130409,1,0,0:0:0:0:
320,192,130409,1,0,0:0:0:0:
320,192,130512,1,0,0:0:0:0:
448,192,130512,1,0,0:0:0:0:
64,192,130546,1,0,0:0:0:0:
192,192,130580,1,0,0:0:0:0:
320,192,130648,1,0,0:0:0:0:
448,192,130682,1,0,0:0:0:0:
64,192,130716,1,0,0:0:0:0:
192,192,130750,1,0,0:0:0:0:
448,192,130818,1,0,0:0:0:0:
64,192,130921,1,0,0:0:0:0:
192,192,130921,1,0,0:0:0:0:
320,192,130921,1,0,0:0:0:0:
320,192,131018,1,0,0:0:0:0:
64,192,131116,1,0,0:0:0:0:
448,192,131116,1,0,0:0:0:0:
64,192,131213,1,0,0:0:0:0:
320,192,131213,1,0,0:0:0:0:
192,192,131312,1,0,0:0:0:0:
448,192,131312,1,0,0:0:0:0:
192,192,131413,1,0,0:0:0:0:
64,192,131515,1,0,0:0:0:0:
448,192,131515,1,0,0:0:0:0:
192,192,131616,1,0,0:0:0:0:
448,192,131616,1,0,0:0:0:0:
64,192,131718,1,0,0:0:0:0:
320,192,131718,1,0,0:0:0:0:
320,192,131820,1,0,0:0:0:0:
64,192,131921,1,0,0:0:0:0:
192,192,131921,1,0,0:0:0:0:
192,192,132023,1,0,0:0:0:0:
448,192,132023,1,0,0:0:0:0:
64,192,132125,1,0,0:0:0:0:
320,192,132125,1,0,0:0:0:0:
448,192,132125,1,0,0:0:0:0:
64,192,132223,1,0,0:0:0:0:
192,192,132223,1,0,0:0:0:0:
320,192,132223,1,0,0:0:0:0:
192,192,132322,1,0,0:0:0:0:
64,192,132421,1,0,0:0:0:0:
320,192,132421,1,0,0:0:0:0:
448,192,132421,1,0,0:0:0:0:
320,192,132521,1,0,0:0:0:0:
64,192,132620,1,0,0:0:0:0:
192,192,132620,1,0,0:0:0:0:
448,192,132620,1,0,0:0:0:0:
192,192,132720,1,0,0:0:0:0:
64,192,132819,1,0,0:0:0:0:
320,192,132819,1,0,0:0:0:0:
448,192,132819,1,0,0:0:0:0:
320,192,132919,1,0,0:0:0:0:
64,192,133018,1,0,0:0:0:0:
192,192,133018,1,0,0:0:0:0:
448,192,133018,1,0,0:0:0:0:
64,192,133118,1,0,0:0:0:0:
192,192,133218,1,0,0:0:0:0:
320,192,133218,1,0,0:0:0:0:
448,192,133218,1,0,0:0:0:0:
448,192,133317,1,0,0:0:0:0:
64,192,133417,1,0,0:0:0:0:
192,192,133417,1,0,0:0:0:0:
320,192,133417,1,0,0:0:0:0:
320,192,133517,1,0,0:0:0:0:
64,192,133617,1,0,0:0:0:0:
192,192,133617,1,0,0:0:0:0:
448,192,133617,1,0,0:0:0:0:
64,192,133718,1,0,0:0:0:0:
320,192,133718,128,0,134035:0:0:0:0:
448,192,133718,1,0,0:0:0:0:
192,192,133802,1,0,0:0:0:0:
64,192,133887,1,0,0:0:0:0:
192,192,133972,1,0,0:0:0:0:
64,192,134056,1,0,0:0:0:0:
320,192,134142,1,0,0:0:0:0:
448,192,134142,1,0,0:0:0:0:
192,192,134190,1,0,0:0:0:0:
448,192,134239,1,0,0:0:0:0:
64,192,134288,1,0,0:0:0:0:
192,192,134337,1,0,0:0:0:0:
320,192,134386,1,0,0:0:0:0:
192,192,134434,1,0,0:0:0:0:
320,192,134483,1,0,0:0:0:0:
64,192,134532,1,0,0:0:0:0:
448,192,134532,1,0,0:0:0:0:
192,192,134598,1,0,0:0:0:0:
320,192,134632,1,0,0:0:0:0:
64,192,134699,1,0,0:0:0:0:
448,192,134732,1,0,0:0:0:0:
320,192,134765,1,0,0:0:0:0:
64,192,134832,1,0,0:0:0:0:
192,192,134866,1,0,0:0:0:0:
320,192,134933,1,0,0:0:0:0:
448,192,134933,1,0,0:0:0:0:
64,192,134983,1,0,0:0:0:0:
448,192,135033,1,0,0:0:0:0:
320,192,135067,1,0,0:0:0:0:
192,192,135101,1,0,0:0:0:0:
64,192,135168,1,0,0:0:0:0:
192,192,135202,1,0,0:0:0:0:
448,192,135235,1,0,0:0:0:0:
320,192,135286,1,0,0:0:0:0:
64,192,135337,1,0,0:0:0:0:
448,192,135387,1,0,0:0:0:0:
192,192,135438,1,0,0:0:0:0:
320,192,135489,1,0,0:0:0:0:
448,192,135540,1,0,0:0:0:0:
64,192,135574,1,0,0:0:0:0:
320,192,135607,1,0,0:0:0:0:
192,192,135641,1,0,0:0:0:0:
64,192,135675,1,0,0:0:0:0:
320,192,135744,1,0,0:0:0:0:
448,192,135744,1,0,0:0:0:0:
192,192,135795,1,0,0:0:0:0:
64,192,135846,1,0,0:0:0:0:
448,192,135897,1,0,0:0:0:0:
192,192,135948,1,0,0:0:0:0:
320,192,135982,1,0,0:0:0:0:
448,192,136016,1,0,0:0:0:0:
64,192,136050,1,0,0:0:0:0:
192,192,136085,1,0,0:0:0:0:
320,192,136153,1,0,0:0:0:0:
64,192,136203,1,0,0:0:0:0:
448,192,136254,1,0,0:0:0:0:
320,192,136322,1,0,0:0:0:0:
192,192,136356,1,0,0:0:0:0:
448,192,136423,1,0,0:0:0:0:
64,192,136457,1,0,0:0:0:0:
192,192,136491,1,0,0:0:0:0:
320,192,136559,1,0,0:0:0:0:
448,192,136559,1,0,0:0:0:0:
64,192,136608,1,0,0:0:0:0:
192,192,136658,1,0,0:0:0:0:
320,192,136708,1,0,0:0:0:0:
64,192,136758,1,0,0:0:0:0:
448,192,136807,1,0,0:0:0:0:
320,192,136857,1,0,0:0:0:0:
192,192,136890,1,0,0:0:0:0:
64,192,136957,1,0,0:0:0:0:
448,192,137007,1,0,0:0:0:0:
320,192,137056,1,0,0:0:0:0:
64,192,137090,1,0,0:0:0:0:
320,192,137156,1,0,0:0:0:0:
192,192,137189,1,0,0:0:0:0:
448,192,137256,1,0,0:0:0:0:
64,192,137289,1,0,0:0:0:0:
192,192,137356,1,0,0:0:0:0:
320,192,137356,1,0,0:0:0:0:
448,192,137405,1,0,0:0:0:0:
64,192,137454,1,0,0:0:0:0:
192,192,137504,1,0,0:0:0:0:
320,192,137553,1,0,0:0:0:0:
448,192,137603,1,0,0:0:0:0:
64,192,137652,1,0,0:0:0:0:
320,192,137702,1,0,0:0:0:0:
192,192,137752,1,0,0:0:0:0:
448,192,137785,1,0,0:0:0:0:
64,192,137818,1,0,0:0:0:0:
192,192,137851,1,0,0:0:0:0:
448,192,137884,1,0,0:0:0:0:
320,192,137917,1,0,0:0:0:0:
64,192,137951,1,0,0:0:0:0:
192,192,138017,1,0,0:0:0:0:
448,192,138083,1,0,0:0:0:0:
64,192,138150,1,0,0:0:0:0:
192,192,138150,1,0,0:0:0:0:
320,192,138216,1,0,0:0:0:0:
448,192,138283,1,0,0:0:0:0:
64,192,138316,1,0,0:0:0:0:
320,192,138349,1,0,0:0:0:0:
192,192,138382,1,0,0:0:0:0:
64,192,138415,1,0,0:0:0:0:
448,192,138482,1,0,0:0:0:0:
192,192,138548,1,0,0:0:0:0:
320,192,138596,1,0,0:0:0:0:
64,192,138645,1,0,0:0:0:0:
448,192,138694,1,0,0:0:0:0:
320,192,138743,1,0,0:0:0:0:
192,192,138792,1,0,0:0:0:0:
448,192,138840,1,0,0:0:0:0:
64,192,138873,1,0,0:0:0:0:
192,192,138906,1,0,0:0:0:0:
320,192,138939,1,0,0:0:0:0:
448,192,138939,1,0,0:0:0:0:
64,192,139037,1,0,0:0:0:0:
192,192,139037,1,0,0:0:0:0:
320,192,139136,1,0,0:0:0:0:
448,192,139136,1,0,0:0:0:0:
64,192,139235,1,0,0:0:0:0:
192,192,139235,1,0,0:0:0:0:
448,192,139334,1,0,0:0:0:0:
320,192,139367,1,0,0:0:0:0:
192,192,139400,1,0,0:0:0:0:
448,192,139433,1,0,0:0:0:0:
64,192,139483,1,0,0:0:0:0:
192,192,139532,1,0,0:0:0:0:
320,192,139582,1,0,0:0:0:0:
64,192,139631,1,0,0:0:0:0:
448,192,139680,1,0,0:0:0:0:
192,192,139730,128,0,139931:0:0:0:0:
320,192,139730,1,0,0:0:0:0:
448,192,139830,1,0,0:0:0:0:
64,192,139931,1,0,0:0:0:0:
320,192,139931,1,0,0:0:0:0:
320,192,140032,1,0,0:0:0:0:
64,192,140134,128,0,140341:0:0:0:0:
192,192,140134,1,0,0:0:0:0:
448,192,140134,1,0,0:0:0:0:
192,192,140237,1,0,0:0:0:0:
448,192,140341,1,0,0:0:0:0:
320,192,140410,1,0,0:0:0:0:
448,192,140479,1,0,0:0:0:0:
64,192,140549,128,0,140749:0:0:0:0:
192,192,140549,1,0,0:0:0:0:
320,192,140549,1,0,0:0:0:0:
192,192,140649,1,0,0:0:0:0:
320,192,140749,1,0,0:0:0:0:
448,192,140816,1,0,0:0:0:0:
320,192,140883,1,0,0:0:0:0:
64,192,140949,128,0,141150:0:0:0:0:
192,192,140949,1,0,0:0:0:0:
448,192,140949,1,0,0:0:0:0:
192,192,141050,1,0,0:0:0:0:
448,192,141150,1,0,0:0:0:0:
320,192,141217,1,0,0:0:0:0:
448,192,141284,1,0,0:0:0:0:
64,192,141351,1,0,0:0:0:0:
192,192,141351,1,0,0:0:0:0:
320,192,141351,1,0,0:0:0:0:
192,192,141450,1,0,0:0:0:0:
64,192,141550,1,0,0:0:0:0:
320,192,141550,1,0,0:0:0:0:
448,192,141550,1,0,0:0:0:0:
192,192,141649,1,0,0:0:0:0:
320,192,141749,1,0,0:0:0:0:
448,192,141749,1,0,0:0:0:0:
64,192,141793,1,0,0:0:0:0:
192,192,141837,1,0,0:0:0:0:
320,192,141882,1,0,0:0:0:0:
448,192,141926,1,0,0:0:0:0:
64,192,141981,1,0,0:0:0:0:
192,192,142014,1,0,0:0:0:0:
320,192,142048,1,0,0:0:0:0:
448,192,142081,1,0,0:0:0:0:
64,192,142147,1,0,0:0:0:0:
320,192,142197,1,0,0:0:0:0:
192,192,142247,1,0,0:0:0:0:
64,192,142297,1,0,0:0:0:0:
320,192,142346,1,0,0:0:0:0:
448,192,142346,1,0,0:0:0:0:
64,192,142446,1,0,0:0:0:0:
448,192,142446,1,0,0:0:0:0:
192,192,142546,1,0,0:0:0:0:
320,192,142546,1,0,0:0:0:0:
448,192,142645,1,0,0:0:0:0:
64,192,142745,1,0,0:0:0:0:
192,192,142745,1,0,0:0:0:0:
320,192,142844,1,0,0:0:0:0:
448,192,142844,1,0,0:0:0:0:
64,192,142944,1,0,0:0:0:0:
192,192,142944,1,0,0:0:0:0:
448,192,142944,128,0,143145:0:0:0:0:
192,192,143145,1,0,0:0:0:0:
320,192,143145,1,0,0:0:0:0:
320,192,143246,1,0,0:0:0:0:
64,192,143347,1,0,0:0:0:0:
192,192,143347,1,0,0:0:0:0:
448,192,143414,1,0,0:0:0:0:
320,192,143482,1,0,0:0:0:0:
192,192,143549,1,0,0:0:0:0:
448,192,143549,1,0,0:0:0:0:
64,192,143616,1,0,0:0:0:0:
192,192,143684,1,0,0:0:0:0:
320,192,143752,1,0,0:0:0:0:
448,192,143752,1,0,0:0:0:0:
64,192,143796,1,0,0:0:0:0:
192,192,143841,1,0,0:0:0:0:
320,192,143885,1,0,0:0:0:0:
64,192,143930,1,0,0:0:0:0:
448,192,143974,1,0,0:0:0:0:
192,192,144019,1,0,0:0:0:0:
320,192,144063,1,0,0:0:0:0:
448,192,144108,1,0,0:0:0:0:
64,192,144152,1,0,0:0:0:0:
192,192,144197,1,0,0:0:0:0:
320,192,144242,1,0,0:0:0:0:
448,192,144286,1,0,0:0:0:0:
64,192,144331,1,0,0:0:0:0:
320,192,144375,1,0,0:0:0:0:
192,192,144420,1,0,0:0:0:0:
64,192,144464,1,0,0:0:0:0:
192,192,144553,1,0,0:0:0:0:
320,192,144553,1,0,0:0:0:0:
448,192,144553,1,0,0:0:0:0:
320,192,144654,1,0,0:0:0:0:
64,192,144754,1,0,0:0:0:0:
448,192,144754,1,0,0:0:0:0:
192,192,144854,1,0,0:0:0:0:
320,192,144954,1,0,0:0:0:0:
448,192,144954,1,0,0:0:0:0:
64,192,144988,1,0,0:0:0:0:
192,192,145021,1,0,0:0:0:0:
320,192,145055,1,0,0:0:0:0:
64,192,145122,1,0,0:0:0:0:
448,192,145155,1,0,0:0:0:0:
320,192,145188,1,0,0:0:0:0:
192,192,145222,1,0,0:0:0:0:
64,192,145255,1,0,0:0:0:0:
448,192,145289,1,0,0:0:0:0:
192,192,145355,1,0,0:0:0:0:
320,192,145389,1,0,0:0:0:0:
64,192,145422,1,0,0:0:0:0:
448,192,145456,1,0,0:0:0:0:
320,192,145506,1,0,0:0:0:0:
192,192,145556,1,0,0:0:0:0:
448,192,145606,1,0,0:0:0:0:
64,192,145656,1,0,0:0:0:0:
192,192,145706,1,0,0:0:0:0:
320,192,145757,1,0,0:0:0:0:
448,192,145757,1,0,0:0:0:0:
64,192,145852,1,0,0:0:0:0:
192,192,145852,1,0,0:0:0:0:
448,192,145947,1,0,0:0:0:0:
192,192,146042,1,0,0:0:0:0:
320,192,146042,1,0,0:0:0:0:
64,192,146137,1,0,0:0:0:0:
320,192,146137,1,0,0:0:0:0:
448,192,146137,1,0,0:0:0:0:
192,192,146236,1,0,0:0:0:0:
64,192,146336,1,0,0:0:0:0:
448,192,146336,1,0,0:0:0:0:
192,192,146369,1,0,0:0:0:0:
64,192,146536,1,0,0:0:0:0:
320,192,146536,128,0,146840:0:0:0:0:
448,192,146536,128,0,146840:0:0:0:0:
192,192,146739,1,0,0:0:0:0:
64,192,146942,1,0,0:0:0:0:
448,192,146942,1,0,0:0:0:0:
64,192,147045,1,0,0:0:0:0:
448,192,147045,1,0,0:0:0:0:
192,192,147149,1,0,0:0:0:0:
320,192,147149,1,0,0:0:0:0:
192,192,147253,1,0,0:0:0:0:
320,192,147253,1,0,0:0:0:0:
64,192,147357,1,0,0:0:0:0:
448,192,147357,1,0,0:0:0:0:
64,192,147454,1,0,0:0:0:0:
448,192,147454,1,0,0:0:0:0:
192,192,147551,1,0,0:0:0:0:
320,192,147551,1,0,0:0:0:0:
64,192,147648,1,0,0:0:0:0:
192,192,147745,1,0,0:0:0:0:
448,192,147745,1,0,0:0:0:0:
192,192,147844,1,0,0:0:0:0:
448,192,147844,1,0,0:0:0:0:
64,192,147944,1,0,0:0:0:0:
320,192,147944,1,0,0:0:0:0:
64,192,148043,1,0,0:0:0:0:
320,192,148043,1,0,0:0:0:0:
192,192,148143,1,0,0:0:0:0:
448,192,148143,1,0,0:0:0:0:
192,192,148244,1,0,0:0:0:0:
448,192,148244,1,0,0:0:0:0:
64,192,148346,1,0,0:0:0:0:
320,192,148346,1,0,0:0:0:0:
448,192,148447,1,0,0:0:0:0:
64,192,148549,1,0,0:0:0:0:
192,192,148549,1,0,0:0:0:0:
192,192,148651,1,0,0:0:0:0:
448,192,148651,1,0,0:0:0:0:
320,192,148752,1,0,0:0:0:0:
192,192,148803,1,0,0:0:0:0:
64,192,148854,1,0,0:0:0:0:
448,192,148905,1,0,0:0:0:0:
192,192,148956,1,0,0:0:0:0:
320,192,148956,1,0,0:0:0:0:
320,192,149052,1,0,0:0:0:0:
448,192,149052,1,0,0:0:0:0:
64,192,149148,1,0,0:0:0:0:
192,192,149148,1,0,0:0:0:0:
64,192,149245,1,0,0:0:0:0:
192,192,149245,1,0,0:0:0:0:
64,192,149342,1,0,0:0:0:0:
192,192,149342,1,0,0:0:0:0:
320,192,149393,1,0,0:0:0:0:
448,192,149445,1,0,0:0:0:0:
192,192,149496,1,0,0:0:0:0:
320,192,149548,1,0,0:0:0:0:
448,192,149599,1,0,0:0:0:0:
64,192,149651,1,0,0:0:0:0:
192,192,149754,1,0,0:0:0:0:
320,192,149754,1,0,0:0:0:0:
448,192,149803,1,0,0:0:0:0:
64,192,149853,1,0,0:0:0:0:
320,192,149903,1,0,0:0:0:0:
192,192,149953,1,0,0:0:0:0:
64,192,150052,1,0,0:0:0:0:
448,192,150052,1,0,0:0:0:0:
320,192,150152,1,0,0:0:0:0:
448,192,150152,1,0,0:0:0:0:
64,192,150199,1,0,0:0:0:0:
192,192,150247,1,0,0:0:0:0:
64,192,150331,1,0,0:0:0:0:
192,192,150402,1,0,0:0:0:0:
320,192,150438,1,0,0:0:0:0:
64,192,150510,1,0,0:0:0:0:
320,192,150582,1,0,0:0:0:0:
448,192,150582,1,0,0:0:0:0:
192,192,150629,1,0,0:0:0:0:
64,192,150676,1,0,0:0:0:0:
320,192,150723,1,0,0:0:0:0:
192,192,150771,1,0,0:0:0:0:
64,192,150818,1,0,0:0:0:0:
448,192,150865,1,0,0:0:0:0:
192,192,150960,1,0,0:0:0:0:
320,192,150960,1,0,0:0:0:0:
448,192,151009,1,0,0:0:0:0:
64,192,151058,1,0,0:0:0:0:
320,192,151108,1,0,0:0:0:0:
448,192,151157,1,0,0:0:0:0:
192,192,151207,1,0,0:0:0:0:
320,192,151256,1,0,0:0:0:0:
448,192,151306,1,0,0:0:0:0:
64,192,151355,1,0,0:0:0:0:
192,192,151355,1,0,0:0:0:0:
320,192,151405,1,0,0:0:0:0:
64,192,151454,1,0,0:0:0:0:
192,192,151504,1,0,0:0:0:0:
448,192,151553,1,0,0:0:0:0:
64,192,151603,1,0,0:0:0:0:
192,192,151652,1,0,0:0:0:0:
320,192,151751,1,0,0:0:0:0:
448,192,151751,1,0,0:0:0:0:
320,192,151849,1,0,0:0:0:0:
448,192,151849,1,0,0:0:0:0:
64,192,151947,1,0,0:0:0:0:
320,192,151996,1,0,0:0:0:0:
192,192,152045,1,0,0:0:0:0:
64,192,152094,1,0,0:0:0:0:
320,192,152144,1,0,0:0:0:0:
448,192,152144,1,0,0:0:0:0:
192,192,152194,1,0,0:0:0:0:
64,192,152244,1,0,0:0:0:0:
320,192,152295,1,0,0:0:0:0:
192,192,152345,1,0,0:0:0:0:
448,192,152345,1,0,0:0:0:0:
192,192,152446,1,0,0:0:0:0:
320,192,152548,1,0,0:0:0:0:
64,192,152646,1,0,0:0:0:0:
320,192,152646,1,0,0:0:0:0:
192,192,152744,1,0,0:0:0:0:
448,192,152744,1,0,0:0:0:0:
320,192,152842,1,0,0:0:0:0:
192,192,152891,1,0,0:0:0:0:
64,192,152941,1,0,0:0:0:0:
448,192,152990,1,0,0:0:0:0:
64,192,153039,1,0,0:0:0:0:
448,192,153089,1,0,0:0:0:0:
192,192,153138,1,0,0:0:0:0:
320,192,153188,1,0,0:0:0:0:
64,192,153237,1,0,0:0:0:0:
448,192,153237,1,0,0:0:0:0:
64,192,153337,1,0,0:0:0:0:
192,192,153337,1,0,0:0:0:0:
448,192,153387,1,0,0:0:0:0:
320,192,153438,1,0,0:0:0:0:
192,192,153489,1,0,0:0:0:0:
64,192,153540,1,0,0:0:0:0:
448,192,153591,1,0,0:0:0:0:
192,192,153641,1,0,0:0:0:0:
320,192,153692,1,0,0:0:0:0:
448,192,153743,1,0,0:0:0:0:
64,192,153794,1,0,0:0:0:0:
192,192,153845,1,0,0:0:0:0:
320,192,153845,1,0,0:0:0:0:
64,192,153946,1,0,0:0:0:0:
192,192,153946,1,0,0:0:0:0:
448,192,153997,1,0,0:0:0:0:
320,192,154048,1,0,0:0:0:0:
64,192,154150,1,0,0:0:0:0:
192,192,154150,1,0,0:0:0:0:
64,192,154248,1,0,0:0:0:0:
448,192,154248,1,0,0:0:0:0:
192,192,154347,1,0,0:0:0:0:
320,192,154347,1,0,0:0:0:0:
320,192,154446,1,0,0:0:0:0:
448,192,154446,1,0,0:0:0:0:
64,192,154545,1,0,0:0:0:0:
192,192,154545,1,0,0:0:0:0:
320,192,154595,1,0,0:0:0:0:
192,192,154644,1,0,0:0:0:0:
448,192,154694,1,0,0:0:0:0:
320,192,154743,1,0,0:0:0:0:
64,192,154793,1,0,0:0:0:0:
192,192,154842,1,0,0:0:0:0:
320,192,154891,1,0,0:0:0:0:
64,192,154941,1,0,0:0:0:0:
448,192,154941,1,0,0:0:0:0:
192,192,154990,1,0,0:0:0:0:
320,192,155040,1,0,0:0:0:0:
64,192,155089,1,0,0:0:0:0:
192,192,155139,1,0,0:0:0:0:
448,192,155188,1,0,0:0:0:0:
64,192,155238,1,0,0:0:0:0:
320,192,155287,1,0,0:0:0:0:
448,192,155337,1,0,0:0:0:0:
192,192,155386,1,0,0:0:0:0:
320,192,155436,1,0,0:0:0:0:
64,192,155485,1,0,0:0:0:0:
192,192,155534,1,0,0:0:0:0:
320,192,155584,1,0,0:0:0:0:
64,192,155633,1,0,0:0:0:0:
192,192,155732,1,0,0:0:0:0:
448,192,155732,1,0,0:0:0:0:
64,192,155831,1,0,0:0:0:0:
320,192,155831,1,0,0:0:0:0:
192,192,155930,1,0,0:0:0:0:
320,192,155930,1,0,0:0:0:0:
192,192,156029,1,0,0:0:0:0:
320,192,156128,1,0,0:0:0:0:
448,192,156128,1,0,0:0:0:0:
64,192,156178,1,0,0:0:0:0:
448,192,156227,1,0,0:0:0:0:
192,192,156276,1,0,0:0:0:0:
64,192,156326,1,0,0:0:0:0:
320,192,156326,1,0,0:0:0:0:
192,192,156392,1,0,0:0:0:0:
320,192,156458,1,0,0:0:0:0:
64,192,156524,1,0,0:0:0:0:
448,192,156524,1,0,0:0:0:0:
320,192,156589,1,0,0:0:0:0:
192,192,156655,1,0,0:0:0:0:
64,192,156720,1,0,0:0:0:0:
448,192,156720,1,0,0:0:0:0:
192,192,156786,1,0,0:0:0:0:
320,192,156851,1,0,0:0:0:0:
64,192,156917,1,0,0:0:0:0:
448,192,156917,1,0,0:0:0:0:
448,192,157015,1,0,0:0:0:0:
64,192,157113,1,0,0:0:0:0:
320,192,157113,1,0,0:0:0:0:
192,192,157162,1,0,0:0:0:0:
192,192,157261,1,0,0:0:0:0:
64,192,157310,1,0,0:0:0:0:
448,192,157310,1,0,0:0:0:0:
320,192,157359,1,0,0:0:0:0:
192,192,157409,1,0,0:0:0:0:
320,192,157509,1,0,0:0:0:0:
448,192,157509,1,0,0:0:0:0:
64,192,157558,1,0,0:0:0:0:
192,192,157608,1,0,0:0:0:0:
320,192,157608,1,0,0:0:0:0:
448,192,157658,1,0,0:0:0:0:
64,192,157708,1,0,0:0:0:0:
192,192,157807,1,0,0:0:0:0:
320,192,157807,1,0,0:0:0:0:
192,192,157907,1,0,0:0:0:0:
320,192,157907,1,0,0:0:0:0:
64,192,158007,1,0,0:0:0:0:
448,192,158007,1,0,0:0:0:0:
192,192,158107,1,0,0:0:0:0:
320,192,158107,1,0,0:0:0:0:
448,192,158107,1,0,0:0:0:0:
64,192,158205,1,0,0:0:0:0:
448,192,158238,1,0,0:0:0:0:
320,192,158271,1,0,0:0:0:0:
192,192,158304,1,0,0:0:0:0:
64,192,158337,1,0,0:0:0:0:
192,192,158403,1,0,0:0:0:0:
320,192,158503,1,0,0:0:0:0:
448,192,158503,1,0,0:0:0:0:
64,192,158551,1,0,0:0:0:0:
192,192,158600,1,0,0:0:0:0:
448,192,158649,1,0,0:0:0:0:
64,192,158698,1,0,0:0:0:0:
320,192,158698,1,0,0:0:0:0:
64,192,158795,1,0,0:0:0:0:
320,192,158795,1,0,0:0:0:0:
192,192,158893,1,0,0:0:0:0:
448,192,158893,1,0,0:0:0:0:
64,192,159056,1,0,0:0:0:0:
192,192,159088,1,0,0:0:0:0:
320,192,159121,1,0,0:0:0:0:
448,192,159153,128,0,159284:0:0:0:0:
64,192,159284,128,0,159586:0:0:0:0:
192,192,159284,128,0,159384:0:0:0:0:
448,192,159384,1,0,0:0:0:0:
320,192,159485,1,0,0:0:0:0:
448,192,159553,1,0,0:0:0:0:
320,192,159620,1,0,0:0:0:0:
64,192,159687,1,0,0:0:0:0:
192,192,159687,1,0,0:0:0:0:
448,192,159737,1,0,0:0:0:0:
320,192,159788,1,0,0:0:0:0:
192,192,159839,1,0,0:0:0:0:
448,192,159890,1,0,0:0:0:0:
320,192,159941,1,0,0:0:0:0:
192,192,159991,1,0,0:0:0:0:
448,192,160042,1,0,0:0:0:0:
320,192,160093,1,0,0:0:0:0:
192,192,160144,1,0,0:0:0:0:
448,192,160195,1,0,0:0:0:0:
320,192,160245,1,0,0:0:0:0:
192,192,160296,1,0,0:0:0:0:
448,192,160347,1,0,0:0:0:0:
320,192,160398,1,0,0:0:0:0:
192,192,160449,1,0,0:0:0:0:
64,192,160500,1,0,0:0:0:0:
448,192,160500,1,0,0:0:0:0:
320,192,160550,1,0,0:0:0:0:
192,192,160600,1,0,0:0:0:0:
64,192,160651,1,0,0:0:0:0:
320,192,160701,1,0,0:0:0:0:
192,192,160752,1,0,0:0:0:0:
64,192,160802,1,0,0:0:0:0:
320,192,160903,1,0,0:0:0:0:
448,192,160903,1,0,0:0:0:0:
192,192,160970,1,0,0:0:0:0:
320,192,161038,1,0,0:0:0:0:
64,192,161105,1,0,0:0:0:0:
448,192,161172,1,0,0:0:0:0:
320,192,161240,1,0,0:0:0:0:
64,192,161307,1,0,0:0:0:0:
192,192,161307,1,0,0:0:0:0:
448,192,161357,1,0,0:0:0:0:
64,192,161408,1,0,0:0:0:0:
448,192,161458,1,0,0:0:0:0:
320,192,161509,1,0,0:0:0:0:
192,192,161559,1,0,0:0:0:0:
192,192,161660,1,0,0:0:0:0:
448,192,161711,1,0,0:0:0:0:
64,192,161762,1,0,0:0:0:0:
448,192,161813,1,0,0:0:0:0:
192,192,161864,1,0,0:0:0:0:
320,192,161915,1,0,0:0:0:0:
64,192,161966,1,0,0:0:0:0:
192,192,162017,1,0,0:0:0:0:
448,192,162069,1,0,0:0:0:0:
64,192,162120,1,0,0:0:0:0:
320,192,162120,1,0,0:0:0:0:
192,192,162222,1,0,0:0:0:0:
320,192,162222,1,0,0:0:0:0:
192,192,162324,1,0,0:0:0:0:
448,192,162324,1,0,0:0:0:0:
64,192,162427,1,0,0:0:0:0:
320,192,162530,1,0,0:0:0:0:
448,192,162530,1,0,0:0:0:0:
64,192,162579,1,0,0:0:0:0:
192,192,162629,1,0,0:0:0:0:
320,192,162679,1,0,0:0:0:0:
64,192,162729,1,0,0:0:0:0:
192,192,162778,1,0,0:0:0:0:
320,192,162828,1,0,0:0:0:0:
64,192,162878,1,0,0:0:0:0:
192,192,162928,1,0,0:0:0:0:
448,192,162928,1,0,0:0:0:0:
320,192,162976,1,0,0:0:0:0:
64,192,163024,1,0,0:0:0:0:
192,192,163072,1,0,0:0:0:0:
320,192,163120,1,0,0:0:0:0:
64,192,163168,1,0,0:0:0:0:
192,192,163217,1,0,0:0:0:0:
320,192,163265,1,0,0:0:0:0:
64,192,163314,1,0,0:0:0:0:
192,192,163364,1,0,0:0:0:0:
320,192,163414,1,0,0:0:0:0:
448,192,163464,1,0,0:0:0:0:
64,192,163514,1,0,0:0:0:0:
320,192,163564,1,0,0:0:0:0:
448,192,163614,1,0,0:0:0:0:
192,192,163664,1,0,0:0:0:0:
64,192,163715,1,0,0:0:0:0:
320,192,163715,1,0,0:0:0:0:
64,192,163815,1,0,0:0:0:0:
320,192,163866,1,0,0:0:0:0:
192,192,163916,1,0,0:0:0:0:
64,192,163967,1,0,0:0:0:0:
192,192,164068,1,0,0:0:0:0:
320,192,164118,1,0,0:0:0:0:
448,192,164118,1,0,0:0:0:0:
448,192,164219,1,0,0:0:0:0:
320,192,164270,1,0,0:0:0:0:
192,192,164320,1,0,0:0:0:0:
448,192,164371,1,0,0:0:0:0:
320,192,164421,1,0,0:0:0:0:
64,192,164522,1,0,0:0:0:0:
192,192,164522,1,0,0:0:0:0:
192,192,164620,1,0,0:0:0:0:
448,192,164620,1,0,0:0:0:0:
320,192,164718,1,0,0:0:0:0:
192,192,164816,1,0,0:0:0:0:
320,192,164915,1,0,0:0:0:0:
448,192,164915,1,0,0:0:0:0:
64,192,164964,1,0,0:0:0:0:
192,192,165014,1,0,0:0:0:0:
448,192,165064,1,0,0:0:0:0:
64,192,165114,1,0,0:0:0:0:
192,192,165163,1,0,0:0:0:0:
448,192,165213,1,0,0:0:0:0:
64,192,165263,1,0,0:0:0:0:
192,192,165314,1,0,0:0:0:0:
320,192,165314,1,0,0:0:0:0:
320,192,165415,1,0,0:0:0:0:
64,192,165517,1,0,0:0:0:0:
448,192,165517,1,0,0:0:0:0:
192,192,165618,1,0,0:0:0:0:
320,192,165720,1,0,0:0:0:0:
448,192,165720,1,0,0:0:0:0:
192,192,165771,1,0,0:0:0:0:
64,192,165822,1,0,0:0:0:0:
448,192,165872,1,0,0:0:0:0:
192,192,165923,1,0,0:0:0:0:
320,192,165974,1,0,0:0:0:0:
448,192,166025,1,0,0:0:0:0:
64,192,166076,1,0,0:0:0:0:
192,192,166126,1,0,0:0:0:0:
320,192,166126,1,0,0:0:0:0:
448,192,166174,1,0,0:0:0:0:
64,192,166223,1,0,0:0:0:0:
192,192,166272,1,0,0:0:0:0:
320,192,166321,1,0,0:0:0:0:
64,192,166370,1,0,0:0:0:0:
192,192,166418,1,0,0:0:0:0:
320,192,166517,1,0,0:0:0:0:
448,192,166517,1,0,0:0:0:0:
64,192,166567,1,0,0:0:0:0:
448,192,166618,1,0,0:0:0:0:
320,192,166669,1,0,0:0:0:0:
192,192,166720,1,0,0:0:0:0:
448,192,166771,1,0,0:0:0:0:
64,192,166821,1,0,0:0:0:0:
192,192,166872,1,0,0:0:0:0:
320,192,166923,1,0,0:0:0:0:
448,192,166923,1,0,0:0:0:0:
64,192,166974,1,0,0:0:0:0:
320,192,167025,1,0,0:0:0:0:
64,192,167076,1,0,0:0:0:0:
192,192,167127,1,0,0:0:0:0:
448,192,167178,1,0,0:0:0:0:
320,192,167229,1,0,0:0:0:0:
64,192,167333,1,0,0:0:0:0:
192,192,167333,1,0,0:0:0:0:
320,192,167385,1,0,0:0:0:0:
448,192,167438,1,0,0:0:0:0:
192,192,167490,1,0,0:0:0:0:
320,192,167543,1,0,0:0:0:0:
448,192,167595,1,0,0:0:0:0:
64,192,167648,1,0,0:0:0:0:
320,192,167701,1,0,0:0:0:0:
192,192,167753,1,0,0:0:0:0:
448,192,167753,1,0,0:0:0:0:
64,192,167803,1,0,0:0:0:0:
320,192,167854,1,0,0:0:0:0:
448,192,167905,1,0,0:0:0:0:
192,192,167956,1,0,0:0:0:0:
64,192,168007,1,0,0:0:0:0:
320,192,168057,1,0,0:0:0:0:
192,192,168160,1,0,0:0:0:0:
448,192,168160,1,0,0:0:0:0:
448,192,168258,1,0,0:0:0:0:
320,192,168307,1,0,0:0:0:0:
192,192,168356,1,0,0:0:0:0:
64,192,168405,1,0,0:0:0:0:
192,192,168503,1,0,0:0:0:0:
320,192,168553,1,0,0:0:0:0:
448,192,168553,1,0,0:0:0:0:
320,192,168652,1,0,0:0:0:0:
64,192,168702,1,0,0:0:0:0:
192,192,168752,1,0,0:0:0:0:
448,192,168801,1,0,0:0:0:0:
64,192,168851,1,0,0:0:0:0:
320,192,168901,1,0,0:0:0:0:
192,192,168951,1,0,0:0:0:0:
448,192,168951,1,0,0:0:0:0:
64,192,169002,1,0,0:0:0:0:
320,192,169053,1,0,0:0:0:0:
192,192,169104,1,0,0:0:0:0:
64,192,169155,1,0,0:0:0:0:
448,192,169206,1,0,0:0:0:0:
320,192,169257,1,0,0:0:0:0:
448,192,169309,1,0,0:0:0:0:
64,192,169360,1,0,0:0:0:0:
192,192,169360,1,0,0:0:0:0:
320,192,169409,1,0,0:0:0:0:
448,192,169458,1,0,0:0:0:0:
192,192,169507,1,0,0:0:0:0:
320,192,169556,1,0,0:0:0:0:
64,192,169605,1,0,0:0:0:0:
448,192,169654,1,0,0:0:0:0:
64,192,169703,1,0,0:0:0:0:
192,192,169753,1,0,0:0:0:0:
448,192,169803,1,0,0:0:0:0:
320,192,169853,1,0,0:0:0:0:
192,192,169903,1,0,0:0:0:0:
64,192,169953,1,0,0:0:0:0:
448,192,170003,1,0,0:0:0:0:
192,192,170053,1,0,0:0:0:0:
448,192,170103,1,0,0:0:0:0:
64,192,170154,1,0,0:0:0:0:
320,192,170154,1,0,0:0:0:0:
320,192,170254,1,0,0:0:0:0:
192,192,170355,1,0,0:0:0:0:
448,192,170355,1,0,0:0:0:0:
64,192,170423,1,0,0:0:0:0:
192,192,170490,1,0,0:0:0:0:
320,192,170558,1,0,0:0:0:0:
448,192,170558,1,0,0:0:0:0:
64,192,170608,1,0,0:0:0:0:
192,192,170658,1,0,0:0:0:0:
448,192,170708,1,0,0:0:0:0:
64,192,170758,1,0,0:0:0:0:
192,192,170808,1,0,0:0:0:0:
448,192,170858,1,0,0:0:0:0:
64,192,170908,1,0,0:0:0:0:
192,192,170958,1,0,0:0:0:0:
320,192,170958,1,0,0:0:0:0:
448,192,171009,1,0,0:0:0:0:
64,192,171059,1,0,0:0:0:0:
320,192,171109,1,0,0:0:0:0:
448,192,171159,1,0,0:0:0:0:
64,192,171209,1,0,0:0:0:0:
320,192,171259,1,0,0:0:0:0:
448,192,171309,1,0,0:0:0:0:
64,192,171359,1,0,0:0:0:0:
192,192,171359,1,0,0:0:0:0:
320,192,171426,1,0,0:0:0:0:
192,192,171493,1,0,0:0:0:0:
448,192,171560,1,0,0:0:0:0:
64,192,171627,1,0,0:0:0:0:
192,192,171694,1,0,0:0:0:0:
320,192,171761,1,0,0:0:0:0:
448,192,171761,1,0,0:0:0:0:
192,192,171827,1,0,0:0:0:0:
448,192,171893,1,0,0:0:0:0:
192,192,171960,1,0,0:0:0:0:
448,192,172026,1,0,0:0:0:0:
192,192,172092,1,0,0:0:0:0:
64,192,172159,1,0,0:0:0:0:
320,192,172159,1,0,0:0:0:0:
448,192,172159,1,0,0:0:0:0:
192,192,172229,1,0,0:0:0:0:
448,192,172299,1,0,0:0:0:0:
192,192,172369,1,0,0:0:0:0:
448,192,172439,1,0,0:0:0:0:
192,192,172509,1,0,0:0:0:0:
320,192,172580,1,0,0:0:0:0:
448,192,172580,1,0,0:0:0:0:
64,192,172683,1,0,0:0:0:0:
320,192,172683,1,0,0:0:0:0:
448,192,172683,1,0,0:0:0:0:
192,192,172786,1,0,0:0:0:0:
320,192,172889,1,0,0:0:0:0:
448,192,172889,1,0,0:0:0:0:
64,192,172923,1,0,0:0:0:0:
192,192,172992,1,0,0:0:0:0:
320,192,173060,1,0,0:0:0:0:
64,192,173095,1,0,0:0:0:0:
448,192,173129,1,0,0:0:0:0:
320,192,173198,1,0,0:0:0:0:
192,192,173266,1,0,0:0:0:0:
320,192,173335,1,0,0:0:0:0:
192,192,173404,1,0,0:0:0:0:
448,192,173404,1,0,0:0:0:0:
64,192,173469,1,0,0:0:0:0:
192,192,173535,1,0,0:0:0:0:
320,192,173601,1,0,0:0:0:0:
448,192,173667,1,0,0:0:0:0:
320,192,173733,1,0,0:0:0:0:
192,192,173800,1,0,0:0:0:0:
448,192,173800,1,0,0:0:0:0:
64,192,173866,1,0,0:0:0:0:
192,192,173932,1,0,0:0:0:0:
320,192,173999,1,0,0:0:0:0:
448,192,174065,1,0,0:0:0:0:
320,192,174131,1,0,0:0:0:0:
64,192,174198,1,0,0:0:0:0:
192,192,174198,1,0,0:0:0:0:
64,192,174301,1,0,0:0:0:0:
192,192,174301,1,0,0:0:0:0:
448,192,174301,1,0,0:0:0:0:
320,192,174404,1,0,0:0:0:0:
64,192,174507,1,0,0:0:0:0:
192,192,174507,1,0,0:0:0:0:
448,192,174507,1,0,0:0:0:0:
192,192,174610,1,0,0:0:0:0:
64,192,174707,1,0,0:0:0:0:
320,192,174707,1,0,0:0:0:0:
448,192,174707,1,0,0:0:0:0:
320,192,174804,1,0,0:0:0:0:
64,192,174901,1,0,0:0:0:0:
192,192,174901,1,0,0:0:0:0:
448,192,174901,1,0,0:0:0:0:
64,192,174998,1,0,0:0:0:0:
192,192,175101,1,0,0:0:0:0:
320,192,175101,1,0,0:0:0:0:
448,192,175101,1,0,0:0:0:0:
320,192,175205,1,0,0:0:0:0:
64,192,175309,1,0,0:0:0:0:
192,192,175361,1,0,0:0:0:0:
320,192,175413,1,0,0:0:0:0:
448,192,175413,1,0,0:0:0:0:
64,192,175463,1,0,0:0:0:0:
192,192,175513,1,0,0:0:0:0:
320,192,175563,1,0,0:0:0:0:
64,192,175613,1,0,0:0:0:0:
448,192,175613,1,0,0:0:0:0:
64,192,175713,1,0,0:0:0:0:
448,192,175713,1,0,0:0:0:0:
192,192,175813,1,0,0:0:0:0:
320,192,175813,1,0,0:0:0:0:
448,192,175864,1,0,0:0:0:0:
64,192,175914,1,0,0:0:0:0:
320,192,175964,1,0,0:0:0:0:
192,192,176014,1,0,0:0:0:0:
64,192,176064,1,0,0:0:0:0:
448,192,176114,1,0,0:0:0:0:
192,192,176214,1,0,0:0:0:0:
320,192,176214,1,0,0:0:0:0:
64,192,176315,1,0,0:0:0:0:
320,192,176315,1,0,0:0:0:0:
64,192,176415,1,0,0:0:0:0:
192,192,176415,1,0,0:0:0:0:
320,192,176515,1,0,0:0:0:0:
448,192,176515,1,0,0:0:0:0:
64,192,176616,1,0,0:0:0:0:
192,192,176616,1,0,0:0:0:0:
448,192,176616,1,0,0:0:0:0:
320,192,176716,1,0,0:0:0:0:
64,192,176817,1,0,0:0:0:0:
192,192,176817,1,0,0:0:0:0:
192,192,176918,1,0,0:0:0:0:
448,192,176918,1,0,0:0:0:0:
64,192,177019,1,0,0:0:0:0:
320,192,177019,1,0,0:0:0:0:
320,192,177120,1,0,0:0:0:0:
192,192,177221,1,0,0:0:0:0:
192,192,177322,1,0,0:0:0:0:
448,192,177322,1,0,0:0:0:0:
64,192,177423,1,0,0:0:0:0:
320,192,177423,1,0,0:0:0:0:
448,192,177423,1,0,0:0:0:0:
192,192,177524,1,0,0:0:0:0:
192,192,177625,1,0,0:0:0:0:
320,192,177625,1,0,0:0:0:0:
64,192,177726,1,0,0:0:0:0:
320,192,177827,1,0,0:0:0:0:
448,192,177827,1,0,0:0:0:0:
64,192,177922,1,0,0:0:0:0:
320,192,177922,1,0,0:0:0:0:
192,192,178018,1,0,0:0:0:0:
320,192,178114,1,0,0:0:0:0:
448,192,178114,1,0,0:0:0:0:
64,192,178210,1,0,0:0:0:0:
192,192,178210,1,0,0:0:0:0:
448,192,178210,1,0,0:0:0:0:
320,192,178308,1,0,0:0:0:0:
448,192,178358,1,0,0:0:0:0:
64,192,178407,1,0,0:0:0:0:
192,192,178457,1,0,0:0:0:0:
320,192,178506,1,0,0:0:0:0:
448,192,178506,1,0,0:0:0:0:
64,192,178606,1,0,0:0:0:0:
192,192,178606,1,0,0:0:0:0:
448,192,178606,1,0,0:0:0:0:
320,192,178706,1,0,0:0:0:0:
192,192,178756,1,0,0:0:0:0:
448,192,178806,1,0,0:0:0:0:
320,192,178856,1,0,0:0:0:0:
64,192,178906,1,0,0:0:0:0:
192,192,178906,1,0,0:0:0:0:
192,192,179006,1,0,0:0:0:0:
320,192,179006,1,0,0:0:0:0:
448,192,179006,1,0,0:0:0:0:
64,192,179107,1,0,0:0:0:0:
448,192,179107,1,0,0:0:0:0:
192,192,179157,1,0,0:0:0:0:
320,192,179207,1,0,0:0:0:0:
64,192,179307,1,0,0:0:0:0:
320,192,179407,1,0,0:0:0:0:
448,192,179407,1,0,0:0:0:0:
64,192,179458,1,0,0:0:0:0:
192,192,179508,1,0,0:0:0:0:
448,192,179558,1,0,0:0:0:0:
64,192,179608,1,0,0:0:0:0:
320,192,179608,1,0,0:0:0:0:
320,192,179708,1,0,0:0:0:0:
64,192,179809,1,0,0:0:0:0:
192,192,179809,1,0,0:0:0:0:
448,192,179809,1,0,0:0:0:0:
320,192,179860,1,0,0:0:0:0:
192,192,179912,1,0,0:0:0:0:
64,192,180016,1,0,0:0:0:0:
192,192,180068,1,0,0:0:0:0:
320,192,180120,1,0,0:0:0:0:
448,192,180172,1,0,0:0:0:0:
64,192,180223,1,0,0:0:0:0:
192,192,180223,1,0,0:0:0:0:
320,192,180275,1,0,0:0:0:0:
448,192,180327,1,0,0:0:0:0:
64,192,180379,1,0,0:0:0:0:
192,192,180483,1,0,0:0:0:0:
320,192,180483,1,0,0:0:0:0:
192,192,180639,1,0,0:0:0:0:
320,192,180639,1,0,0:0:0:0:
448,192,180639,1,0,0:0:0:0:
320,192,180741,1,0,0:0:0:0:
64,192,180843,1,0,0:0:0:0:
192,192,180843,1,0,0:0:0:0:
448,192,180945,1,0,0:0:0:0:
64,192,181048,1,0,0:0:0:0:
192,192,181048,1,0,0:0:0:0:
320,192,181048,1,0,0:0:0:0:
192,192,181146,1,0,0:0:0:0:
64,192,181244,1,0,0:0:0:0:
320,192,181244,1,0,0:0:0:0:
448,192,181244,1,0,0:0:0:0:
64,192,181342,1,0,0:0:0:0:
192,192,181441,1,0,0:0:0:0:
320,192,181441,1,0,0:0:0:0:
448,192,181441,1,0,0:0:0:0:
192,192,181543,1,0,0:0:0:0:
320,192,181645,1,0,0:0:0:0:
448,192,181645,1,0,0:0:0:0:
64,192,181696,1,0,0:0:0:0:
192,192,181747,1,0,0:0:0:0:
320,192,181799,1,0,0:0:0:0:
448,192,181850,1,0,0:0:0:0:
64,192,181901,1,0,0:0:0:0:
320,192,181953,1,0,0:0:0:0:
448,192,182004,1,0,0:0:0:0:
192,192,182056,1,0,0:0:0:0:
320,192,182107,1,0,0:0:0:0:
64,192,182159,1,0,0:0:0:0:
448,192,182210,1,0,0:0:0:0:
192,192,182262,1,0,0:0:0:0:
320,192,182262,1,0,0:0:0:0:
64,192,182313,1,0,0:0:0:0:
448,192,182365,1,0,0:0:0:0:
192,192,182416,1,0,0:0:0:0:
320,192,182468,1,0,0:0:0:0:
64,192,182519,1,0,0:0:0:0:
192,192,182571,1,0,0:0:0:0:
448,192,182622,1,0,0:0:0:0:
320,192,182674,1,0,0:0:0:0:
64,192,182723,1,0,0:0:0:0:
448,192,182772,1,0,0:0:0:0:
320,192,182822,1,0,0:0:0:0:
64,192,182871,1,0,0:0:0:0:
192,192,182871,1,0,0:0:0:0:
448,192,182921,1,0,0:0:0:0:
320,192,182970,1,0,0:0:0:0:
192,192,183020,1,0,0:0:0:0:
448,192,183069,1,0,0:0:0:0:
320,192,183119,1,0,0:0:0:0:
192,192,183168,1,0,0:0:0:0:
448,192,183218,1,0,0:0:0:0:
64,192,183267,1,0,0:0:0:0:
320,192,183267,1,0,0:0:0:0:
192,192,183366,1,0,0:0:0:0:
448,192,183366,1,0,0:0:0:0:
64,192,183466,1,0,0:0:0:0:
320,192,183466,1,0,0:0:0:0:
64,192,183566,1,0,0:0:0:0:
320,192,183566,1,0,0:0:0:0:
192,192,183666,1,0,0:0:0:0:
448,192,183666,1,0,0:0:0:0:
64,192,183766,1,0,0:0:0:0:
320,192,183766,1,0,0:0:0:0:
192,192,183867,1,0,0:0:0:0:
320,192,183867,1,0,0:0:0:0:
448,192,183867,1,0,0:0:0:0:
192,192,183965,1,0,0:0:0:0:
64,192,184063,1,0,0:0:0:0:
320,192,184063,1,0,0:0:0:0:
192,192,184161,1,0,0:0:0:0:
64,192,184260,1,0,0:0:0:0:
320,192,184260,1,0,0:0:0:0:
448,192,184260,1,0,0:0:0:0:
192,192,184358,1,0,0:0:0:0:
64,192,184457,1,0,0:0:0:0:
448,192,184457,1,0,0:0:0:0:
192,192,184556,1,0,0:0:0:0:
320,192,184556,1,0,0:0:0:0:
64,192,184655,1,0,0:0:0:0:
192,192,184655,1,0,0:0:0:0:
448,192,184655,1,0,0:0:0:0:
320,192,184754,1,0,0:0:0:0:
64,192,184853,1,0,0:0:0:0:
192,192,184853,1,0,0:0:0:0:
64,192,184952,1,0,0:0:0:0:
192,192,184952,1,0,0:0:0:0:
320,192,185051,1,0,0:0:0:0:
448,192,185051,1,0,0:0:0:0:
64,192,185102,1,0,0:0:0:0:
192,192,185154,1,0,0:0:0:0:
320,192,185206,1,0,0:0:0:0:
448,192,185258,1,0,0:0:0:0:
192,192,185310,1,0,0:0:0:0:
320,192,185362,1,0,0:0:0:0:
448,192,185414,1,0,0:0:0:0:
64,192,185466,1,0,0:0:0:0:
192,192,185466,1,0,0:0:0:0:
320,192,185516,1,0,0:0:0:0:
64,192,185567,1,0,0:0:0:0:
192,192,185618,1,0,0:0:0:0:
320,192,185669,1,0,0:0:0:0:
448,192,185720,1,0,0:0:0:0:
64,192,185770,1,0,0:0:0:0:
320,192,185821,1,0,0:0:0:0:
448,192,185872,1,0,0:0:0:0:
64,192,185923,1,0,0:0:0:0:
192,192,185974,1,0,0:0:0:0:
320,192,186024,1,0,0:0:0:0:
448,192,186075,1,0,0:0:0:0:
192,192,186126,1,0,0:0:0:0:
320,192,186177,1,0,0:0:0:0:
448,192,186228,1,0,0:0:0:0:
64,192,186279,1,0,0:0:0:0:
192,192,186279,1,0,0:0:0:0:
320,192,186329,1,0,0:0:0:0:
64,192,186379,1,0,0:0:0:0:
192,192,186429,1,0,0:0:0:0:
320,192,186479,1,0,0:0:0:0:
448,192,186529,1,0,0:0:0:0:
192,192,186579,1,0,0:0:0:0:
320,192,186629,1,0,0:0:0:0:
448,192,186680,1,0,0:0:0:0:
64,192,186730,1,0,0:0:0:0:
192,192,186780,1,0,0:0:0:0:
320,192,186831,1,0,0:0:0:0:
448,192,186881,1,0,0:0:0:0:
64,192,186932,1,0,0:0:0:0:
320,192,186982,1,0,0:0:0:0:
448,192,187033,1,0,0:0:0:0:
64,192,187084,1,0,0:0:0:0:
192,192,187084,1,0,0:0:0:0:
320,192,187134,1,0,0:0:0:0:
64,192,187184,1,0,0:0:0:0:
192,192,187234,1,0,0:0:0:0:
320,192,187284,1,0,0:0:0:0:
448,192,187334,1,0,0:0:0:0:
192,192,187384,1,0,0:0:0:0:
320,192,187434,1,0,0:0:0:0:
448,192,187484,1,0,0:0:0:0:
64,192,187535,1,0,0:0:0:0:
192,192,187585,1,0,0:0:0:0:
320,192,187635,1,0,0:0:0:0:
64,192,187685,1,0,0:0:0:0:
192,192,187735,1,0,0:0:0:0:
320,192,187785,1,0,0:0:0:0:
448,192,187835,1,0,0:0:0:0:
64,192,187885,1,0,0:0:0:0:
192,192,187885,1,0,0:0:0:0:
320,192,187936,1,0,0:0:0:0:
448,192,187986,1,0,0:0:0:0:
64,192,188036,1,0,0:0:0:0:
320,192,188086,1,0,0:0:0:0:
448,192,188136,1,0,0:0:0:0:
192,192,188186,1,0,0:0:0:0:
320,192,188236,1,0,0:0:0:0:
64,192,188286,1,0,0:0:0:0:
192,192,188337,1,0,0:0:0:0:
448,192,188387,1,0,0:0:0:0:
64,192,188437,1,0,0:0:0:0:
192,192,188487,1,0,0:0:0:0:
320,192,188537,1,0,0:0:0:0:
448,192,188587,1,0,0:0:0:0:
64,192,188637,1,0,0:0:0:0:
192,192,188687,1,0,0:0:0:0:
320,192,188687,1,0,0:0:0:0:
448,192,188738,1,0,0:0:0:0:
64,192,188788,1,0,0:0:0:0:
192,192,188838,1,0,0:0:0:0:
320,192,188888,1,0,0:0:0:0:
64,192,188938,1,0,0:0:0:0:
192,192,188988,1,0,0:0:0:0:
320,192,189038,1,0,0:0:0:0:
448,192,189088,1,0,0:0:0:0:
192,192,189139,1,0,0:0:0:0:
320,192,189189,1,0,0:0:0:0:
448,192,189239,1,0,0:0:0:0:
64,192,189289,1,0,0:0:0:0:
192,192,189339,1,0,0:0:0:0:
320,192,189389,1,0,0:0:0:0:
64,192,189439,1,0,0:0:0:0:
192,192,189489,1,0,0:0:0:0:
448,192,189489,1,0,0:0:0:0:
320,192,189540,1,0,0:0:0:0:
64,192,189590,1,0,0:0:0:0:
448,192,189640,1,0,0:0:0:0:
192,192,189690,1,0,0:0:0:0:
320,192,189740,1,0,0:0:0:0:
448,192,189790,1,0,0:0:0:0:
192,192,189840,1,0,0:0:0:0:
320,192,189890,1,0,0:0:0:0:
64,192,189941,1,0,0:0:0:0:
192,192,189991,1,0,0:0:0:0:
448,192,190041,1,0,0:0:0:0:
64,192,190091,1,0,0:0:0:0:
320,192,190141,1,0,0:0:0:0:
448,192,190191,1,0,0:0:0:0:
192,192,190241,1,0,0:0:0:0:
64,192,190292,1,0,0:0:0:0:
320,192,190292,1,0,0:0:0:0:
448,192,190342,1,0,0:0:0:0:
192,192,190392,1,0,0:0:0:0:
320,192,190443,1,0,0:0:0:0:
64,192,190493,1,0,0:0:0:0:
192,192,190544,1,0,0:0:0:0:
320,192,190594,1,0,0:0:0:0:
448,192,190645,1,0,0:0:0:0:
64,192,190695,1,0,0:0:0:0:
192,192,190743,1,0,0:0:0:0:
320,192,190792,1,0,0:0:0:0:
64,192,190841,1,0,0:0:0:0:
192,192,190890,1,0,0:0:0:0:
320,192,190939,1,0,0:0:0:0:
448,192,190987,1,0,0:0:0:0:
64,192,191036,1,0,0:0:0:0:
192,192,191086,1,0,0:0:0:0:
320,192,191086,1,0,0:0:0:0:
448,192,191137,1,0,0:0:0:0:
64,192,191189,1,0,0:0:0:0:
192,192,191240,1,0,0:0:0:0:
320,192,191292,1,0,0:0:0:0:
448,192,191343,1,0,0:0:0:0:
192,192,191395,1,0,0:0:0:0:
320,192,191446,1,0,0:0:0:0:
448,192,191498,1,0,0:0:0:0:
192,192,191548,1,0,0:0:0:0:
320,192,191598,1,0,0:0:0:0:
64,192,191648,1,0,0:0:0:0:
192,192,191698,1,0,0:0:0:0:
320,192,191748,1,0,0:0:0:0:
448,192,191798,1,0,0:0:0:0:
64,192,191848,1,0,0:0:0:0:
192,192,191898,1,0,0:0:0:0:
320,192,191898,1,0,0:0:0:0:
448,192,191949,1,0,0:0:0:0:
64,192,191999,1,0,0:0:0:0:
320,192,192049,1,0,0:0:0:0:
448,192,192099,1,0,0:0:0:0:
64,192,192149,1,0,0:0:0:0:
192,192,192199,1,0,0:0:0:0:
320,192,192249,1,0,0:0:0:0:
448,192,192300,1,0,0:0:0:0:
192,192,192349,1,0,0:0:0:0:
320,192,192399,1,0,0:0:0:0:
64,192,192449,1,0,0:0:0:0:
192,192,192499,1,0,0:0:0:0:
448,192,192548,1,0,0:0:0:0:
64,192,192598,1,0,0:0:0:0:
320,192,192648,1,0,0:0:0:0:
192,192,192698,1,0,0:0:0:0:
448,192,192698,1,0,0:0:0:0:
64,192,192748,1,0,0:0:0:0:
320,192,192797,1,0,0:0:0:0:
448,192,192847,1,0,0:0:0:0:
192,192,192897,1,0,0:0:0:0:
320,192,192947,1,0,0:0:0:0:
64,192,192997,1,0,0:0:0:0:
192,192,193046,1,0,0:0:0:0:
448,192,193096,1,0,0:0:0:0:
64,192,193146,1,0,0:0:0:0:
192,192,193196,1,0,0:0:0:0:
320,192,193246,1,0,0:0:0:0:
448,192,193295,1,0,0:0:0:0:
64,192,193345,1,0,0:0:0:0:
320,192,193395,1,0,0:0:0:0:
448,192,193445,1,0,0:0:0:0:
64,192,193495,1,0,0:0:0:0:
192,192,193495,1,0,0:0:0:0:
320,192,193544,1,0,0:0:0:0:
64,192,193594,1,0,0:0:0:0:
192,192,193644,1,0,0:0:0:0:
320,192,193694,1,0,0:0:0:0:
448,192,193743,1,0,0:0:0:0:
64,192,193793,1,0,0:0:0:0:
320,192,193843,1,0,0:0:0:0:
448,192,193893,1,0,0:0:0:0:
192,192,193943,1,0,0:0:0:0:
64,192,193992,1,0,0:0:0:0:
448,192,194042,1,0,0:0:0:0:
192,192,194092,1,0,0:0:0:0:
320,192,194125,1,0,0:0:0:0:
448,192,194158,1,0,0:0:0:0:
64,192,194225,1,0,0:0:0:0:
192,192,194258,1,0,0:0:0:0:
320,192,194291,1,0,0:0:0:0:
448,192,194291,1,0,0:0:0:0:
192,192,194491,1,0,0:0:0:0:
320,192,194491,1,0,0:0:0:0:
64,192,194692,1,0,0:0:0:0:
192,192,194692,1,0,0:0:0:0:
320,192,194757,1,0,0:0:0:0:
448,192,194757,1,0,0:0:0:0:
64,192,194823,1,0,0:0:0:0:
192,192,194823,1,0,0:0:0:0:
320,192,194888,1,0,0:0:0:0:
448,192,194888,1,0,0:0:0:0:
64,192,194954,1,0,0:0:0:0:
192,192,194954,1,0,0:0:0:0:
448,192,195019,1,0,0:0:0:0:
320,192,195019,1,0,0:0:0:0:
64,192,195086,1,0,0:0:0:0:
192,192,195086,1,0,0:0:0:0:
320,192,195153,1,0,0:0:0:0:
448,192,195153,1,0,0:0:0:0:
64,192,195221,1,0,0:0:0:0:
192,192,195221,1,0,0:0:0:0:
320,192,195289,1,0,0:0:0:0:
448,192,195289,1,0,0:0:0:0:
64,192,195356,1,0,0:0:0:0:
192,192,195356,1,0,0:0:0:0:
320,192,195424,1,0,0:0:0:0:
448,192,195424,1,0,0:0:0:0:
64,192,195492,1,0,0:0:0:0:
192,192,195492,1,0,0:0:0:0:
320,192,195558,1,0,0:0:0:0:
448,192,195558,1,0,0:0:0:0:
64,192,195624,1,0,0:0:0:0:
192,192,195624,1,0,0:0:0:0:
320,192,195691,1,0,0:0:0:0:
448,192,195691,1,0,0:0:0:0:
64,192,195757,1,0,0:0:0:0:
192,192,195757,1,0,0:0:0:0:
448,192,195823,1,0,0:0:0:0:
320,192,195823,1,0,0:0:0:0:
64,192,195890,1,0,0:0:0:0:
192,192,195890,1,0,0:0:0:0:
320,192,195956,1,0,0:0:0:0:
448,192,195956,1,0,0:0:0:0:
64,192,196023,1,0,0:0:0:0:
192,192,196023,1,0,0:0:0:0:
320,192,196089,1,0,0:0:0:0:
448,192,196089,1,0,0:0:0:0:
64,192,196155,1,0,0:0:0:0:
192,192,196155,1,0,0:0:0:0:
320,192,196222,1,0,0:0:0:0:
448,192,196222,1,0,0:0:0:0:
64,192,196289,1,0,0:0:0:0:
192,192,196289,1,0,0:0:0:0:
320,192,196356,1,0,0:0:0:0:
448,192,196356,1,0,0:0:0:0:
64,192,196424,1,0,0:0:0:0:
192,192,196424,1,0,0:0:0:0:
320,192,196492,1,0,0:0:0:0:
448,192,196492,1,0,0:0:0:0:
192,192,196593,1,0,0:0:0:0:
64,192,196695,1,0,0:0:0:0:
320,192,196695,1,0,0:0:0:0:
448,192,196695,1,0,0:0:0:0:
320,192,196826,1,0,0:0:0:0:
448,192,196826,1,0,0:0:0:0:
320,192,196958,1,0,0:0:0:0:
448,192,196958,1,0,0:0:0:0:
64,192,197091,128,0,197491:0:0:0:0:
192,192,197091,128,0,197191:0:0:0:0:
448,192,197091,1,0,0:0:0:0:
320,192,197191,1,0,0:0:0:0:
448,192,197291,1,0,0:0:0:0:
192,192,197391,1,0,0:0:0:0:
320,192,197491,1,0,0:0:0:0:
448,192,197491,1,0,0:0:0:0:
192,192,197558,1,0,0:0:0:0:
64,192,197625,1,0,0:0:0:0:
192,192,197692,1,0,0:0:0:0:
320,192,197759,1,0,0:0:0:0:
448,192,197826,1,0,0:0:0:0:
64,192,197893,1,0,0:0:0:0:
192,192,197893,1,0,0:0:0:0:
320,192,197947,1,0,0:0:0:0:
448,192,198001,1,0,0:0:0:0:
64,192,198056,1,0,0:0:0:0:
320,192,198110,1,0,0:0:0:0:
192,192,198165,1,0,0:0:0:0:
448,192,198219,1,0,0:0:0:0:
64,192,198274,1,0,0:0:0:0:
192,192,198329,1,0,0:0:0:0:
320,192,198329,1,0,0:0:0:0:
448,192,198378,1,0,0:0:0:0:
64,192,198427,1,0,0:0:0:0:
192,192,198477,1,0,0:0:0:0:
320,192,198526,1,0,0:0:0:0:
448,192,198576,1,0,0:0:0:0:
64,192,198625,1,0,0:0:0:0:
192,192,198675,1,0,0:0:0:0:
320,192,198724,1,0,0:0:0:0:
448,192,198757,1,0,0:0:0:0:
64,192,198791,1,0,0:0:0:0:
192,192,198824,1,0,0:0:0:0:
320,192,198858,1,0,0:0:0:0:
448,192,198892,1,0,0:0:0:0:
64,192,198925,1,0,0:0:0:0:
192,192,198959,1,0,0:0:0:0:
320,192,198993,1,0,0:0:0:0:
448,192,199037,1,0,0:0:0:0:
64,192,199094,1,0,0:0:0:0:
192,192,199128,1,0,0:0:0:0:
448,192,199178,1,0,0:0:0:0:
320,192,199229,1,0,0:0:0:0:
64,192,199280,1,0,0:0:0:0:
192,192,199331,1,0,0:0:0:0:
448,192,199382,1,0,0:0:0:0:
64,192,199432,1,0,0:0:0:0:
320,192,199483,1,0,0:0:0:0:
192,192,199535,1,0,0:0:0:0:
448,192,199587,1,0,0:0:0:0:
320,192,199639,1,0,0:0:0:0:
192,192,199691,1,0,0:0:0:0:
448,192,199743,1,0,0:0:0:0:
320,192,199796,1,0,0:0:0:0:
192,192,199848,1,0,0:0:0:0:
64,192,199900,1,0,0:0:0:0:
448,192,199952,1,0,0:0:0:0:
320,192,199984,1,0,0:0:0:0:
192,192,200017,1,0,0:0:0:0:
64,192,200050,1,0,0:0:0:0:
320,192,200083,1,0,0:0:0:0:
448,192,200116,1,0,0:0:0:0:
64,192,200149,1,0,0:0:0:0:
192,192,200182,1,0,0:0:0:0:
320,192,200215,1,0,0:0:0:0:
448,192,200248,1,0,0:0:0:0:
64,192,200298,1,0,0:0:0:0:
192,192,200348,1,0,0:0:0:0:
320,192,200398,1,0,0:0:0:0:
448,192,200448,1,0,0:0:0:0:
64,192,200499,1,0,0:0:0:0:
320,192,200549,1,0,0:0:0:0:
192,192,200600,1,0,0:0:0:0:
448,192,200650,1,0,0:0:0:0:
64,192,200701,1,0,0:0:0:0:
192,192,200752,1,0,0:0:0:0:
320,192,200785,1,0,0:0:0:0:
448,192,200819,1,0,0:0:0:0:
64,192,200853,1,0,0:0:0:0:
192,192,200887,1,0,0:0:0:0:
448,192,200921,1,0,0:0:0:0:
320,192,200955,1,0,0:0:0:0:
192,192,200989,1,0,0:0:0:0:
64,192,201022,1,0,0:0:0:0:
448,192,201056,1,0,0:0:0:0:
320,192,201107,1,0,0:0:0:0:
192,192,201158,1,0,0:0:0:0:
64,192,201209,1,0,0:0:0:0:
448,192,201261,1,0,0:0:0:0:
320,192,201313,1,0,0:0:0:0:
64,192,201365,1,0,0:0:0:0:
192,192,201417,1,0,0:0:0:0:
320,192,201469,1,0,0:0:0:0:
448,192,201503,1,0,0:0:0:0:
64,192,201538,1,0,0:0:0:0:
192,192,201573,1,0,0:0:0:0:
320,192,201606,1,0,0:0:0:0:
448,192,201639,1,0,0:0:0:0:
64,192,201672,1,0,0:0:0:0:
192,192,201705,1,0,0:0:0:0:
448,192,201738,1,0,0:0:0:0:
320,192,201772,1,0,0:0:0:0:
192,192,201821,1,0,0:0:0:0:
64,192,201871,1,0,0:0:0:0:
448,192,201921,1,0,0:0:0:0:
320,192,201971,1,0,0:0:0:0:
64,192,202015,1,0,0:0:0:0:
192,192,202060,1,0,0:0:0:0:
320,192,202105,1,0,0:0:0:0:
448,192,202150,1,0,0:0:0:0:
64,192,202172,1,0,0:0:0:0:
192,192,202223,1,0,0:0:0:0:
448,192,202273,1,0,0:0:0:0:
320,192,202324,1,0,0:0:0:0:
64,192,202374,1,0,0:0:0:0:
192,192,202374,1,0,0:0:0:0:
448,192,202425,1,0,0:0:0:0:
320,192,202475,1,0,0:0:0:0:
192,192,202526,1,0,0:0:0:0:
64,192,202576,1,0,0:0:0:0:
448,192,202627,1,0,0:0:0:0:
320,192,202677,1,0,0:0:0:0:
192,192,202727,1,0,0:0:0:0:
64,192,202779,1,0,0:0:0:0:
448,192,202813,1,0,0:0:0:0:
320,192,202847,1,0,0:0:0:0:
192,192,202882,1,0,0:0:0:0:
64,192,202916,1,0,0:0:0:0:
448,192,202950,1,0,0:0:0:0:
320,192,202985,1,0,0:0:0:0:
192,192,203019,1,0,0:0:0:0:
64,192,203053,1,0,0:0:0:0:
448,192,203088,1,0,0:0:0:0:
320,192,203122,1,0,0:0:0:0:
192,192,203156,1,0,0:0:0:0:
64,192,203191,1,0,0:0:0:0:
448,192,203241,1,0,0:0:0:0:
320,192,203292,1,0,0:0:0:0:
64,192,203343,1,0,0:0:0:0:
192,192,203394,1,0,0:0:0:0:
448,192,203445,1,0,0:0:0:0:
320,192,203495,1,0,0:0:0:0:
192,192,203546,1,0,0:0:0:0:
64,192,203597,1,0,0:0:0:0:
320,192,203645,1,0,0:0:0:0:
448,192,203694,1,0,0:0:0:0:
64,192,203743,1,0,0:0:0:0:
192,192,203792,1,0,0:0:0:0:
320,192,203824,1,0,0:0:0:0:
448,192,203857,1,0,0:0:0:0:
64,192,203889,1,0,0:0:0:0:
192,192,203922,1,0,0:0:0:0:
320,192,203987,1,0,0:0:0:0:
448,192,203987,1,0,0:0:0:0:
64,192,204036,1,0,0:0:0:0:
192,192,204085,1,0,0:0:0:0:
448,192,204134,1,0,0:0:0:0:
320,192,204182,1,0,0:0:0:0:
192,192,204231,1,0,0:0:0:0:
64,192,204280,1,0,0:0:0:0:
192,192,204378,1,0,0:0:0:0:
320,192,204378,1,0,0:0:0:0:
448,192,204378,1,0,0:0:0:0:
320,192,204480,1,0,0:0:0:0:
448,192,204480,1,0,0:0:0:0:
64,192,204582,1,0,0:0:0:0:
192,192,204582,1,0,0:0:0:0:
192,192,204684,1,0,0:0:0:0:
320,192,204684,1,0,0:0:0:0:
448,192,204684,1,0,0:0:0:0:
64,192,204788,1,0,0:0:0:0:
192,192,204889,1,0,0:0:0:0:
320,192,204889,1,0,0:0:0:0:
448,192,204889,1,0,0:0:0:0:
64,192,204991,1,0,0:0:0:0:
320,192,204991,1,0,0:0:0:0:
192,192,205092,1,0,0:0:0:0:
448,192,205092,1,0,0:0:0:0:
64,192,205194,1,0,0:0:0:0:
192,192,205194,1,0,0:0:0:0:
320,192,205294,1,0,0:0:0:0:
448,192,205294,1,0,0:0:0:0:
64,192,205395,1,0,0:0:0:0:
320,192,205395,1,0,0:0:0:0:
64,192,205496,1,0,0:0:0:0:
192,192,205496,1,0,0:0:0:0:
448,192,205496,1,0,0:0:0:0:
320,192,205597,1,0,0:0:0:0:
64,192,205698,1,0,0:0:0:0:
192,192,205698,1,0,0:0:0:0:
448,192,205698,1,0,0:0:0:0:
192,192,205799,1,0,0:0:0:0:
320,192,205799,1,0,0:0:0:0:
64,192,205900,1,0,0:0:0:0:
448,192,205900,1,0,0:0:0:0:
64,192,206001,1,0,0:0:0:0:
192,192,206001,1,0,0:0:0:0:
320,192,206102,1,0,0:0:0:0:
448,192,206102,1,0,0:0:0:0:
192,192,206203,1,0,0:0:0:0:
320,192,206203,1,0,0:0:0:0:
64,192,206304,1,0,0:0:0:0:
192,192,206304,1,0,0:0:0:0:
448,192,206304,1,0,0:0:0:0:
320,192,206405,1,0,0:0:0:0:
64,192,206506,1,0,0:0:0:0:
192,192,206506,1,0,0:0:0:0:
448,192,206506,1,0,0:0:0:0:
64,192,206606,1,0,0:0:0:0:
320,192,206606,1,0,0:0:0:0:
320,192,206707,1,0,0:0:0:0:
448,192,206707,1,0,0:0:0:0:
64,192,206809,1,0,0:0:0:0:
192,192,206809,1,0,0:0:0:0:
192,192,206907,1,0,0:0:0:0:
448,192,206907,1,0,0:0:0:0:
64,192,207005,1,0,0:0:0:0:
320,192,207005,1,0,0:0:0:0:
192,192,207103,1,0,0:0:0:0:
320,192,207103,1,0,0:0:0:0:
448,192,207103,1,0,0:0:0:0:
64,192,207202,1,0,0:0:0:0:
192,192,207303,1,0,0:0:0:0:
320,192,207303,1,0,0:0:0:0:
448,192,207303,1,0,0:0:0:0:
64,192,207405,1,0,0:0:0:0:
320,192,207405,1,0,0:0:0:0:
192,192,207506,1,0,0:0:0:0:
448,192,207506,1,0,0:0:0:0:
64,192,207608,1,0,0:0:0:0:
320,192,207608,1,0,0:0:0:0:
448,192,207608,1,0,0:0:0:0:
64,192,207708,1,0,0:0:0:0:
320,192,207708,1,0,0:0:0:0:
192,192,207809,1,0,0:0:0:0:
64,192,207910,1,0,0:0:0:0:
320,192,207910,1,0,0:0:0:0:
448,192,207910,1,0,0:0:0:0:
64,192,208012,1,0,0:0:0:0:
448,192,208012,1,0,0:0:0:0:
320,192,208115,1,0,0:0:0:0:
64,192,208218,1,0,0:0:0:0:
192,192,208218,1,0,0:0:0:0:
448,192,208218,1,0,0:0:0:0:
192,192,208321,1,0,0:0:0:0:
448,192,208321,1,0,0:0:0:0:
320,192,208424,1,0,0:0:0:0:
64,192,208527,1,0,0:0:0:0:
192,192,208527,1,0,0:0:0:0:
448,192,208527,1,0,0:0:0:0:
64,192,208630,1,0,0:0:0:0:
320,192,208630,1,0,0:0:0:0:
448,192,208630,1,0,0:0:0:0:
192,192,208733,1,0,0:0:0:0:
64,192,208836,1,0,0:0:0:0:
448,192,208881,1,0,0:0:0:0:
320,192,208926,1,0,0:0:0:0:
192,192,208971,1,0,0:0:0:0:
64,192,209016,128,0,209196:0:0:0:0:
448,192,209061,1,0,0:0:0:0:
320,192,209196,1,0,0:0:0:0:
448,192,209196,1,0,0:0:0:0:
192,192,209236,1,0,0:0:0:0:
64,192,209277,1,0,0:0:0:0:
192,192,209358,1,0,0:0:0:0:
320,192,209399,1,0,0:0:0:0:
448,192,209439,1,0,0:0:0:0:
64,192,209480,1,0,0:0:0:0:
192,192,209521,1,0,0:0:0:0:
320,192,209558,1,0,0:0:0:0:
64,192,209596,1,0,0:0:0:0:
448,192,209596,1,0,0:0:0:0:
320,192,209825,1,0,0:0:0:0:
448,192,209825,1,0,0:0:0:0:
64,192,209904,1,0,0:0:0:0:
192,192,209904,1,0,0:0:0:0:
320,192,209984,1,0,0:0:0:0:
448,192,209984,1,0,0:0:0:0:
192,192,210063,1,0,0:0:0:0:
320,192,210143,1,0,0:0:0:0:
448,192,210143,1,0,0:0:0:0:
64,192,210210,1,0,0:0:0:0:
192,192,210210,1,0,0:0:0:0:
448,192,210277,1,0,0:0:0:0:
64,192,210345,1,0,0:0:0:0:
192,192,210345,1,0,0:0:0:0:
320,192,210412,1,0,0:0:0:0:
448,192,210412,1,0,0:0:0:0:
192,192,210616,1,0,0:0:0:0:
320,192,210616,1,0,0:0:0:0:
64,192,210821,128,0,212412:0:0:0:0:
320,192,210821,1,0,0:0:0:0:
448,192,210821,1,0,0:0:0:0:
448,192,211250,1,0,0:0:0:0:
192,192,211681,1,0,0:0:0:0:
448,192,211681,1,0,0:0:0:0:
320,192,211707,1,0,0:0:0:0:
320,192,211889,1,0,0:0:0:0:
448,192,212098,1,0,0:0:0:0:
448,192,212307,1,0,0:0:0:0:
448,192,212412,1,0,0:0:0:0:
64,192,212516,1,0,0:0:0:0:
192,192,212516,1,0,0:0:0:0:
320,192,212516,128,0,214109:0:0:0:0:
64,192,212956,1,0,0:0:0:0:
64,192,213163,1,0,0:0:0:0:
192,192,213163,1,0,0:0:0:0:
64,192,213370,1,0,0:0:0:0:
192,192,213370,1,0,0:0:0:0:
192,192,213578,1,0,0:0:0:0:
64,192,213785,1,0,0:0:0:0:
192,192,213785,1,0,0:0:0:0:
192,192,214218,128,0,215782:0:0:0:0:
320,192,214218,1,0,0:0:0:0:
448,192,214218,1,0,0:0:0:0:
448,192,214644,1,0,0:0:0:0:
448,192,214857,1,0,0:0:0:0:
320,192,215071,1,0,0:0:0:0:
448,192,215071,1,0,0:0:0:0:
448,192,215477,1,0,0:0:0:0:
320,192,215680,1,0,0:0:0:0:
320,192,215782,1,0,0:0:0:0:
64,192,215884,1,0,0:0:0:0:
192,192,215884,1,0,0:0:0:0:
448,192,215884,128,0,217024:0:0:0:0:
192,192,216298,1,0,0:0:0:0:
192,192,216506,1,0,0:0:0:0:
64,192,216713,1,0,0:0:0:0:
192,192,216713,1,0,0:0:0:0:
320,192,216739,1,0,0:0:0:0:
64,192,216921,1,0,0:0:0:0:
320,192,217024,1,0,0:0:0:0:
192,192,217076,1,0,0:0:0:0:
64,192,217129,128,0,217433:0:0:0:0:
448,192,217129,128,0,217433:0:0:0:0:
64,192,217535,128,0,217638:0:0:0:0:
320,192,217535,128,0,217638:0:0:0:0:
448,192,217535,128,0,217638:0:0:0:0:
64,192,217742,128,0,217846:0:0:0:0:
320,192,217742,128,0,217846:0:0:0:0:
448,192,217742,128,0,217846:0:0:0:0:
64,192,217950,128,0,218156:0:0:0:0:
192,192,217950,128,0,218053:0:0:0:0:
320,192,217950,128,0,218053:0:0:0:0:
448,192,217950,128,0,218156:0:0:0:0:
192,192,218156,1,0,0:0:0:0:
320,192,218207,1,0,0:0:0:0:
64,192,218259,1,0,0:0:0:0:
448,192,218310,1,0,0:0:0:0:
192,192,218362,1,0,0:0:0:0:
320,192,218362,1,0,0:0:0:0:
64,192,218568,128,0,218839:0:0:0:0:
192,192,218568,128,0,218839:0:0:0:0:
448,192,218568,128,0,218839:0:0:0:0:
64,192,218970,128,0,219272:0:0:0:0:
320,192,218970,128,0,219272:0:0:0:0:
448,192,218970,128,0,219272:0:0:0:0:
64,192,219377,128,0,219482:0:0:0:0:
192,192,219377,128,0,219482:0:0:0:0:
320,192,219377,128,0,219482:0:0:0:0:
64,192,219588,128,0,219685:0:0:0:0:
192,192,219588,128,0,219685:0:0:0:0:
448,192,219588,128,0,219685:0:0:0:0:
64,192,219783,128,0,219880:0:0:0:0:
320,192,219783,128,0,219880:0:0:0:0:
448,192,219783,128,0,219880:0:0:0:0:
64,192,219979,128,0,220192:0:0:0:0:
192,192,219979,128,0,220192:0:0:0:0:
320,192,219979,128,0,220192:0:0:0:0:
448,192,219979,128,0,220192:0:0:0:0:
64,192,220298,1,0,0:0:0:0:
192,192,220405,1,0,0:0:0:0:
320,192,220405,1,0,0:0:0:0:
448,192,220405,128,0,220720:0:0:0:0:
64,192,220615,128,0,220720:0:0:0:0:
320,192,220720,1,0,0:0:0:0:
64,192,220826,1,0,0:0:0:0:
192,192,220826,1,0,0:0:0:0:
320,192,220895,1,0,0:0:0:0:
192,192,220965,1,0,0:0:0:0:
320,192,221034,1,0,0:0:0:0:
192,192,221104,1,0,0:0:0:0:
320,192,221174,1,0,0:0:0:0:
64,192,221244,1,0,0:0:0:0:
192,192,221278,1,0,0:0:0:0:
320,192,221313,1,0,0:0:0:0:
448,192,221347,1,0,0:0:0:0:
64,192,221399,1,0,0:0:0:0:
320,192,221451,1,0,0:0:0:0:
192,192,221555,1,0,0:0:0:0:
64,192,221658,1,0,0:0:0:0:
448,192,221658,1,0,0:0:0:0:
192,192,221726,1,0,0:0:0:0:
320,192,221761,1,0,0:0:0:0:
448,192,221795,1,0,0:0:0:0:
64,192,221864,1,0,0:0:0:0:
320,192,221898,1,0,0:0:0:0:
448,192,221932,1,0,0:0:0:0:
192,192,221967,1,0,0:0:0:0:
64,192,222070,1,0,0:0:0:0:
192,192,222070,1,0,0:0:0:0:
320,192,222173,1,0,0:0:0:0:
64,192,222276,1,0,0:0:0:0:
448,192,222276,1,0,0:0:0:0:
320,192,222327,1,0,0:0:0:0:
192,192,222379,1,0,0:0:0:0:
448,192,222430,1,0,0:0:0:0:
320,192,222482,1,0,0:0:0:0:
192,192,222533,1,0,0:0:0:0:
64,192,222585,1,0,0:0:0:0:
448,192,222636,1,0,0:0:0:0:
320,192,222688,1,0,0:0:0:0:
64,192,222739,1,0,0:0:0:0:
192,192,222791,1,0,0:0:0:0:
64,192,222894,1,0,0:0:0:0:
448,192,222894,1,0,0:0:0:0:
192,192,222945,1,0,0:0:0:0:
448,192,222997,1,0,0:0:0:0:
192,192,223048,1,0,0:0:0:0:
320,192,223100,1,0,0:0:0:0:
64,192,223151,1,0,0:0:0:0:
192,192,223203,1,0,0:0:0:0:
320,192,223254,1,0,0:0:0:0:
64,192,223306,1,0,0:0:0:0:
448,192,223306,1,0,0:0:0:0:
320,192,223409,1,0,0:0:0:0:
192,192,223443,1,0,0:0:0:0:
448,192,223512,1,0,0:0:0:0:
192,192,223615,1,0,0:0:0:0:
320,192,223718,1,0,0:0:0:0:
448,192,223718,1,0,0:0:0:0:
64,192,223769,1,0,0:0:0:0:
192,192,223821,1,0,0:0:0:0:
320,192,223872,1,0,0:0:0:0:
192,192,223924,1,0,0:0:0:0:
320,192,223975,1,0,0:0:0:0:
448,192,224027,1,0,0:0:0:0:
64,192,224078,1,0,0:0:0:0:
192,192,224130,1,0,0:0:0:0:
320,192,224130,1,0,0:0:0:0:
448,192,224181,1,0,0:0:0:0:
64,192,224233,1,0,0:0:0:0:
320,192,224336,1,0,0:0:0:0:
448,192,224336,1,0,0:0:0:0:
64,192,224387,1,0,0:0:0:0:
192,192,224439,1,0,0:0:0:0:
320,192,224490,1,0,0:0:0:0:
448,192,224543,1,0,0:0:0:0:
192,192,224612,1,0,0:0:0:0:
320,192,224682,1,0,0:0:0:0:
64,192,224751,1,0,0:0:0:0:
448,192,224751,1,0,0:0:0:0:
320,192,224804,1,0,0:0:0:0:
192,192,224856,1,0,0:0:0:0:
448,192,224908,1,0,0:0:0:0:
64,192,224960,1,0,0:0:0:0:
320,192,225030,1,0,0:0:0:0:
192,192,225100,1,0,0:0:0:0:
320,192,225170,1,0,0:0:0:0:
448,192,225170,1,0,0:0:0:0:
64,192,225222,1,0,0:0:0:0:
192,192,225275,1,0,0:0:0:0:
448,192,225328,1,0,0:0:0:0:
320,192,225380,1,0,0:0:0:0:
192,192,225433,1,0,0:0:0:0:
64,192,225485,1,0,0:0:0:0:
448,192,225538,1,0,0:0:0:0:
192,192,225591,1,0,0:0:0:0:
320,192,225591,1,0,0:0:0:0:
64,192,225643,1,0,0:0:0:0:
448,192,225696,1,0,0:0:0:0:
320,192,225748,1,0,0:0:0:0:
64,192,225801,1,0,0:0:0:0:
192,192,225853,1,0,0:0:0:0:
320,192,225906,1,0,0:0:0:0:
448,192,225959,1,0,0:0:0:0:
64,192,226011,1,0,0:0:0:0:
320,192,226064,1,0,0:0:0:0:
64,192,226116,1,0,0:0:0:0:
192,192,226169,1,0,0:0:0:0:
320,192,226222,1,0,0:0:0:0:
448,192,226222,128,0,226526:0:0:0:0:
64,192,226289,1,0,0:0:0:0:
320,192,226357,1,0,0:0:0:0:
64,192,226425,1,0,0:0:0:0:
192,192,226492,1,0,0:0:0:0:
64,192,226629,128,0,226680:0:0:0:0:
192,192,226629,128,0,226680:0:0:0:0:
320,192,226629,128,0,226731:0:0:0:0:
64,192,226833,128,0,226884:0:0:0:0:
192,192,226833,128,0,226935:0:0:0:0:
320,192,226833,128,0,226884:0:0:0:0:
64,192,227038,128,0,227242:0:0:0:0:
192,192,227038,128,0,227140:0:0:0:0:
320,192,227038,128,0,227140:0:0:0:0:
448,192,227242,128,0,227345:0:0:0:0:
192,192,227345,1,0,0:0:0:0:
64,192,227447,1,0,0:0:0:0:
448,192,227447,1,0,0:0:0:0:
192,192,227499,1,0,0:0:0:0:
64,192,227552,1,0,0:0:0:0:
320,192,227604,1,0,0:0:0:0:
192,192,227657,1,0,0:0:0:0:
64,192,227709,1,0,0:0:0:0:
448,192,227762,1,0,0:0:0:0:
320,192,227815,1,0,0:0:0:0:
64,192,227868,1,0,0:0:0:0:
448,192,227868,1,0,0:0:0:0:
192,192,227920,1,0,0:0:0:0:
320,192,227972,1,0,0:0:0:0:
448,192,228024,1,0,0:0:0:0:
192,192,228076,1,0,0:0:0:0:
320,192,228129,1,0,0:0:0:0:
64,192,228181,1,0,0:0:0:0:
192,192,228285,1,0,0:0:0:0:
448,192,228285,1,0,0:0:0:0:
320,192,228355,1,0,0:0:0:0:
64,192,228494,1,0,0:0:0:0:
320,192,228494,1,0,0:0:0:0:
192,192,228599,1,0,0:0:0:0:
320,192,228703,1,0,0:0:0:0:
448,192,228703,1,0,0:0:0:0:
192,192,228755,1,0,0:0:0:0:
64,192,228808,1,0,0:0:0:0:
448,192,228808,1,0,0:0:0:0:
192,192,228913,1,0,0:0:0:0:
320,192,228913,1,0,0:0:0:0:
448,192,228965,1,0,0:0:0:0:
64,192,229018,1,0,0:0:0:0:
320,192,229071,1,0,0:0:0:0:
192,192,229123,1,0,0:0:0:0:
64,192,229176,1,0,0:0:0:0:
448,192,229228,1,0,0:0:0:0:
192,192,229281,1,0,0:0:0:0:
320,192,229334,1,0,0:0:0:0:
64,192,229369,1,0,0:0:0:0:
448,192,229439,1,0,0:0:0:0:
320,192,229474,1,0,0:0:0:0:
64,192,229545,1,0,0:0:0:0:
192,192,229545,1,0,0:0:0:0:
448,192,229597,1,0,0:0:0:0:
192,192,229649,1,0,0:0:0:0:
448,192,229701,1,0,0:0:0:0:
192,192,229753,1,0,0:0:0:0:
320,192,229806,1,0,0:0:0:0:
64,192,229858,1,0,0:0:0:0:
320,192,229962,1,0,0:0:0:0:
448,192,229962,1,0,0:0:0:0:
192,192,230067,1,0,0:0:0:0:
64,192,230171,1,0,0:0:0:0:
448,192,230171,1,0,0:0:0:0:
320,192,230223,1,0,0:0:0:0:
192,192,230276,1,0,0:0:0:0:
320,192,230380,1,0,0:0:0:0:
448,192,230380,1,0,0:0:0:0:
64,192,230432,1,0,0:0:0:0:
192,192,230484,1,0,0:0:0:0:
448,192,230484,1,0,0:0:0:0:
64,192,230537,1,0,0:0:0:0:
320,192,230589,1,0,0:0:0:0:
192,192,230641,1,0,0:0:0:0:
448,192,230693,1,0,0:0:0:0:
64,192,230798,1,0,0:0:0:0:
192,192,230798,1,0,0:0:0:0:
320,192,230850,1,0,0:0:0:0:
448,192,230902,1,0,0:0:0:0:
64,192,231007,1,0,0:0:0:0:
192,192,231007,1,0,0:0:0:0:
320,192,231059,1,0,0:0:0:0:
448,192,231111,1,0,0:0:0:0:
64,192,231163,1,0,0:0:0:0:
320,192,231216,1,0,0:0:0:0:
192,192,231285,1,0,0:0:0:0:
64,192,231354,1,0,0:0:0:0:
320,192,231423,1,0,0:0:0:0:
448,192,231423,1,0,0:0:0:0:
192,192,231475,1,0,0:0:0:0:
64,192,231527,1,0,0:0:0:0:
320,192,231579,1,0,0:0:0:0:
192,192,231630,1,0,0:0:0:0:
448,192,231682,1,0,0:0:0:0:
320,192,231734,1,0,0:0:0:0:
64,192,231838,1,0,0:0:0:0:
448,192,231838,1,0,0:0:0:0:
192,192,231890,1,0,0:0:0:0:
320,192,231942,1,0,0:0:0:0:
448,192,231993,1,0,0:0:0:0:
64,192,232045,1,0,0:0:0:0:
192,192,232045,1,0,0:0:0:0:
320,192,232115,1,0,0:0:0:0:
64,192,232185,1,0,0:0:0:0:
448,192,232255,1,0,0:0:0:0:
320,192,232307,1,0,0:0:0:0:
448,192,232360,1,0,0:0:0:0:
64,192,232413,1,0,0:0:0:0:
320,192,232465,1,0,0:0:0:0:
192,192,232518,1,0,0:0:0:0:
64,192,232570,1,0,0:0:0:0:
448,192,232623,1,0,0:0:0:0:
192,192,232676,1,0,0:0:0:0:
320,192,232728,1,0,0:0:0:0:
64,192,232781,1,0,0:0:0:0:
320,192,232887,1,0,0:0:0:0:
448,192,232887,1,0,0:0:0:0:
64,192,232938,1,0,0:0:0:0:
192,192,232990,1,0,0:0:0:0:
448,192,233042,1,0,0:0:0:0:
320,192,233094,1,0,0:0:0:0:
192,192,233198,1,0,0:0:0:0:
64,192,233302,1,0,0:0:0:0:
448,192,233302,1,0,0:0:0:0:
192,192,233372,1,0,0:0:0:0:
448,192,233443,1,0,0:0:0:0:
320,192,233513,1,0,0:0:0:0:
64,192,233566,1,0,0:0:0:0:
192,192,233619,1,0,0:0:0:0:
64,192,233725,1,0,0:0:0:0:
448,192,233725,128,0,233965:0:0:0:0:
320,192,233805,128,0,233965:0:0:0:0:
64,192,233885,128,0,234086:0:0:0:0:
192,192,233965,128,0,234086:0:0:0:0:
320,192,234086,1,0,0:0:0:0:
64,192,234207,1,0,0:0:0:0:
448,192,234207,1,0,0:0:0:0:
320,192,234273,1,0,0:0:0:0:
192,192,234339,1,0,0:0:0:0:
64,192,234406,1,0,0:0:0:0:
320,192,234472,1,0,0:0:0:0:
192,192,234538,1,0,0:0:0:0:
448,192,234605,1,0,0:0:0:0:
320,192,234679,1,0,0:0:0:0:
192,192,234753,1,0,0:0:0:0:
64,192,234827,1,0,0:0:0:0:
320,192,234902,1,0,0:0:0:0:
192,192,234976,1,0,0:0:0:0:
64,192,235050,1,0,0:0:0:0:
448,192,235050,1,0,0:0:0:0:
192,192,235124,1,0,0:0:0:0:
320,192,235199,1,0,0:0:0:0:
448,192,235273,1,0,0:0:0:0:
320,192,235347,1,0,0:0:0:0:
192,192,235422,1,0,0:0:0:0:
64,192,235496,1,0,0:0:0:0:
448,192,235496,1,0,0:0:0:0:
192,192,235604,1,0,0:0:0:0:
64,192,235712,1,0,0:0:0:0:
448,192,235712,1,0,0:0:0:0:
320,192,235766,1,0,0:0:0:0:
192,192,235820,1,0,0:0:0:0:
448,192,235874,1,0,0:0:0:0:
320,192,235928,1,0,0:0:0:0:
64,192,235982,1,0,0:0:0:0:
192,192,236037,1,0,0:0:0:0:
320,192,236091,1,0,0:0:0:0:
448,192,236145,1,0,0:0:0:0:
64,192,236199,1,0,0:0:0:0:
192,192,236253,1,0,0:0:0:0:
448,192,236307,1,0,0:0:0:0:
64,192,236362,1,0,0:0:0:0:
320,192,236414,1,0,0:0:0:0:
192,192,236466,1,0,0:0:0:0:
448,192,236518,1,0,0:0:0:0:
320,192,236570,1,0,0:0:0:0:
192,192,236623,1,0,0:0:0:0:
64,192,236675,1,0,0:0:0:0:
320,192,236780,1,0,0:0:0:0:
448,192,236780,1,0,0:0:0:0:
192,192,236994,1,0,0:0:0:0:
448,192,236994,128,0,237048:0:0:0:0:
192,192,237209,1,0,0:0:0:0:
64,192,237424,1,0,0:0:0:0:
448,192,237424,1,0,0:0:0:0:
192,192,237496,1,0,0:0:0:0:
320,192,237567,1,0,0:0:0:0:
64,192,237639,1,0,0:0:0:0:
192,192,237639,1,0,0:0:0:0:
448,192,237702,1,0,0:0:0:0:
320,192,237765,1,0,0:0:0:0:
192,192,237828,1,0,0:0:0:0:
448,192,237891,1,0,0:0:0:0:
320,192,237954,1,0,0:0:0:0:
64,192,238018,1,0,0:0:0:0:
192,192,238081,1,0,0:0:0:0:
448,192,238136,1,0,0:0:0:0:
320,192,238191,1,0,0:0:0:0:
192,192,238247,1,0,0:0:0:0:
64,192,238302,1,0,0:0:0:0:
448,192,238302,1,0,0:0:0:0:
320,192,238376,1,0,0:0:0:0:
64,192,238450,1,0,0:0:0:0:
320,192,238524,1,0,0:0:0:0:
448,192,238524,1,0,0:0:0:0:
192,192,238632,1,0,0:0:0:0:
64,192,238741,128,0,238850:0:0:0:0:
448,192,238741,1,0,0:0:0:0:
320,192,238796,1,0,0:0:0:0:
64,192,238960,128,0,239068:0:0:0:0:
320,192,238960,1,0,0:0:0:0:
448,192,239014,1,0,0:0:0:0:
64,192,239176,128,0,239284:0:0:0:0:
448,192,239176,1,0,0:0:0:0:
320,192,239230,1,0,0:0:0:0:
64,192,239392,1,0,0:0:0:0:
448,192,239392,1,0,0:0:0:0:
192,192,239446,1,0,0:0:0:0:
320,192,239501,1,0,0:0:0:0:
448,192,239555,1,0,0:0:0:0:
64,192,239609,1,0,0:0:0:0:
320,192,239663,1,0,0:0:0:0:
448,192,239717,1,0,0:0:0:0:
192,192,239771,1,0,0:0:0:0:
64,192,239825,1,0,0:0:0:0:
320,192,239897,1,0,0:0:0:0:
64,192,239949,1,0,0:0:0:0:
192,192,240011,1,0,0:0:0:0:
448,192,240078,1,0,0:0:0:0:
320,192,240114,1,0,0:0:0:0:
192,192,240150,1,0,0:0:0:0:
64,192,240186,1,0,0:0:0:0:
320,192,240258,1,0,0:0:0:0:
448,192,240258,1,0,0:0:0:0:
64,192,240420,1,0,0:0:0:0:
192,192,240474,1,0,0:0:0:0:
448,192,240474,1,0,0:0:0:0:
320,192,240528,1,0,0:0:0:0:
320,192,240637,1,0,0:0:0:0:
64,192,240691,1,0,0:0:0:0:
448,192,240691,1,0,0:0:0:0:
192,192,240799,1,0,0:0:0:0:
64,192,240907,1,0,0:0:0:0:
448,192,240907,1,0,0:0:0:0:
320,192,240979,1,0,0:0:0:0:
192,192,241051,1,0,0:0:0:0:
320,192,241124,1,0,0:0:0:0:
448,192,241195,1,0,0:0:0:0:
64,192,241267,1,0,0:0:0:0:
192,192,241338,128,0,241446:0:0:0:0:
320,192,241338,128,0,241446:0:0:0:0:
448,192,241446,1,0,0:0:0:0:
192,192,241554,1,0,0:0:0:0:
192,192,241663,1,0,0:0:0:0:
64,192,241773,128,0,241883:0:0:0:0:
320,192,241773,128,0,241883:0:0:0:0:
192,192,241938,1,0,0:0:0:0:
320,192,241993,1,0,0:0:0:0:
448,192,241993,1,0,0:0:0:0:
64,192,242206,128,0,242312:0:0:0:0:
448,192,242206,1,0,0:0:0:0:
320,192,242259,1,0,0:0:0:0:
64,192,242420,1,0,0:0:0:0:
448,192,242420,128,0,242528:0:0:0:0:
192,192,242474,1,0,0:0:0:0:
64,192,242636,128,0,242744:0:0:0:0:
448,192,242636,1,0,0:0:0:0:
320,192,242690,1,0,0:0:0:0:
320,192,242852,1,0,0:0:0:0:
448,192,242852,1,0,0:0:0:0:
64,192,242900,1,0,0:0:0:0:
192,192,242948,1,0,0:0:0:0:
448,192,242997,1,0,0:0:0:0:
64,192,243045,1,0,0:0:0:0:
192,192,243093,1,0,0:0:0:0:
320,192,243141,1,0,0:0:0:0:
64,192,243213,1,0,0:0:0:0:
448,192,243285,1,0,0:0:0:0:
320,192,243321,1,0,0:0:0:0:
192,192,243357,1,0,0:0:0:0:
64,192,243393,1,0,0:0:0:0:
448,192,243465,1,0,0:0:0:0:
192,192,243502,1,0,0:0:0:0:
448,192,243574,1,0,0:0:0:0:
320,192,243646,1,0,0:0:0:0:
64,192,243718,1,0,0:0:0:0:
448,192,243718,1,0,0:0:0:0:
320,192,243788,1,0,0:0:0:0:
448,192,243858,1,0,0:0:0:0:
64,192,243928,1,0,0:0:0:0:
192,192,243980,1,0,0:0:0:0:
320,192,244033,1,0,0:0:0:0:
64,192,244086,1,0,0:0:0:0:
192,192,244138,1,0,0:0:0:0:
320,192,244191,1,0,0:0:0:0:
64,192,244243,1,0,0:0:0:0:
192,192,244296,1,0,0:0:0:0:
320,192,244349,1,0,0:0:0:0:
448,192,244349,1,0,0:0:0:0:
64,192,244419,1,0,0:0:0:0:
448,192,244489,1,0,0:0:0:0:
192,192,244559,1,0,0:0:0:0:
320,192,244559,1,0,0:0:0:0:
64,192,244629,1,0,0:0:0:0:
192,192,244699,1,0,0:0:0:0:
64,192,244769,1,0,0:0:0:0:
320,192,244769,1,0,0:0:0:0:
448,192,244839,1,0,0:0:0:0:
320,192,244909,1,0,0:0:0:0:
64,192,244980,1,0,0:0:0:0:
192,192,244980,1,0,0:0:0:0:
448,192,245050,1,0,0:0:0:0:
320,192,245120,1,0,0:0:0:0:
64,192,245190,1,0,0:0:0:0:
192,192,245190,1,0,0:0:0:0:
448,192,245260,1,0,0:0:0:0:
320,192,245330,1,0,0:0:0:0:
64,192,245401,1,0,0:0:0:0:
192,192,245401,1,0,0:0:0:0:
448,192,245468,1,0,0:0:0:0:
320,192,245536,1,0,0:0:0:0:
64,192,245604,1,0,0:0:0:0:
192,192,245604,1,0,0:0:0:0:
192,192,245705,1,0,0:0:0:0:
64,192,245807,1,0,0:0:0:0:
320,192,245807,128,0,246112:0:0:0:0:
448,192,245807,1,0,0:0:0:0:
192,192,246010,1,0,0:0:0:0:
64,192,246214,1,0,0:0:0:0:
192,192,246249,1,0,0:0:0:0:
320,192,246284,1,0,0:0:0:0:
64,192,246319,1,0,0:0:0:0:
448,192,246355,1,0,0:0:0:0:
320,192,246390,1,0,0:0:0:0:
192,192,246425,1,0,0:0:0:0:
448,192,246461,1,0,0:0:0:0:
64,192,246496,1,0,0:0:0:0:
192,192,246531,1,0,0:0:0:0:
320,192,246567,1,0,0:0:0:0:
448,192,246602,1,0,0:0:0:0:
64,192,246637,1,0,0:0:0:0:
448,192,246849,1,0,0:0:0:0:
320,192,246884,1,0,0:0:0:0:
192,192,246920,1,0,0:0:0:0:
64,192,246955,1,0,0:0:0:0:
448,192,246990,1,0,0:0:0:0:
192,192,247025,1,0,0:0:0:0:
320,192,247061,1,0,0:0:0:0:
448,192,247096,1,0,0:0:0:0:
64,192,247131,1,0,0:0:0:0:
320,192,247167,1,0,0:0:0:0:
192,192,247202,1,0,0:0:0:0:
448,192,247237,1,0,0:0:0:0:
64,192,247273,1,0,0:0:0:0:
320,192,247326,1,0,0:0:0:0:
64,192,247379,1,0,0:0:0:0:
192,192,247431,1,0,0:0:0:0:
320,192,247485,1,0,0:0:0:0:
448,192,247485,1,0,0:0:0:0:
64,192,247679,1,0,0:0:0:0:
192,192,247679,1,0,0:0:0:0:
448,192,247700,1,0,0:0:0:0:
320,192,247743,1,0,0:0:0:0:
192,192,247786,1,0,0:0:0:0:
448,192,247829,1,0,0:0:0:0:
64,192,247873,1,0,0:0:0:0:
192,192,247920,1,0,0:0:0:0:
320,192,247968,1,0,0:0:0:0:
448,192,248016,1,0,0:0:0:0:
64,192,248087,1,0,0:0:0:0:
192,192,248087,1,0,0:0:0:0:
192,192,248195,1,0,0:0:0:0:
320,192,248302,1,0,0:0:0:0:
448,192,248302,1,0,0:0:0:0:
320,192,248410,1,0,0:0:0:0:
64,192,248517,1,0,0:0:0:0:
192,192,248517,1,0,0:0:0:0:
448,192,248571,1,0,0:0:0:0:
320,192,248625,1,0,0:0:0:0:
64,192,248678,1,0,0:0:0:0:
448,192,248732,1,0,0:0:0:0:
320,192,248784,1,0,0:0:0:0:
192,192,248837,1,0,0:0:0:0:
64,192,248889,1,0,0:0:0:0:
320,192,248942,1,0,0:0:0:0:
448,192,248942,1,0,0:0:0:0:
320,192,249047,1,0,0:0:0:0:
64,192,249152,1,0,0:0:0:0:
192,192,249152,1,0,0:0:0:0:
192,192,249257,1,0,0:0:0:0:
320,192,249363,1,0,0:0:0:0:
448,192,249363,1,0,0:0:0:0:
64,192,249415,1,0,0:0:0:0:
192,192,249468,1,0,0:0:0:0:
448,192,249520,1,0,0:0:0:0:
64,192,249573,1,0,0:0:0:0:
320,192,249573,1,0,0:0:0:0:
320,192,249676,1,0,0:0:0:0:
448,192,249676,1,0,0:0:0:0:
64,192,249727,1,0,0:0:0:0:
192,192,249779,1,0,0:0:0:0:
448,192,249830,1,0,0:0:0:0:
64,192,249882,1,0,0:0:0:0:
320,192,249933,1,0,0:0:0:0:
192,192,249985,1,0,0:0:0:0:
448,192,250036,1,0,0:0:0:0:
64,192,250087,1,0,0:0:0:0:
448,192,250138,1,0,0:0:0:0:
320,192,250189,1,0,0:0:0:0:
64,192,250240,1,0,0:0:0:0:
192,192,250291,1,0,0:0:0:0:
64,192,250343,1,0,0:0:0:0:
320,192,250395,1,0,0:0:0:0:
448,192,250395,1,0,0:0:0:0:
64,192,250807,128,0,251124:0:0:0:0:
448,192,250807,128,0,251124:0:0:0:0:
64,192,251230,1,0,0:0:0:0:
192,192,251230,1,0,0:0:0:0:
320,192,251283,1,0,0:0:0:0:
448,192,251336,1,0,0:0:0:0:
64,192,251389,1,0,0:0:0:0:
192,192,251442,1,0,0:0:0:0:
320,192,251442,1,0,0:0:0:0:
448,192,251495,1,0,0:0:0:0:
64,192,251548,1,0,0:0:0:0:
192,192,251601,1,0,0:0:0:0:
320,192,251654,1,0,0:0:0:0:
448,192,251654,1,0,0:0:0:0:
64,192,251705,1,0,0:0:0:0:
448,192,251757,1,0,0:0:0:0:
192,192,251809,1,0,0:0:0:0:
64,192,251861,1,0,0:0:0:0:
320,192,251861,1,0,0:0:0:0:
448,192,251913,1,0,0:0:0:0:
192,192,251965,1,0,0:0:0:0:
320,192,252017,1,0,0:0:0:0:
448,192,252069,1,0,0:0:0:0:
64,192,252116,1,0,0:0:0:0:
320,192,252163,1,0,0:0:0:0:
192,192,252210,1,0,0:0:0:0:
64,192,252257,1,0,0:0:0:0:
448,192,252304,1,0,0:0:0:0:
320,192,252351,1,0,0:0:0:0:
192,192,252398,1,0,0:0:0:0:
64,192,252445,1,0,0:0:0:0:
320,192,252492,1,0,0:0:0:0:
448,192,252492,1,0,0:0:0:0:
64,192,252704,1,0,0:0:0:0:
448,192,252704,1,0,0:0:0:0:
320,192,252757,1,0,0:0:0:0:
192,192,252810,1,0,0:0:0:0:
448,192,252863,1,0,0:0:0:0:
320,192,252916,1,0,0:0:0:0:
64,192,252969,1,0,0:0:0:0:
192,192,253022,1,0,0:0:0:0:
320,192,253075,1,0,0:0:0:0:
64,192,253128,1,0,0:0:0:0:
448,192,253128,1,0,0:0:0:0:
192,192,253234,1,0,0:0:0:0:
320,192,253234,1,0,0:0:0:0:
64,192,253340,1,0,0:0:0:0:
192,192,253340,1,0,0:0:0:0:
448,192,253340,1,0,0:0:0:0:
320,192,253440,1,0,0:0:0:0:
64,192,253540,1,0,0:0:0:0:
320,192,253540,1,0,0:0:0:0:
448,192,253540,1,0,0:0:0:0:
192,192,253640,1,0,0:0:0:0:
64,192,253741,1,0,0:0:0:0:
448,192,253741,1,0,0:0:0:0:
192,192,253813,1,0,0:0:0:0:
320,192,253849,1,0,0:0:0:0:
448,192,253885,1,0,0:0:0:0:
64,192,253921,1,0,0:0:0:0:
192,192,253957,1,0,0:0:0:0:
320,192,253993,1,0,0:0:0:0:
448,192,254029,1,0,0:0:0:0:
64,192,254101,1,0,0:0:0:0:
192,192,254137,1,0,0:0:0:0:
320,192,254173,1,0,0:0:0:0:
448,192,254173,1,0,0:0:0:0:
320,192,254273,1,0,0:0:0:0:
448,192,254273,1,0,0:0:0:0:
320,192,254373,1,0,0:0:0:0:
448,192,254373,1,0,0:0:0:0:
192,192,254473,1,0,0:0:0:0:
64,192,254574,1,0,0:0:0:0:
192,192,254574,1,0,0:0:0:0:
448,192,254621,1,0,0:0:0:0:
320,192,254668,1,0,0:0:0:0:
64,192,254715,1,0,0:0:0:0:
448,192,254762,1,0,0:0:0:0:
320,192,254809,1,0,0:0:0:0:
192,192,254856,1,0,0:0:0:0:
64,192,254903,1,0,0:0:0:0:
192,192,254997,1,0,0:0:0:0:
320,192,254997,1,0,0:0:0:0:
448,192,255103,1,0,0:0:0:0:
320,192,255209,1,0,0:0:0:0:
448,192,255209,1,0,0:0:0:0:
64,192,255262,1,0,0:0:0:0:
192,192,255315,1,0,0:0:0:0:
320,192,255368,1,0,0:0:0:0:
192,192,255422,1,0,0:0:0:0:
64,192,255474,1,0,0:0:0:0:
448,192,255526,1,0,0:0:0:0:
320,192,255578,1,0,0:0:0:0:
192,192,255630,1,0,0:0:0:0:
320,192,255683,1,0,0:0:0:0:
448,192,255735,1,0,0:0:0:0:
64,192,255787,1,0,0:0:0:0:
192,192,255840,1,0,0:0:0:0:
320,192,255840,1,0,0:0:0:0:
448,192,255890,1,0,0:0:0:0:
64,192,255941,1,0,0:0:0:0:
192,192,255992,1,0,0:0:0:0:
320,192,256043,1,0,0:0:0:0:
192,192,256094,1,0,0:0:0:0:
320,192,256144,1,0,0:0:0:0:
448,192,256195,1,0,0:0:0:0:
64,192,256246,1,0,0:0:0:0:
192,192,256246,1,0,0:0:0:0:
448,192,256317,1,0,0:0:0:0:
320,192,256388,1,0,0:0:0:0:
64,192,256459,1,0,0:0:0:0:
192,192,256459,1,0,0:0:0:0:
448,192,256530,1,0,0:0:0:0:
320,192,256601,1,0,0:0:0:0:
64,192,256673,128,0,256777:0:0:0:0:
192,192,256673,1,0,0:0:0:0:
448,192,256673,1,0,0:0:0:0:
320,192,256777,1,0,0:0:0:0:
64,192,256881,1,0,0:0:0:0:
448,192,256881,1,0,0:0:0:0:
192,192,256986,1,0,0:0:0:0:
320,192,256986,1,0,0:0:0:0:
64,192,257090,1,0,0:0:0:0:
192,192,257090,1,0,0:0:0:0:
320,192,257090,1,0,0:0:0:0:
448,192,257090,1,0,0:0:0:0:
64,192,257300,128,0,257721:0:0:0:0:
448,192,257300,128,0,257721:0:0:0:0:
320,192,257721,1,0,0:0:0:0:
64,192,257931,1,0,0:0:0:0:
192,192,257931,1,0,0:0:0:0:
448,192,257983,1,0,0:0:0:0:
192,192,258036,1,0,0:0:0:0:
64,192,258089,1,0,0:0:0:0:
320,192,258141,1,0,0:0:0:0:
448,192,258141,1,0,0:0:0:0:
192,192,258194,1,0,0:0:0:0:
64,192,258246,1,0,0:0:0:0:
448,192,258299,1,0,0:0:0:0:
192,192,258352,1,0,0:0:0:0:
320,192,258352,1,0,0:0:0:0:
64,192,258404,1,0,0:0:0:0:
448,192,258457,1,0,0:0:0:0:
320,192,258509,1,0,0:0:0:0:
64,192,258562,1,0,0:0:0:0:
192,192,258562,1,0,0:0:0:0:
448,192,258614,1,0,0:0:0:0:
320,192,258667,1,0,0:0:0:0:
192,192,258720,1,0,0:0:0:0:
448,192,258772,1,0,0:0:0:0:
64,192,258819,1,0,0:0:0:0:
192,192,258866,1,0,0:0:0:0:
320,192,258912,1,0,0:0:0:0:
448,192,258959,1,0,0:0:0:0:
64,192,259006,1,0,0:0:0:0:
192,192,259053,1,0,0:0:0:0:
320,192,259099,1,0,0:0:0:0:
448,192,259146,1,0,0:0:0:0:
64,192,259194,1,0,0:0:0:0:
192,192,259194,1,0,0:0:0:0:
320,192,259400,1,0,0:0:0:0:
448,192,259400,1,0,0:0:0:0:
64,192,259451,1,0,0:0:0:0:
192,192,259503,1,0,0:0:0:0:
448,192,259554,1,0,0:0:0:0:
320,192,259606,1,0,0:0:0:0:
192,192,259657,1,0,0:0:0:0:
64,192,259708,1,0,0:0:0:0:
448,192,259759,1,0,0:0:0:0:
192,192,259810,1,0,0:0:0:0:
320,192,259810,1,0,0:0:0:0:
64,192,259912,1,0,0:0:0:0:
320,192,259912,1,0,0:0:0:0:
64,192,260015,1,0,0:0:0:0:
192,192,260015,1,0,0:0:0:0:
448,192,260015,1,0,0:0:0:0:
320,192,260117,1,0,0:0:0:0:
64,192,260219,1,0,0:0:0:0:
320,192,260219,1,0,0:0:0:0:
448,192,260219,1,0,0:0:0:0:
192,192,260322,1,0,0:0:0:0:
64,192,260424,1,0,0:0:0:0:
448,192,260424,1,0,0:0:0:0:
320,192,260493,1,0,0:0:0:0:
64,192,260562,1,0,0:0:0:0:
320,192,260631,1,0,0:0:0:0:
64,192,260700,1,0,0:0:0:0:
320,192,260769,1,0,0:0:0:0:
64,192,260838,1,0,0:0:0:0:
192,192,260838,1,0,0:0:0:0:
64,192,260942,1,0,0:0:0:0:
192,192,260942,1,0,0:0:0:0:
320,192,261046,1,0,0:0:0:0:
448,192,261046,1,0,0:0:0:0:
320,192,261150,1,0,0:0:0:0:
448,192,261150,1,0,0:0:0:0:
64,192,261254,1,0,0:0:0:0:
192,192,261254,1,0,0:0:0:0:
448,192,261301,1,0,0:0:0:0:
320,192,261348,1,0,0:0:0:0:
64,192,261396,1,0,0:0:0:0:
192,192,261443,1,0,0:0:0:0:
448,192,261491,1,0,0:0:0:0:
64,192,261538,1,0,0:0:0:0:
192,192,261585,1,0,0:0:0:0:
320,192,261633,1,0,0:0:0:0:
64,192,261681,1,0,0:0:0:0:
448,192,261681,1,0,0:0:0:0:
320,192,261786,1,0,0:0:0:0:
192,192,261892,1,0,0:0:0:0:
320,192,261892,1,0,0:0:0:0:
64,192,261945,1,0,0:0:0:0:
448,192,261998,1,0,0:0:0:0:
320,192,262051,1,0,0:0:0:0:
64,192,262104,1,0,0:0:0:0:
192,192,262157,1,0,0:0:0:0:
448,192,262210,1,0,0:0:0:0:
320,192,262263,1,0,0:0:0:0:
192,192,262316,1,0,0:0:0:0:
64,192,262369,1,0,0:0:0:0:
320,192,262422,1,0,0:0:0:0:
448,192,262475,1,0,0:0:0:0:
64,192,262528,1,0,0:0:0:0:
192,192,262528,1,0,0:0:0:0:
64,192,262632,1,0,0:0:0:0:
192,192,262632,1,0,0:0:0:0:
64,192,262736,1,0,0:0:0:0:
192,192,262736,1,0,0:0:0:0:
448,192,262736,1,0,0:0:0:0:
192,192,262946,1,0,0:0:0:0:
320,192,262946,1,0,0:0:0:0:
448,192,262946,1,0,0:0:0:0:
64,192,263017,1,0,0:0:0:0:
192,192,263088,1,0,0:0:0:0:
320,192,263159,1,0,0:0:0:0:
448,192,263159,1,0,0:0:0:0:
64,192,263230,1,0,0:0:0:0:
192,192,263301,1,0,0:0:0:0:
64,192,263372,1,0,0:0:0:0:
320,192,263372,1,0,0:0:0:0:
448,192,263372,1,0,0:0:0:0:
320,192,263477,1,0,0:0:0:0:
64,192,263582,1,0,0:0:0:0:
448,192,263582,1,0,0:0:0:0:
320,192,263634,1,0,0:0:0:0:
192,192,263687,1,0,0:0:0:0:
448,192,263740,1,0,0:0:0:0:
64,192,263793,1,0,0:0:0:0:
320,192,263793,1,0,0:0:0:0:
64,192,264010,128,0,264548:0:0:0:0:
448,192,264010,128,0,264548:0:0:0:0:
192,192,264229,1,0,0:0:0:0:
192,192,264442,1,0,0:0:0:0:
320,192,264656,1,0,0:0:0:0:
448,192,264656,1,0,0:0:0:0:
64,192,264729,1,0,0:0:0:0:
192,192,264803,1,0,0:0:0:0:
320,192,264877,1,0,0:0:0:0:
192,192,264950,1,0,0:0:0:0:
320,192,265024,1,0,0:0:0:0:
64,192,265098,1,0,0:0:0:0:
448,192,265098,1,0,0:0:0:0:
192,192,265172,1,0,0:0:0:0:
448,192,265245,1,0,0:0:0:0:
320,192,265319,1,0,0:0:0:0:
192,192,265374,1,0,0:0:0:0:
448,192,265430,1,0,0:0:0:0:
320,192,265485,1,0,0:0:0:0:
64,192,265540,1,0,0:0:0:0:
192,192,265540,1,0,0:0:0:0:
448,192,265651,1,0,0:0:0:0:
320,192,265761,1,0,0:0:0:0:
64,192,265817,1,0,0:0:0:0:
192,192,265872,1,0,0:0:0:0:
320,192,265927,1,0,0:0:0:0:
64,192,265983,1,0,0:0:0:0:
192,192,266038,1,0,0:0:0:0:
320,192,266093,1,0,0:0:0:0:
448,192,266149,1,0,0:0:0:0:
192,192,266204,1,0,0:0:0:0:
320,192,266259,1,0,0:0:0:0:
448,192,266314,1,0,0:0:0:0:
192,192,266370,1,0,0:0:0:0:
64,192,266425,1,0,0:0:0:0:
448,192,266497,1,0,0:0:0:0:
320,192,266569,1,0,0:0:0:0:
64,192,266641,1,0,0:0:0:0:
192,192,266713,1,0,0:0:0:0:
64,192,266785,1,0,0:0:0:0:
320,192,266858,1,0,0:0:0:0:
192,192,266911,1,0,0:0:0:0:
448,192,266965,1,0,0:0:0:0:
320,192,267019,1,0,0:0:0:0:
64,192,267072,1,0,0:0:0:0:
192,192,267144,1,0,0:0:0:0:
320,192,267216,1,0,0:0:0:0:
64,192,267288,1,0,0:0:0:0:
192,192,267288,1,0,0:0:0:0:
448,192,267342,1,0,0:0:0:0:
320,192,267396,1,0,0:0:0:0:
192,192,267451,1,0,0:0:0:0:
64,192,267505,1,0,0:0:0:0:
448,192,267560,1,0,0:0:0:0:
320,192,267614,1,0,0:0:0:0:
64,192,267723,1,0,0:0:0:0:
192,192,267723,128,0,267832:0:0:0:0:
320,192,267941,1,0,0:0:0:0:
64,192,268159,1,0,0:0:0:0:
320,192,268159,1,0,0:0:0:0:
192,192,268214,1,0,0:0:0:0:
448,192,268268,1,0,0:0:0:0:
64,192,268323,1,0,0:0:0:0:
192,192,268377,1,0,0:0:0:0:
320,192,268432,1,0,0:0:0:0:
64,192,268486,1,0,0:0:0:0:
192,192,268541,1,0,0:0:0:0:
448,192,268595,1,0,0:0:0:0:
320,192,268668,1,0,0:0:0:0:
448,192,268741,1,0,0:0:0:0:
64,192,268813,1,0,0:0:0:0:
320,192,268868,1,0,0:0:0:0:
192,192,268922,1,0,0:0:0:0:
64,192,268977,1,0,0:0:0:0:
320,192,269031,1,0,0:0:0:0:
448,192,269031,1,0,0:0:0:0:
192,192,269249,1,0,0:0:0:0:
448,192,269249,1,0,0:0:0:0:
64,192,269322,1,0,0:0:0:0:
192,192,269395,1,0,0:0:0:0:
320,192,269467,1,0,0:0:0:0:
448,192,269467,1,0,0:0:0:0:
192,192,269540,1,0,0:0:0:0:
64,192,269613,1,0,0:0:0:0:
192,192,269685,1,0,0:0:0:0:
448,192,269685,1,0,0:0:0:0:
320,192,269758,1,0,0:0:0:0:
448,192,269831,1,0,0:0:0:0:
64,192,269903,1,0,0:0:0:0:
192,192,269976,1,0,0:0:0:0:
320,192,270049,1,0,0:0:0:0:
448,192,270122,1,0,0:0:0:0:
64,192,270195,1,0,0:0:0:0:
192,192,270268,1,0,0:0:0:0:
320,192,270343,1,0,0:0:0:0:
448,192,270415,1,0,0:0:0:0:
64,192,270488,1,0,0:0:0:0:
192,192,270560,1,0,0:0:0:0:
320,192,270633,1,0,0:0:0:0:
448,192,270706,1,0,0:0:0:0:
64,192,270778,1,0,0:0:0:0:
192,192,270778,1,0,0:0:0:0:
448,192,270851,1,0,0:0:0:0:
320,192,270924,1,0,0:0:0:0:
64,192,270996,1,0,0:0:0:0:
192,192,270996,1,0,0:0:0:0:
448,192,271069,1,0,0:0:0:0:
320,192,271142,1,0,0:0:0:0:
64,192,271214,1,0,0:0:0:0:
192,192,271214,1,0,0:0:0:0:
448,192,271288,1,0,0:0:0:0:
320,192,271362,1,0,0:0:0:0:
64,192,271436,1,0,0:0:0:0:
192,192,271436,1,0,0:0:0:0:
448,192,271511,1,0,0:0:0:0:
320,192,271585,1,0,0:0:0:0:
64,192,271659,1,0,0:0:0:0:
192,192,271659,1,0,0:0:0:0:
448,192,271715,1,0,0:0:0:0:
320,192,271771,1,0,0:0:0:0:
192,192,271826,1,0,0:0:0:0:
64,192,271882,1,0,0:0:0:0:
448,192,271938,1,0,0:0:0:0:
192,192,271993,1,0,0:0:0:0:
64,192,272049,1,0,0:0:0:0:
320,192,272105,1,0,0:0:0:0:
448,192,272179,1,0,0:0:0:0:
320,192,272253,1,0,0:0:0:0:
64,192,272328,1,0,0:0:0:0:
192,192,272383,1,0,0:0:0:0:
320,192,272439,1,0,0:0:0:0:
448,192,272495,1,0,0:0:0:0:
64,192,272551,1,0,0:0:0:0:
192,192,272551,1,0,0:0:0:0:
448,192,272767,1,0,0:0:0:0:
320,192,272821,1,0,0:0:0:0:
192,192,272875,1,0,0:0:0:0:
448,192,272929,1,0,0:0:0:0:
320,192,272984,1,0,0:0:0:0:
64,192,273210,1,0,0:0:0:0:
192,192,273266,1,0,0:0:0:0:
64,192,273323,1,0,0:0:0:0:
320,192,273379,1,0,0:0:0:0:
192,192,273437,1,0,0:0:0:0:
64,192,273491,1,0,0:0:0:0:
320,192,273545,1,0,0:0:0:0:
448,192,273599,1,0,0:0:0:0:
192,192,273653,1,0,0:0:0:0:
448,192,273725,1,0,0:0:0:0:
192,192,273797,1,0,0:0:0:0:
320,192,273869,1,0,0:0:0:0:
64,192,273923,1,0,0:0:0:0:
448,192,273978,1,0,0:0:0:0:
320,192,274032,1,0,0:0:0:0:
192,192,274086,1,0,0:0:0:0:
64,192,274140,1,0,0:0:0:0:
448,192,274194,1,0,0:0:0:0:
320,192,274248,1,0,0:0:0:0:
192,192,274302,1,0,0:0:0:0:
64,192,274357,1,0,0:0:0:0:
448,192,274412,1,0,0:0:0:0:
320,192,274467,1,0,0:0:0:0:
192,192,274523,1,0,0:0:0:0:
64,192,274578,1,0,0:0:0:0:
448,192,274633,1,0,0:0:0:0:
320,192,274689,1,0,0:0:0:0:
192,192,274745,1,0,0:0:0:0:
192,192,274962,1,0,0:0:0:0:
320,192,275180,1,0,0:0:0:0:
448,192,275180,1,0,0:0:0:0:
64,192,275235,1,0,0:0:0:0:
192,192,275289,1,0,0:0:0:0:
320,192,275344,1,0,0:0:0:0:
192,192,275398,1,0,0:0:0:0:
320,192,275453,1,0,0:0:0:0:
448,192,275507,1,0,0:0:0:0:
64,192,275562,1,0,0:0:0:0:
192,192,275617,1,0,0:0:0:0:
448,192,275688,1,0,0:0:0:0:
320,192,275760,1,0,0:0:0:0:
448,192,275831,1,0,0:0:0:0:
64,192,275885,1,0,0:0:0:0:
320,192,275939,1,0,0:0:0:0:
192,192,275993,1,0,0:0:0:0:
64,192,276046,1,0,0:0:0:0:
448,192,276046,1,0,0:0:0:0:
192,192,276265,1,0,0:0:0:0:
320,192,276302,1,0,0:0:0:0:
64,192,276359,1,0,0:0:0:0:
192,192,276397,1,0,0:0:0:0:
448,192,276486,1,0,0:0:0:0:
320,192,276700,1,0,0:0:0:0:
448,192,276700,1,0,0:0:0:0:
192,192,276754,1,0,0:0:0:0:
64,192,276808,1,0,0:0:0:0:
448,192,276862,1,0,0:0:0:0:
320,192,276915,1,0,0:0:0:0:
192,192,276988,1,0,0:0:0:0:
64,192,277062,1,0,0:0:0:0:
192,192,277136,1,0,0:0:0:0:
320,192,277209,1,0,0:0:0:0:
448,192,277283,1,0,0:0:0:0:
64,192,277357,1,0,0:0:0:0:
192,192,277357,1,0,0:0:0:0:
320,192,277431,1,0,0:0:0:0:
448,192,277504,1,0,0:0:0:0:
64,192,277578,1,0,0:0:0:0:
192,192,277652,1,0,0:0:0:0:
320,192,277726,1,0,0:0:0:0:
64,192,277800,1,0,0:0:0:0:
448,192,277800,1,0,0:0:0:0:
192,192,277871,1,0,0:0:0:0:
320,192,277943,1,0,0:0:0:0:
192,192,278014,1,0,0:0:0:0:
320,192,278086,1,0,0:0:0:0:
448,192,278158,1,0,0:0:0:0:
64,192,278230,1,0,0:0:0:0:
192,192,278230,1,0,0:0:0:0:
192,192,278449,1,0,0:0:0:0:
320,192,278486,1,0,0:0:0:0:
448,192,278522,1,0,0:0:0:0:
64,192,278559,1,0,0:0:0:0:
320,192,278595,1,0,0:0:0:0:
192,192,278632,1,0,0:0:0:0:
64,192,278669,1,0,0:0:0:0:
448,192,278724,1,0,0:0:0:0:
64,192,278888,1,0,0:0:0:0:
192,192,278925,1,0,0:0:0:0:
320,192,278961,1,0,0:0:0:0:
448,192,278998,1,0,0:0:0:0:
192,192,279071,1,0,0:0:0:0:
320,192,279108,1,0,0:0:0:0:
448,192,279145,1,0,0:0:0:0:
192,192,279220,1,0,0:0:0:0:
64,192,279257,1,0,0:0:0:0:
448,192,279332,1,0,0:0:0:0:
192,192,279388,1,0,0:0:0:0:
320,192,279444,1,0,0:0:0:0:
64,192,279500,1,0,0:0:0:0:
320,192,279557,1,0,0:0:0:0:
448,192,279557,1,0,0:0:0:0:
192,192,279666,1,0,0:0:0:0:
64,192,279776,1,0,0:0:0:0:
448,192,279776,1,0,0:0:0:0:
192,192,279831,1,0,0:0:0:0:
320,192,279886,1,0,0:0:0:0:
448,192,279941,1,0,0:0:0:0:
64,192,279996,1,0,0:0:0:0:
320,192,280104,1,0,0:0:0:0:
64,192,280213,1,0,0:0:0:0:
192,192,280213,1,0,0:0:0:0:
448,192,280322,1,0,0:0:0:0:
320,192,280359,1,0,0:0:0:0:
192,192,280395,1,0,0:0:0:0:
64,192,280431,1,0,0:0:0:0:
448,192,280504,1,0,0:0:0:0:
64,192,280577,1,0,0:0:0:0:
448,192,280649,1,0,0:0:0:0:
320,192,280722,1,0,0:0:0:0:
64,192,280795,1,0,0:0:0:0:
192,192,280795,1,0,0:0:0:0:
448,192,280867,1,0,0:0:0:0:
192,192,280940,1,0,0:0:0:0:
320,192,280940,1,0,0:0:0:0:
64,192,281013,1,0,0:0:0:0:
320,192,281085,1,0,0:0:0:0:
448,192,281085,1,0,0:0:0:0:
64,192,281194,1,0,0:0:0:0:
320,192,281194,1,0,0:0:0:0:
192,192,281304,1,0,0:0:0:0:
448,192,281304,1,0,0:0:0:0:
192,192,281415,1,0,0:0:0:0:
320,192,281471,1,0,0:0:0:0:
448,192,281526,1,0,0:0:0:0:
64,192,281601,1,0,0:0:0:0:
192,192,281675,1,0,0:0:0:0:
320,192,281675,1,0,0:0:0:0:
448,192,281750,1,0,0:0:0:0:
192,192,281823,1,0,0:0:0:0:
64,192,281897,1,0,0:0:0:0:
448,192,281971,1,0,0:0:0:0:
64,192,282044,1,0,0:0:0:0:
320,192,282044,1,0,0:0:0:0:
192,192,282118,1,0,0:0:0:0:
320,192,282192,1,0,0:0:0:0:
448,192,282192,1,0,0:0:0:0:
64,192,282300,1,0,0:0:0:0:
448,192,282300,1,0,0:0:0:0:
192,192,282409,1,0,0:0:0:0:
320,192,282518,1,0,0:0:0:0:
448,192,282518,1,0,0:0:0:0:
192,192,282627,1,0,0:0:0:0:
64,192,282736,1,0,0:0:0:0:
192,192,282845,1,0,0:0:0:0:
320,192,282845,1,0,0:0:0:0:
448,192,282954,1,0,0:0:0:0:
64,192,283064,1,0,0:0:0:0:
320,192,283064,1,0,0:0:0:0:
64,192,283175,1,0,0:0:0:0:
192,192,283212,1,0,0:0:0:0:
320,192,283249,1,0,0:0:0:0:
448,192,283286,1,0,0:0:0:0:
192,192,283361,1,0,0:0:0:0:
320,192,283398,1,0,0:0:0:0:
448,192,283435,1,0,0:0:0:0:
64,192,283509,1,0,0:0:0:0:
320,192,283565,1,0,0:0:0:0:
192,192,283621,1,0,0:0:0:0:
64,192,283676,1,0,0:0:0:0:
320,192,283732,1,0,0:0:0:0:
448,192,283732,1,0,0:0:0:0:
64,192,283843,1,0,0:0:0:0:
192,192,283843,1,0,0:0:0:0:
192,192,283955,1,0,0:0:0:0:
448,192,283955,1,0,0:0:0:0:
64,192,284066,1,0,0:0:0:0:
192,192,284122,1,0,0:0:0:0:
320,192,284178,1,0,0:0:0:0:
448,192,284233,1,0,0:0:0:0:
320,192,284289,1,0,0:0:0:0:
192,192,284345,1,0,0:0:0:0:
64,192,284401,1,0,0:0:0:0:
448,192,284568,1,0,0:0:0:0:
320,192,284623,1,0,0:0:0:0:
192,192,284679,1,0,0:0:0:0:
64,192,284735,1,0,0:0:0:0:
192,192,284790,1,0,0:0:0:0:
320,192,284846,1,0,0:0:0:0:
448,192,284846,1,0,0:0:0:0:
64,192,284902,1,0,0:0:0:0:
192,192,284958,1,0,0:0:0:0:
320,192,285013,1,0,0:0:0:0:
64,192,285069,1,0,0:0:0:0:
448,192,285069,1,0,0:0:0:0:
320,192,285180,1,0,0:0:0:0:
192,192,285292,128,0,285400:0:0:0:0:
448,192,285292,1,0,0:0:0:0:
64,192,285508,1,0,0:0:0:0:
192,192,285508,1,0,0:0:0:0:
64,192,285616,1,0,0:0:0:0:
192,192,285616,1,0,0:0:0:0:
448,192,285725,1,0,0:0:0:0:
192,192,285780,1,0,0:0:0:0:
320,192,285836,1,0,0:0:0:0:
448,192,285892,1,0,0:0:0:0:
64,192,285947,1,0,0:0:0:0:
192,192,285947,1,0,0:0:0:0:
192,192,286170,1,0,0:0:0:0:
192,192,286393,1,0,0:0:0:0:
192,192,286617,1,0,0:0:0:0:
448,192,286617,1,0,0:0:0:0:
64,192,286836,1,0,0:0:0:0:
448,192,286836,128,0,286946:0:0:0:0:
192,192,287056,1,0,0:0:0:0:
192,192,287275,1,0,0:0:0:0:
448,192,287330,1,0,0:0:0:0:
320,192,287385,1,0,0:0:0:0:
448,192,287440,1,0,0:0:0:0:
64,192,287495,1,0,0:0:0:0:
192,192,287495,1,0,0:0:0:0:
320,192,287550,1,0,0:0:0:0:
192,192,287605,1,0,0:0:0:0:
64,192,287659,1,0,0:0:0:0:
448,192,287714,1,0,0:0:0:0:
320,192,287769,1,0,0:0:0:0:
64,192,287824,1,0,0:0:0:0:
192,192,287879,1,0,0:0:0:0:
320,192,287934,1,0,0:0:0:0:
448,192,287989,1,0,0:0:0:0:
192,192,288044,1,0,0:0:0:0:
64,192,288099,1,0,0:0:0:0:
448,192,288154,1,0,0:0:0:0:
320,192,288208,1,0,0:0:0:0:
64,192,288263,1,0,0:0:0:0:
192,192,288318,1,0,0:0:0:0:
320,192,288373,1,0,0:0:0:0:
448,192,288373,1,0,0:0:0:0:
192,192,288428,1,0,0:0:0:0:
320,192,288483,1,0,0:0:0:0:
448,192,288538,1,0,0:0:0:0:
64,192,288593,1,0,0:0:0:0:
192,192,288666,1,0,0:0:0:0:
448,192,288739,1,0,0:0:0:0:
320,192,288812,1,0,0:0:0:0:
192,192,288885,1,0,0:0:0:0:
64,192,288959,1,0,0:0:0:0:
320,192,289032,1,0,0:0:0:0:
448,192,289032,1,0,0:0:0:0:
64,192,289252,1,0,0:0:0:0:
192,192,289252,128,0,289576:0:0:0:0:
448,192,289252,1,0,0:0:0:0:
192,192,289684,1,0,0:0:0:0:
192,192,289901,1,0,0:0:0:0:
192,192,290120,1,0,0:0:0:0:
448,192,290120,1,0,0:0:0:0:
320,192,290193,1,0,0:0:0:0:
448,192,290230,1,0,0:0:0:0:
64,192,290267,1,0,0:0:0:0:
320,192,290341,1,0,0:0:0:0:
192,192,290378,1,0,0:0:0:0:
64,192,290414,1,0,0:0:0:0:
320,192,290488,1,0,0:0:0:0:
192,192,290525,1,0,0:0:0:0:
64,192,290562,1,0,0:0:0:0:
448,192,290672,1,0,0:0:0:0:
64,192,290783,1,0,0:0:0:0:
448,192,290783,1,0,0:0:0:0:
64,192,290894,1,0,0:0:0:0:
320,192,290894,1,0,0:0:0:0:
192,192,291004,1,0,0:0:0:0:
448,192,291004,1,0,0:0:0:0:
64,192,291115,1,0,0:0:0:0:
192,192,291170,1,0,0:0:0:0:
320,192,291225,1,0,0:0:0:0:
448,192,291281,1,0,0:0:0:0:
192,192,291336,1,0,0:0:0:0:
320,192,291391,1,0,0:0:0:0:
448,192,291447,1,0,0:0:0:0:
64,192,291557,1,0,0:0:0:0:
320,192,291613,1,0,0:0:0:0:
64,192,291668,1,0,0:0:0:0:
192,192,291723,1,0,0:0:0:0:
448,192,291834,1,0,0:0:0:0:
192,192,291889,1,0,0:0:0:0:
320,192,291889,1,0,0:0:0:0:
320,192,292000,1,0,0:0:0:0:
64,192,292110,1,0,0:0:0:0:
448,192,292110,128,0,292221:0:0:0:0:
192,192,292166,1,0,0:0:0:0:
192,192,292276,1,0,0:0:0:0:
64,192,292386,1,0,0:0:0:0:
64,192,292495,1,0,0:0:0:0:
448,192,292549,1,0,0:0:0:0:
192,192,292604,1,0,0:0:0:0:
192,192,292713,1,0,0:0:0:0:
320,192,292768,1,0,0:0:0:0:
448,192,292768,128,0,293217:0:0:0:0:
64,192,292824,1,0,0:0:0:0:
64,192,292936,1,0,0:0:0:0:
192,192,293048,1,0,0:0:0:0:
192,192,293160,1,0,0:0:0:0:
320,192,293217,1,0,0:0:0:0:
320,192,293441,1,0,0:0:0:0:
64,192,293666,1,0,0:0:0:0:
320,192,293666,1,0,0:0:0:0:
192,192,293721,1,0,0:0:0:0:
64,192,293777,1,0,0:0:0:0:
192,192,293833,1,0,0:0:0:0:
320,192,293860,1,0,0:0:0:0:
448,192,293888,1,0,0:0:0:0:
320,192,294000,1,0,0:0:0:0:
64,192,294112,1,0,0:0:0:0:
192,192,294150,1,0,0:0:0:0:
320,192,294188,1,0,0:0:0:0:
448,192,294226,128,0,294341:0:0:0:0:
64,192,294341,1,0,0:0:0:0:
192,192,294379,1,0,0:0:0:0:
320,192,294418,1,0,0:0:0:0:
448,192,294456,128,0,294800:0:0:0:0:
64,192,294513,1,0,0:0:0:0:
192,192,294571,1,0,0:0:0:0:
320,192,294628,1,0,0:0:0:0:
64,192,294686,1,0,0:0:0:0:
192,192,294800,1,0,0:0:0:0:
64,192,294839,1,0,0:0:0:0:
320,192,294915,1,0,0:0:0:0:
448,192,295031,1,0,0:0:0:0:
192,192,295082,1,0,0:0:0:0:
448,192,295134,1,0,0:0:0:0:
64,192,295237,1,0,0:0:0:0:
192,192,295288,1,0,0:0:0:0:
320,192,295340,1,0,0:0:0:0:
448,192,295391,1,0,0:0:0:0:
64,192,295443,1,0,0:0:0:0:
192,192,295443,1,0,0:0:0:0:
320,192,295498,1,0,0:0:0:0:
448,192,295553,1,0,0:0:0:0:
192,192,295608,1,0,0:0:0:0:
64,192,295664,1,0,0:0:0:0:
320,192,295737,1,0,0:0:0:0:
192,192,295811,1,0,0:0:0:0:
448,192,295885,1,0,0:0:0:0:
64,192,295922,1,0,0:0:0:0:
192,192,295959,1,0,0:0:0:0:
320,192,295995,1,0,0:0:0:0:
448,192,296032,128,0,296217:0:0:0:0:
64,192,296106,1,0,0:0:0:0:
192,192,296217,1,0,0:0:0:0:
64,192,296327,1,0,0:0:0:0:
448,192,296327,1,0,0:0:0:0:
320,192,296389,1,0,0:0:0:0:
64,192,296451,1,0,0:0:0:0:
320,192,296513,1,0,0:0:0:0:
192,192,296576,1,0,0:0:0:0:
192,192,296762,1,0,0:0:0:0:
448,192,296817,1,0,0:0:0:0:
320,192,296871,1,0,0:0:0:0:
448,192,296926,1,0,0:0:0:0:
320,192,296980,1,0,0:0:0:0:
64,192,297035,1,0,0:0:0:0:
192,192,297035,1,0,0:0:0:0:
192,192,297199,1,0,0:0:0:0:
448,192,297199,1,0,0:0:0:0:
64,192,297311,1,0,0:0:0:0:
192,192,297348,1,0,0:0:0:0:
320,192,297386,1,0,0:0:0:0:
448,192,297423,1,0,0:0:0:0:
320,192,297535,1,0,0:0:0:0:
64,192,297648,1,0,0:0:0:0:
320,192,297648,1,0,0:0:0:0:
64,192,297760,1,0,0:0:0:0:
64,192,297872,1,0,0:0:0:0:
448,192,297872,1,0,0:0:0:0:
64,192,297984,1,0,0:0:0:0:
320,192,298097,128,0,298426:0:0:0:0:
448,192,298097,1,0,0:0:0:0:
192,192,298316,1,0,0:0:0:0:
192,192,298536,1,0,0:0:0:0:
192,192,298757,1,0,0:0:0:0:
192,192,298979,1,0,0:0:0:0:
320,192,298979,1,0,0:0:0:0:
448,192,299016,1,0,0:0:0:0:
64,192,299092,1,0,0:0:0:0:
192,192,299129,1,0,0:0:0:0:
320,192,299167,1,0,0:0:0:0:
448,192,299205,1,0,0:0:0:0:
320,192,299280,1,0,0:0:0:0:
192,192,299318,1,0,0:0:0:0:
64,192,299355,1,0,0:0:0:0:
448,192,299431,1,0,0:0:0:0:
192,192,299469,1,0,0:0:0:0:
448,192,299544,1,0,0:0:0:0:
64,192,299582,1,0,0:0:0:0:
192,192,299619,1,0,0:0:0:0:
320,192,299657,1,0,0:0:0:0:
448,192,299695,1,0,0:0:0:0:
64,192,299732,1,0,0:0:0:0:
320,192,299808,1,0,0:0:0:0:
64,192,299884,1,0,0:0:0:0:
192,192,299884,1,0,0:0:0:0:
448,192,299938,1,0,0:0:0:0:
320,192,299993,1,0,0:0:0:0:
64,192,300048,1,0,0:0:0:0:
192,192,300103,1,0,0:0:0:0:
320,192,300158,1,0,0:0:0:0:
448,192,300213,1,0,0:0:0:0:
320,192,300323,1,0,0:0:0:0:
192,192,300378,1,0,0:0:0:0:
320,192,300432,1,0,0:0:0:0:
192,192,300487,1,0,0:0:0:0:
320,192,300542,1,0,0:0:0:0:
64,192,300762,1,0,0:0:0:0:
320,192,300817,1,0,0:0:0:0:
64,192,300873,1,0,0:0:0:0:
320,192,300929,1,0,0:0:0:0:
64,192,300984,1,0,0:0:0:0:
320,192,301040,1,0,0:0:0:0:
64,192,301096,1,0,0:0:0:0:
448,192,301151,1,0,0:0:0:0:
320,192,301207,1,0,0:0:0:0:
192,192,301263,1,0,0:0:0:0:
64,192,301319,1,0,0:0:0:0:
320,192,301430,1,0,0:0:0:0:
448,192,301430,1,0,0:0:0:0:
320,192,301541,1,0,0:0:0:0:
448,192,301541,1,0,0:0:0:0:
192,192,301653,1,0,0:0:0:0:
320,192,301653,128,0,301984:0:0:0:0:
448,192,301653,128,0,301984:0:0:0:0:
192,192,301763,1,0,0:0:0:0:
192,192,301874,1,0,0:0:0:0:
192,192,301984,1,0,0:0:0:0:
64,192,302095,1,0,0:0:0:0:
448,192,302095,1,0,0:0:0:0:
320,192,302150,1,0,0:0:0:0:
192,192,302205,1,0,0:0:0:0:
64,192,302261,1,0,0:0:0:0:
320,192,302316,1,0,0:0:0:0:
320,192,302427,1,0,0:0:0:0:
64,192,302537,1,0,0:0:0:0:
448,192,302537,1,0,0:0:0:0:
320,192,302593,1,0,0:0:0:0:
192,192,302648,1,0,0:0:0:0:
64,192,302703,1,0,0:0:0:0:
448,192,302758,1,0,0:0:0:0:
192,192,302814,1,0,0:0:0:0:
448,192,302869,1,0,0:0:0:0:
64,192,302980,1,0,0:0:0:0:
192,192,303017,1,0,0:0:0:0:
320,192,303053,1,0,0:0:0:0:
448,192,303090,1,0,0:0:0:0:
64,192,303201,1,0,0:0:0:0:
320,192,303238,1,0,0:0:0:0:
64,192,303311,1,0,0:0:0:0:
320,192,303348,1,0,0:0:0:0:
192,192,303422,1,0,0:0:0:0:
192,192,303533,1,0,0:0:0:0:
64,192,303606,1,0,0:0:0:0:
192,192,303643,1,0,0:0:0:0:
320,192,303680,1,0,0:0:0:0:
448,192,303717,1,0,0:0:0:0:
320,192,303865,1,0,0:0:0:0:
192,192,304087,1,0,0:0:0:0:
448,192,304087,1,0,0:0:0:0:
320,192,304115,1,0,0:0:0:0:
64,192,304311,1,0,0:0:0:0:
192,192,304311,1,0,0:0:0:0:
448,192,304366,1,0,0:0:0:0:
192,192,304421,1,0,0:0:0:0:
320,192,304421,1,0,0:0:0:0:
64,192,304476,1,0,0:0:0:0:
448,192,304532,1,0,0:0:0:0:
320,192,304587,1,0,0:0:0:0:
192,192,304642,1,0,0:0:0:0:
64,192,304698,1,0,0:0:0:0:
320,192,304753,1,0,0:0:0:0:
448,192,304753,1,0,0:0:0:0:
192,192,304827,1,0,0:0:0:0:
320,192,304900,1,0,0:0:0:0:
448,192,304900,1,0,0:0:0:0:
192,192,304974,1,0,0:0:0:0:
64,192,305048,1,0,0:0:0:0:
448,192,305048,1,0,0:0:0:0:
192,192,305122,1,0,0:0:0:0:
320,192,305195,1,0,0:0:0:0:
448,192,305195,1,0,0:0:0:0:
64,192,305251,1,0,0:0:0:0:
192,192,305306,1,0,0:0:0:0:
320,192,305361,1,0,0:0:0:0:
448,192,305416,1,0,0:0:0:0:
320,192,305472,1,0,0:0:0:0:
192,192,305527,1,0,0:0:0:0:
64,192,305638,1,0,0:0:0:0:
448,192,305672,1,0,0:0:0:0:
320,192,305706,1,0,0:0:0:0:
192,192,305741,1,0,0:0:0:0:
64,192,305775,1,0,0:0:0:0:
448,192,305844,1,0,0:0:0:0:
320,192,305878,1,0,0:0:0:0:
192,192,305912,1,0,0:0:0:0:
64,192,306015,1,0,0:0:0:0:
192,192,306050,1,0,0:0:0:0:
448,192,306050,128,0,306277:0:0:0:0:
320,192,306277,1,0,0:0:0:0:
192,192,306315,1,0,0:0:0:0:
64,192,306353,1,0,0:0:0:0:
192,192,306506,1,0,0:0:0:0:
320,192,306542,1,0,0:0:0:0:
448,192,306579,1,0,0:0:0:0:
448,192,306688,1,0,0:0:0:0:
64,192,306725,1,0,0:0:0:0:
192,192,306753,1,0,0:0:0:0:
320,192,306780,1,0,0:0:0:0:
64,192,306945,1,0,0:0:0:0:
192,192,306945,1,0,0:0:0:0:
448,192,307000,1,0,0:0:0:0:
320,192,307055,1,0,0:0:0:0:
192,192,307110,1,0,0:0:0:0:
320,192,307166,1,0,0:0:0:0:
192,192,307221,1,0,0:0:0:0:
64,192,307276,1,0,0:0:0:0:
448,192,307332,1,0,0:0:0:0:
192,192,307387,1,0,0:0:0:0:
448,192,307442,1,0,0:0:0:0:
320,192,307497,1,0,0:0:0:0:
64,192,307663,1,0,0:0:0:0:
320,192,307719,1,0,0:0:0:0:
64,192,307774,1,0,0:0:0:0:
192,192,307829,1,0,0:0:0:0:
320,192,307829,1,0,0:0:0:0:
448,192,307995,1,0,0:0:0:0:
192,192,308050,1,0,0:0:0:0:
448,192,308106,1,0,0:0:0:0:
192,192,308161,1,0,0:0:0:0:
448,192,308216,1,0,0:0:0:0:
192,192,308272,1,0,0:0:0:0:
320,192,308325,1,0,0:0:0:0:
64,192,308379,1,0,0:0:0:0:
192,192,308433,1,0,0:0:0:0:
448,192,308486,1,0,0:0:0:0:
320,192,308540,1,0,0:0:0:0:
64,192,308702,1,0,0:0:0:0:
192,192,308702,1,0,0:0:0:0:
448,192,308756,1,0,0:0:0:0:
192,192,308810,1,0,0:0:0:0:
320,192,308865,1,0,0:0:0:0:
64,192,308919,1,0,0:0:0:0:
320,192,308974,1,0,0:0:0:0:
64,192,309028,1,0,0:0:0:0:
320,192,309083,1,0,0:0:0:0:
192,192,309137,1,0,0:0:0:0:
64,192,309192,1,0,0:0:0:0:
64,192,309410,1,0,0:0:0:0:
448,192,309464,1,0,0:0:0:0:
320,192,309519,1,0,0:0:0:0:
64,192,309573,1,0,0:0:0:0:
448,192,309573,1,0,0:0:0:0:
192,192,309628,1,0,0:0:0:0:
320,192,309682,1,0,0:0:0:0:
192,192,309737,1,0,0:0:0:0:
64,192,309791,1,0,0:0:0:0:
448,192,309846,1,0,0:0:0:0:
320,192,309900,1,0,0:0:0:0:
192,192,309955,1,0,0:0:0:0:
64,192,310010,1,0,0:0:0:0:
448,192,310037,1,0,0:0:0:0:
192,192,310091,1,0,0:0:0:0:
448,192,310145,1,0,0:0:0:0:
64,192,310226,1,0,0:0:0:0:
192,192,310262,1,0,0:0:0:0:
320,192,310298,1,0,0:0:0:0:
448,192,310334,1,0,0:0:0:0:
192,192,310442,1,0,0:0:0:0:
320,192,310442,1,0,0:0:0:0:
192,192,310659,1,0,0:0:0:0:
192,192,310875,1,0,0:0:0:0:
192,192,311097,1,0,0:0:0:0:
320,192,311134,1,0,0:0:0:0:
448,192,311172,1,0,0:0:0:0:
64,192,311209,1,0,0:0:0:0:
192,192,311246,1,0,0:0:0:0:
320,192,311283,1,0,0:0:0:0:
448,192,311320,1,0,0:0:0:0:
64,192,311357,1,0,0:0:0:0:
192,192,311394,1,0,0:0:0:0:
448,192,311543,1,0,0:0:0:0:
320,192,311599,1,0,0:0:0:0:
192,192,311654,1,0,0:0:0:0:
64,192,311710,1,0,0:0:0:0:
192,192,311767,1,0,0:0:0:0:
320,192,311767,1,0,0:0:0:0:
448,192,311821,1,0,0:0:0:0:
320,192,311875,1,0,0:0:0:0:
192,192,311930,1,0,0:0:0:0:
448,192,311984,1,0,0:0:0:0:
64,192,312039,1,0,0:0:0:0:
192,192,312093,1,0,0:0:0:0:
320,192,312148,1,0,0:0:0:0:
448,192,312202,1,0,0:0:0:0:
320,192,312275,1,0,0:0:0:0:
192,192,312348,1,0,0:0:0:0:
64,192,312420,1,0,0:0:0:0:
448,192,312529,1,0,0:0:0:0:
64,192,312566,1,0,0:0:0:0:
192,192,312639,1,0,0:0:0:0:
448,192,312639,1,0,0:0:0:0:
320,192,312744,1,0,0:0:0:0:
320,192,312850,1,0,0:0:0:0:
448,192,312956,1,0,0:0:0:0:
64,192,313062,1,0,0:0:0:0:
448,192,313062,1,0,0:0:0:0:
192,192,313116,1,0,0:0:0:0:
320,192,313170,1,0,0:0:0:0:
64,192,313278,1,0,0:0:0:0:
320,192,313278,1,0,0:0:0:0:
64,192,313495,128,0,313887:0:0:0:0:
448,192,313495,128,0,313887:0:0:0:0:
192,192,313719,128,0,313831:0:0:0:0:
320,192,313719,128,0,313831:0:0:0:0:
64,192,313944,1,0,0:0:0:0:
448,192,313944,1,0,0:0:0:0:
192,192,314166,1,0,0:0:0:0:
320,192,314222,1,0,0:0:0:0:
448,192,314278,1,0,0:0:0:0:
320,192,314333,1,0,0:0:0:0:
64,192,314390,1,0,0:0:0:0:
192,192,314390,1,0,0:0:0:0:
448,192,314442,1,0,0:0:0:0:
320,192,314495,1,0,0:0:0:0:
192,192,314547,1,0,0:0:0:0:
64,192,314600,1,0,0:0:0:0:
192,192,314652,1,0,0:0:0:0:
320,192,314705,1,0,0:0:0:0:
64,192,314758,1,0,0:0:0:0:
320,192,314811,1,0,0:0:0:0:
448,192,314811,1,0,0:0:0:0:
192,192,314866,1,0,0:0:0:0:
64,192,314921,1,0,0:0:0:0:
448,192,315032,1,0,0:0:0:0:
320,192,315087,1,0,0:0:0:0:
192,192,315142,1,0,0:0:0:0:
64,192,315198,1,0,0:0:0:0:
192,192,315253,1,0,0:0:0:0:
320,192,315253,1,0,0:0:0:0:
448,192,315308,1,0,0:0:0:0:
64,192,315363,1,0,0:0:0:0:
192,192,315419,1,0,0:0:0:0:
320,192,315474,1,0,0:0:0:0:
448,192,315548,1,0,0:0:0:0:
320,192,315622,1,0,0:0:0:0:
64,192,315695,1,0,0:0:0:0:
192,192,315695,1,0,0:0:0:0:
448,192,315768,1,0,0:0:0:0:
64,192,315841,1,0,0:0:0:0:
192,192,315914,1,0,0:0:0:0:
320,192,315951,1,0,0:0:0:0:
448,192,315987,1,0,0:0:0:0:
320,192,316060,1,0,0:0:0:0:
192,192,316135,1,0,0:0:0:0:
64,192,316207,1,0,0:0:0:0:
192,192,316279,1,0,0:0:0:0:
448,192,316351,1,0,0:0:0:0:
320,192,316459,1,0,0:0:0:0:
64,192,316567,1,0,0:0:0:0:
192,192,316567,1,0,0:0:0:0:
448,192,316603,1,0,0:0:0:0:
64,192,316639,1,0,0:0:0:0:
192,192,316675,1,0,0:0:0:0:
320,192,316784,1,0,0:0:0:0:
64,192,316821,1,0,0:0:0:0:
192,192,316857,1,0,0:0:0:0:
320,192,316893,1,0,0:0:0:0:
64,192,316948,1,0,0:0:0:0:
448,192,317002,1,0,0:0:0:0:
320,192,317075,1,0,0:0:0:0:
192,192,317148,1,0,0:0:0:0:
64,192,317220,1,0,0:0:0:0:
448,192,317220,1,0,0:0:0:0:
320,192,317293,1,0,0:0:0:0:
448,192,317329,1,0,0:0:0:0:
64,192,317439,1,0,0:0:0:0:
192,192,317439,1,0,0:0:0:0:
320,192,317439,1,0,0:0:0:0:
64,192,317549,1,0,0:0:0:0:
192,192,317660,1,0,0:0:0:0:
320,192,317770,1,0,0:0:0:0:
192,192,317882,1,0,0:0:0:0:
448,192,317882,1,0,0:0:0:0:
320,192,317917,1,0,0:0:0:0:
64,192,317952,1,0,0:0:0:0:
64,192,318093,1,0,0:0:0:0:
320,192,318093,1,0,0:0:0:0:
192,192,318129,1,0,0:0:0:0:
448,192,318164,1,0,0:0:0:0:
64,192,318305,1,0,0:0:0:0:
192,192,318305,1,0,0:0:0:0:
320,192,318360,1,0,0:0:0:0:
448,192,318415,1,0,0:0:0:0:
320,192,318470,1,0,0:0:0:0:
192,192,318526,1,0,0:0:0:0:
64,192,318581,1,0,0:0:0:0:
192,192,318636,1,0,0:0:0:0:
320,192,318747,1,0,0:0:0:0:
448,192,318747,1,0,0:0:0:0:
64,192,318802,1,0,0:0:0:0:
192,192,318857,1,0,0:0:0:0:
448,192,318913,1,0,0:0:0:0:
64,192,318968,1,0,0:0:0:0:
320,192,318968,1,0,0:0:0:0:
320,192,319079,1,0,0:0:0:0:
64,192,319190,1,0,0:0:0:0:
192,192,319190,1,0,0:0:0:0:
448,192,319244,1,0,0:0:0:0:
320,192,319298,1,0,0:0:0:0:
64,192,319406,128,0,319623:0:0:0:0:
448,192,319406,1,0,0:0:0:0:
320,192,319514,1,0,0:0:0:0:
192,192,319623,1,0,0:0:0:0:
448,192,319623,1,0,0:0:0:0:
192,192,319837,1,0,0:0:0:0:
64,192,319909,1,0,0:0:0:0:
192,192,319945,1,0,0:0:0:0:
320,192,319981,1,0,0:0:0:0:
64,192,320053,1,0,0:0:0:0:
448,192,320107,1,0,0:0:0:0:
320,192,320162,1,0,0:0:0:0:
192,192,320217,1,0,0:0:0:0:
320,192,320272,1,0,0:0:0:0:
192,192,320327,1,0,0:0:0:0:
320,192,320382,1,0,0:0:0:0:
192,192,320437,1,0,0:0:0:0:
64,192,320492,1,0,0:0:0:0:
448,192,320492,1,0,0:0:0:0:
192,192,320601,1,0,0:0:0:0:
320,192,320711,1,0,0:0:0:0:
448,192,320711,1,0,0:0:0:0:
64,192,320766,1,0,0:0:0:0:
192,192,320821,1,0,0:0:0:0:
64,192,320876,1,0,0:0:0:0:
320,192,320931,1,0,0:0:0:0:
448,192,320931,1,0,0:0:0:0:
192,192,320986,1,0,0:0:0:0:
448,192,321041,1,0,0:0:0:0:
320,192,321095,1,0,0:0:0:0:
64,192,321150,1,0,0:0:0:0:
448,192,321205,1,0,0:0:0:0:
192,192,321260,1,0,0:0:0:0:
320,192,321260,1,0,0:0:0:0:
64,192,321370,1,0,0:0:0:0:
448,192,321425,1,0,0:0:0:0:
320,192,321480,1,0,0:0:0:0:
64,192,321535,1,0,0:0:0:0:
192,192,321590,1,0,0:0:0:0:
448,192,321590,1,0,0:0:0:0:
320,192,321809,1,0,0:0:0:0:
448,192,321809,1,0,0:0:0:0:
192,192,321864,1,0,0:0:0:0:
448,192,321919,1,0,0:0:0:0:
192,192,321974,1,0,0:0:0:0:
448,192,322030,1,0,0:0:0:0:
192,192,322085,1,0,0:0:0:0:
448,192,322140,1,0,0:0:0:0:
192,192,322196,1,0,0:0:0:0:
64,192,322251,1,0,0:0:0:0:
320,192,322251,1,0,0:0:0:0:
192,192,322361,1,0,0:0:0:0:
64,192,322472,1,0,0:0:0:0:
448,192,322472,1,0,0:0:0:0:
320,192,322527,1,0,0:0:0:0:
192,192,322583,1,0,0:0:0:0:
320,192,322638,1,0,0:0:0:0:
64,192,322694,1,0,0:0:0:0:
192,192,322694,1,0,0:0:0:0:
448,192,322742,1,0,0:0:0:0:
320,192,322791,1,0,0:0:0:0:
192,192,322840,1,0,0:0:0:0:
448,192,322889,1,0,0:0:0:0:
64,192,322937,1,0,0:0:0:0:
320,192,322986,1,0,0:0:0:0:
192,192,323035,1,0,0:0:0:0:
64,192,323084,1,0,0:0:0:0:
448,192,323133,1,0,0:0:0:0:
320,192,323181,1,0,0:0:0:0:
192,192,323230,1,0,0:0:0:0:
64,192,323279,1,0,0:0:0:0:
448,192,323328,1,0,0:0:0:0:
448,192,323425,1,0,0:0:0:0:
64,192,323425,1,0,0:0:0:0:
192,192,323462,1,0,0:0:0:0:
320,192,323462,1,0,0:0:0:0:
192,192,323682,1,0,0:0:0:0:
320,192,323718,1,0,0:0:0:0:
448,192,323755,1,0,0:0:0:0:
64,192,323791,1,0,0:0:0:0:
320,192,323828,1,0,0:0:0:0:
192,192,323865,1,0,0:0:0:0:
64,192,323901,1,0,0:0:0:0:
448,192,323938,1,0,0:0:0:0:
320,192,323974,1,0,0:0:0:0:
192,192,324011,1,0,0:0:0:0:
448,192,324084,1,0,0:0:0:0:
192,192,324084,1,0,0:0:0:0:
320,192,324157,1,0,0:0:0:0:
64,192,324231,1,0,0:0:0:0:
448,192,324231,1,0,0:0:0:0:
192,192,324285,1,0,0:0:0:0:
192,192,324395,1,0,0:0:0:0:
64,192,324450,1,0,0:0:0:0:
448,192,324450,1,0,0:0:0:0:
320,192,324505,1,0,0:0:0:0:
192,192,324560,1,0,0:0:0:0:
448,192,324615,1,0,0:0:0:0:
64,192,324670,1,0,0:0:0:0:
192,192,324697,1,0,0:0:0:0:
320,192,324725,1,0,0:0:0:0:
448,192,324752,1,0,0:0:0:0:
64,192,324890,1,0,0:0:0:0:
320,192,324890,1,0,0:0:0:0:
192,192,324944,1,0,0:0:0:0:
448,192,324998,1,0,0:0:0:0:
64,192,325106,1,0,0:0:0:0:
320,192,325106,1,0,0:0:0:0:
448,192,325160,1,0,0:0:0:0:
192,192,325214,1,0,0:0:0:0:
320,192,325323,1,0,0:0:0:0:
448,192,325323,1,0,0:0:0:0:
192,192,325377,1,0,0:0:0:0:
64,192,325431,1,0,0:0:0:0:
448,192,325486,1,0,0:0:0:0:
320,192,325540,1,0,0:0:0:0:
64,192,325595,1,0,0:0:0:0:
320,192,325649,1,0,0:0:0:0:
64,192,325704,1,0,0:0:0:0:
192,192,325758,1,0,0:0:0:0:
320,192,325795,1,0,0:0:0:0:
448,192,325831,1,0,0:0:0:0:
64,192,325867,1,0,0:0:0:0:
320,192,325904,1,0,0:0:0:0:
448,192,325940,1,0,0:0:0:0:
192,192,325976,1,0,0:0:0:0:
192,192,326085,1,0,0:0:0:0:
192,192,326194,1,0,0:0:0:0:
448,192,326231,1,0,0:0:0:0:
320,192,326267,1,0,0:0:0:0:
64,192,326303,1,0,0:0:0:0:
320,192,326376,1,0,0:0:0:0:
64,192,326412,1,0,0:0:0:0:
192,192,326449,1,0,0:0:0:0:
448,192,326521,1,0,0:0:0:0:
320,192,326558,1,0,0:0:0:0:
64,192,326630,1,0,0:0:0:0:
192,192,326630,1,0,0:0:0:0:
448,192,326630,1,0,0:0:0:0:
192,192,326727,1,0,0:0:0:0:
320,192,326848,1,0,0:0:0:0:
64,192,327066,1,0,0:0:0:0:
320,192,327066,1,0,0:0:0:0:
448,192,327066,1,0,0:0:0:0:
448,192,327284,1,0,0:0:0:0:
320,192,327321,1,0,0:0:0:0:
192,192,327357,1,0,0:0:0:0:
64,192,327393,1,0,0:0:0:0:
448,192,327430,1,0,0:0:0:0:
192,192,327466,1,0,0:0:0:0:
64,192,327502,1,0,0:0:0:0:
192,192,327611,1,0,0:0:0:0:
320,192,327648,1,0,0:0:0:0:
448,192,327684,1,0,0:0:0:0:
64,192,327720,1,0,0:0:0:0:
320,192,327757,1,0,0:0:0:0:
320,192,327866,1,0,0:0:0:0:
64,192,327938,1,0,0:0:0:0:
192,192,327938,1,0,0:0:0:0:
448,192,327993,1,0,0:0:0:0:
192,192,328047,1,0,0:0:0:0:
320,192,328047,1,0,0:0:0:0:
64,192,328102,1,0,0:0:0:0:
448,192,328156,1,0,0:0:0:0:
64,192,328265,1,0,0:0:0:0:
192,192,328265,1,0,0:0:0:0:
320,192,328320,1,0,0:0:0:0:
448,192,328374,1,0,0:0:0:0:
320,192,328428,1,0,0:0:0:0:
192,192,328482,1,0,0:0:0:0:
64,192,328536,1,0,0:0:0:0:
192,192,328590,1,0,0:0:0:0:
448,192,328590,128,0,328806:0:0:0:0:
64,192,328806,1,0,0:0:0:0:
192,192,328806,1,0,0:0:0:0:
320,192,328915,1,0,0:0:0:0:
64,192,328969,1,0,0:0:0:0:
320,192,329023,1,0,0:0:0:0:
192,192,329077,1,0,0:0:0:0:
64,192,329131,1,0,0:0:0:0:
320,192,329240,1,0,0:0:0:0:
448,192,329240,1,0,0:0:0:0:
64,192,329276,1,0,0:0:0:0:
192,192,329313,1,0,0:0:0:0:
192,192,329424,1,0,0:0:0:0:
320,192,329461,1,0,0:0:0:0:
448,192,329516,1,0,0:0:0:0:
320,192,329571,1,0,0:0:0:0:
192,192,329627,1,0,0:0:0:0:
64,192,329682,1,0,0:0:0:0:
448,192,329682,1,0,0:0:0:0:
192,192,329845,1,0,0:0:0:0:
320,192,329899,1,0,0:0:0:0:
448,192,329954,1,0,0:0:0:0:
320,192,330008,1,0,0:0:0:0:
192,192,330063,1,0,0:0:0:0:
64,192,330117,1,0,0:0:0:0:
448,192,330117,1,0,0:0:0:0:
192,192,330190,1,0,0:0:0:0:
64,192,330263,1,0,0:0:0:0:
192,192,330335,1,0,0:0:0:0:
448,192,330335,1,0,0:0:0:0:
320,192,330408,1,0,0:0:0:0:
192,192,330481,1,0,0:0:0:0:
64,192,330554,1,0,0:0:0:0:
320,192,330554,1,0,0:0:0:0:
448,192,330554,1,0,0:0:0:0:
320,192,330770,1,0,0:0:0:0:
64,192,330986,1,0,0:0:0:0:
192,192,330986,1,0,0:0:0:0:
320,192,331058,1,0,0:0:0:0:
64,192,331131,1,0,0:0:0:0:
320,192,331203,1,0,0:0:0:0:
448,192,331203,1,0,0:0:0:0:
192,192,331275,1,0,0:0:0:0:
320,192,331347,1,0,0:0:0:0:
64,192,331420,1,0,0:0:0:0:
448,192,331420,1,0,0:0:0:0:
320,192,331492,1,0,0:0:0:0:
192,192,331565,1,0,0:0:0:0:
64,192,331637,1,0,0:0:0:0:
320,192,331637,1,0,0:0:0:0:
448,192,331710,1,0,0:0:0:0:
64,192,331783,1,0,0:0:0:0:
192,192,331855,1,0,0:0:0:0:
448,192,331855,1,0,0:0:0:0:
320,192,331928,1,0,0:0:0:0:
192,192,332001,1,0,0:0:0:0:
64,192,332073,1,0,0:0:0:0:
448,192,332073,1,0,0:0:0:0:
320,192,332146,1,0,0:0:0:0:
64,192,332219,1,0,0:0:0:0:
192,192,332292,1,0,0:0:0:0:
320,192,332292,1,0,0:0:0:0:
448,192,332365,1,0,0:0:0:0:
320,192,332439,1,0,0:0:0:0:
64,192,332513,1,0,0:0:0:0:
192,192,332513,1,0,0:0:0:0:
448,192,332586,1,0,0:0:0:0:
320,192,332660,1,0,0:0:0:0:
192,192,332734,1,0,0:0:0:0:
448,192,332734,1,0,0:0:0:0:
64,192,332808,1,0,0:0:0:0:
192,192,332881,1,0,0:0:0:0:
320,192,332955,1,0,0:0:0:0:
448,192,332955,1,0,0:0:0:0:
192,192,333029,1,0,0:0:0:0:
320,192,333103,1,0,0:0:0:0:
64,192,333177,1,0,0:0:0:0:
448,192,333177,1,0,0:0:0:0:
320,192,333231,1,0,0:0:0:0:
64,192,333286,1,0,0:0:0:0:
192,192,333341,1,0,0:0:0:0:
320,192,333396,1,0,0:0:0:0:
448,192,333396,1,0,0:0:0:0:
64,192,333451,1,0,0:0:0:0:
320,192,333506,1,0,0:0:0:0:
192,192,333561,1,0,0:0:0:0:
64,192,333616,1,0,0:0:0:0:
448,192,333616,1,0,0:0:0:0:
192,192,333671,1,0,0:0:0:0:
320,192,333725,1,0,0:0:0:0:
448,192,333780,1,0,0:0:0:0:
64,192,333835,1,0,0:0:0:0:
192,192,333835,1,0,0:0:0:0:
320,192,333890,1,0,0:0:0:0:
192,192,333945,1,0,0:0:0:0:
64,192,334000,1,0,0:0:0:0:
320,192,334055,1,0,0:0:0:0:
448,192,334055,1,0,0:0:0:0:
192,192,334118,1,0,0:0:0:0:
64,192,334118,1,0,0:0:0:0:
448,192,334180,1,0,0:0:0:0:
320,192,334180,1,0,0:0:0:0:
192,192,334243,1,0,0:0:0:0:
64,192,334243,1,0,0:0:0:0:
320,192,334306,1,0,0:0:0:0:
448,192,334306,1,0,0:0:0:0:
192,192,334368,1,0,0:0:0:0:
64,192,334368,1,0,0:0:0:0:
192,192,334494,1,0,0:0:0:0:
448,192,334494,128,0,334823:0:0:0:0:
320,192,334714,1,0,0:0:0:0:
64,192,334750,1,0,0:0:0:0:
192,192,334787,1,0,0:0:0:0:
192,192,334897,1,0,0:0:0:0:
320,192,334933,1,0,0:0:0:0:
448,192,334933,1,0,0:0:0:0:
64,192,334990,1,0,0:0:0:0:
192,192,335048,1,0,0:0:0:0:
448,192,335106,1,0,0:0:0:0:
64,192,335164,1,0,0:0:0:0:
320,192,335164,1,0,0:0:0:0:
320,192,335280,1,0,0:0:0:0:
192,192,335396,1,0,0:0:0:0:
448,192,335396,1,0,0:0:0:0:
64,192,335467,1,0,0:0:0:0:
320,192,335539,1,0,0:0:0:0:
64,192,335610,1,0,0:0:0:0:
448,192,335610,1,0,0:0:0:0:
192,192,335664,1,0,0:0:0:0:
320,192,335718,1,0,0:0:0:0:
192,192,335772,1,0,0:0:0:0:
448,192,335825,1,0,0:0:0:0:
64,192,335861,1,0,0:0:0:0:
192,192,335897,1,0,0:0:0:0:
320,192,335933,1,0,0:0:0:0:
448,192,335968,1,0,0:0:0:0:
64,192,336004,1,0,0:0:0:0:
192,192,336040,1,0,0:0:0:0:
320,192,336076,1,0,0:0:0:0:
448,192,336112,1,0,0:0:0:0:
64,192,336148,1,0,0:0:0:0:
192,192,336183,1,0,0:0:0:0:
320,192,336219,1,0,0:0:0:0:
448,192,336255,1,0,0:0:0:0:
64,192,336291,1,0,0:0:0:0:
192,192,336328,1,0,0:0:0:0:
320,192,336364,1,0,0:0:0:0:
448,192,336401,1,0,0:0:0:0:
64,192,336437,1,0,0:0:0:0:
192,192,336474,1,0,0:0:0:0:
320,192,336511,1,0,0:0:0:0:
448,192,336547,1,0,0:0:0:0:
64,192,336584,1,0,0:0:0:0:
192,192,336620,1,0,0:0:0:0:
320,192,336657,1,0,0:0:0:0:
448,192,336695,1,0,0:0:0:0:
64,192,336731,1,0,0:0:0:0:
192,192,336767,1,0,0:0:0:0:
320,192,336803,1,0,0:0:0:0:
448,192,336840,1,0,0:0:0:0:
320,192,336912,1,0,0:0:0:0:
192,192,336949,1,0,0:0:0:0:
64,192,336985,1,0,0:0:0:0:
192,192,337058,1,0,0:0:0:0:
64,192,337094,1,0,0:0:0:0:
320,192,337348,1,0,0:0:0:0:
448,192,337348,1,0,0:0:0:0:
64,192,337457,1,0,0:0:0:0:
320,192,337457,1,0,0:0:0:0:
64,192,337567,1,0,0:0:0:0:
320,192,337567,1,0,0:0:0:0:
192,192,337620,1,0,0:0:0:0:
192,192,337726,1,0,0:0:0:0:
448,192,337726,1,0,0:0:0:0:
320,192,337780,1,0,0:0:0:0:
64,192,337833,1,0,0:0:0:0:
192,192,337886,1,0,0:0:0:0:
320,192,337940,1,0,0:0:0:0:
448,192,337993,1,0,0:0:0:0:
320,192,338046,1,0,0:0:0:0:
192,192,338100,1,0,0:0:0:0:
448,192,338153,1,0,0:0:0:0:
64,192,338206,1,0,0:0:0:0:
192,192,338260,1,0,0:0:0:0:
320,192,338313,1,0,0:0:0:0:
192,192,338366,1,0,0:0:0:0:
320,192,338420,1,0,0:0:0:0:
448,192,338420,1,0,0:0:0:0:
64,192,338474,1,0,0:0:0:0:
448,192,338566,1,0,0:0:0:0:
64,192,338566,1,0,0:0:0:0:
320,192,338639,1,0,0:0:0:0:
64,192,338712,1,0,0:0:0:0:
192,192,338785,1,0,0:0:0:0:
320,192,338859,1,0,0:0:0:0:
320,192,338968,1,0,0:0:0:0:
64,192,339078,128,0,339298:0:0:0:0:
320,192,339078,1,0,0:0:0:0:
192,192,339298,1,0,0:0:0:0:
320,192,339298,1,0,0:0:0:0:
320,192,339514,1,0,0:0:0:0:
320,192,339730,1,0,0:0:0:0:
320,192,339839,1,0,0:0:0:0:
64,192,339947,1,0,0:0:0:0:
320,192,339947,1,0,0:0:0:0:
192,192,340019,1,0,0:0:0:0:
64,192,340091,1,0,0:0:0:0:
192,192,340164,1,0,0:0:0:0:
320,192,340164,1,0,0:0:0:0:
320,192,340272,1,0,0:0:0:0:
64,192,340309,1,0,0:0:0:0:
192,192,340381,1,0,0:0:0:0:
320,192,340381,1,0,0:0:0:0:
64,192,340454,1,0,0:0:0:0:
448,192,340527,1,0,0:0:0:0:
320,192,340599,1,0,0:0:0:0:
192,192,340654,1,0,0:0:0:0:
448,192,340708,1,0,0:0:0:0:
64,192,340763,1,0,0:0:0:0:
320,192,340817,1,0,0:0:0:0:
192,192,340845,1,0,0:0:0:0:
192,192,340954,1,0,0:0:0:0:
320,192,341035,1,0,0:0:0:0:
448,192,341035,1,0,0:0:0:0:
64,192,341090,1,0,0:0:0:0:
192,192,341144,1,0,0:0:0:0:
320,192,341199,1,0,0:0:0:0:
64,192,341253,1,0,0:0:0:0:
192,192,341308,1,0,0:0:0:0:
64,192,341362,1,0,0:0:0:0:
448,192,341362,1,0,0:0:0:0:
320,192,341417,1,0,0:0:0:0:
192,192,341471,1,0,0:0:0:0:
320,192,341526,1,0,0:0:0:0:
64,192,341580,1,0,0:0:0:0:
448,192,341580,1,0,0:0:0:0:
192,192,341635,1,0,0:0:0:0:
320,192,341689,1,0,0:0:0:0:
448,192,341744,1,0,0:0:0:0:
64,192,341798,1,0,0:0:0:0:
64,192,341907,1,0,0:0:0:0:
448,192,341907,128,0,342125:0:0:0:0:
64,192,342016,1,0,0:0:0:0:
192,192,342125,1,0,0:0:0:0:
320,192,342125,1,0,0:0:0:0:
320,192,342234,1,0,0:0:0:0:
192,192,342343,1,0,0:0:0:0:
448,192,342398,1,0,0:0:0:0:
320,192,342416,1,0,0:0:0:0:
64,192,342452,1,0,0:0:0:0:
192,192,342489,1,0,0:0:0:0:
320,192,342525,1,0,0:0:0:0:
448,192,342561,1,0,0:0:0:0:
64,192,342616,1,0,0:0:0:0:
320,192,342670,1,0,0:0:0:0:
192,192,342725,1,0,0:0:0:0:
64,192,342779,1,0,0:0:0:0:
448,192,342779,1,0,0:0:0:0:
192,192,342834,1,0,0:0:0:0:
320,192,342888,1,0,0:0:0:0:
448,192,342943,1,0,0:0:0:0:
64,192,342997,1,0,0:0:0:0:
320,192,343070,1,0,0:0:0:0:
64,192,343143,1,0,0:0:0:0:
320,192,343216,1,0,0:0:0:0:
448,192,343216,1,0,0:0:0:0:
192,192,343270,1,0,0:0:0:0:
64,192,343325,1,0,0:0:0:0:
192,192,343380,1,0,0:0:0:0:
320,192,343435,1,0,0:0:0:0:
448,192,343435,1,0,0:0:0:0:
64,192,343490,1,0,0:0:0:0:
192,192,343545,1,0,0:0:0:0:
320,192,343600,1,0,0:0:0:0:
448,192,343655,1,0,0:0:0:0:
64,192,343691,1,0,0:0:0:0:
192,192,343727,1,0,0:0:0:0:
320,192,343763,1,0,0:0:0:0:
448,192,343800,1,0,0:0:0:0:
64,192,343836,1,0,0:0:0:0:
192,192,343872,1,0,0:0:0:0:
320,192,343909,1,0,0:0:0:0:
448,192,343945,1,0,0:0:0:0:
192,192,343981,1,0,0:0:0:0:
320,192,344018,1,0,0:0:0:0:
448,192,344054,1,0,0:0:0:0:
64,192,344090,1,0,0:0:0:0:
192,192,344163,1,0,0:0:0:0:
64,192,344199,1,0,0:0:0:0:
448,192,344236,1,0,0:0:0:0:
192,192,344308,1,0,0:0:0:0:
320,192,344381,1,0,0:0:0:0:
64,192,344454,1,0,0:0:0:0:
320,192,344527,1,0,0:0:0:0:
448,192,344527,1,0,0:0:0:0:
64,192,344563,1,0,0:0:0:0:
192,192,344600,1,0,0:0:0:0:
320,192,344636,1,0,0:0:0:0:
448,192,344673,1,0,0:0:0:0:
192,192,344746,1,0,0:0:0:0:
192,192,344856,1,0,0:0:0:0:
64,192,344966,1,0,0:0:0:0:
448,192,344966,1,0,0:0:0:0:
320,192,345021,1,0,0:0:0:0:
192,192,345075,1,0,0:0:0:0:
64,192,345130,1,0,0:0:0:0:
448,192,345185,1,0,0:0:0:0:
192,192,345240,1,0,0:0:0:0:
448,192,345295,1,0,0:0:0:0:
192,192,345350,1,0,0:0:0:0:
448,192,345405,1,0,0:0:0:0:
192,192,345460,1,0,0:0:0:0:
320,192,345515,1,0,0:0:0:0:
448,192,345569,1,0,0:0:0:0:
64,192,345624,1,0,0:0:0:0:
320,192,345661,1,0,0:0:0:0:
192,192,345698,1,0,0:0:0:0:
64,192,345734,1,0,0:0:0:0:
448,192,345771,1,0,0:0:0:0:
192,192,345807,1,0,0:0:0:0:
64,192,345844,1,0,0:0:0:0:
448,192,345917,1,0,0:0:0:0:
320,192,345990,1,0,0:0:0:0:
64,192,346064,1,0,0:0:0:0:
192,192,346064,1,0,0:0:0:0:
448,192,346137,1,0,0:0:0:0:
192,192,346210,1,0,0:0:0:0:
64,192,346283,1,0,0:0:0:0:
320,192,346283,1,0,0:0:0:0:
448,192,346356,1,0,0:0:0:0:
320,192,346429,1,0,0:0:0:0:
64,192,346503,1,0,0:0:0:0:
192,192,346503,1,0,0:0:0:0:
192,192,346722,1,0,0:0:0:0:
192,192,346832,1,0,0:0:0:0:
64,192,346942,1,0,0:0:0:0:
448,192,346942,1,0,0:0:0:0:
320,192,346997,1,0,0:0:0:0:
192,192,347052,1,0,0:0:0:0:
448,192,347107,1,0,0:0:0:0:
64,192,347161,1,0,0:0:0:0:
192,192,347161,1,0,0:0:0:0:
320,192,347216,1,0,0:0:0:0:
448,192,347271,1,0,0:0:0:0:
320,192,347326,1,0,0:0:0:0:
192,192,347381,1,0,0:0:0:0:
64,192,347436,1,0,0:0:0:0:
192,192,347491,1,0,0:0:0:0:
320,192,347546,1,0,0:0:0:0:
448,192,347601,1,0,0:0:0:0:
320,192,347655,1,0,0:0:0:0:
192,192,347710,1,0,0:0:0:0:
64,192,347765,1,0,0:0:0:0:
320,192,347820,1,0,0:0:0:0:
448,192,347820,1,0,0:0:0:0:
320,192,347967,1,0,0:0:0:0:
448,192,347967,1,0,0:0:0:0:
64,192,348040,1,0,0:0:0:0:
192,192,348040,1,0,0:0:0:0:
320,192,348094,1,0,0:0:0:0:
448,192,348148,1,0,0:0:0:0:
192,192,348203,1,0,0:0:0:0:
64,192,348257,1,0,0:0:0:0:
448,192,348312,1,0,0:0:0:0:
192,192,348366,1,0,0:0:0:0:
320,192,348366,1,0,0:0:0:0:
64,192,348475,128,0,348639:0:0:0:0:
320,192,348530,1,0,0:0:0:0:
448,192,348530,1,0,0:0:0:0:
320,192,348639,1,0,0:0:0:0:
64,192,348748,1,0,0:0:0:0:
192,192,348748,1,0,0:0:0:0:
64,192,348857,1,0,0:0:0:0:
192,192,348857,1,0,0:0:0:0:
320,192,348912,1,0,0:0:0:0:
448,192,348912,1,0,0:0:0:0:
64,192,349071,1,0,0:0:0:0:
192,192,349071,1,0,0:0:0:0:
64,192,349178,1,0,0:0:0:0:
192,192,349178,1,0,0:0:0:0:
320,192,349231,1,0,0:0:0:0:
448,192,349231,1,0,0:0:0:0:
64,192,349338,1,0,0:0:0:0:
192,192,349445,1,0,0:0:0:0:
320,192,349551,1,0,0:0:0:0:
448,192,349551,1,0,0:0:0:0:
192,192,349623,1,0,0:0:0:0:
320,192,349658,1,0,0:0:0:0:
448,192,349694,1,0,0:0:0:0:
64,192,349765,1,0,0:0:0:0:
192,192,349765,1,0,0:0:0:0:
320,192,349818,1,0,0:0:0:0:
64,192,349872,1,0,0:0:0:0:
320,192,349926,1,0,0:0:0:0:
64,192,349979,1,0,0:0:0:0:
320,192,350033,1,0,0:0:0:0:
192,192,350087,1,0,0:0:0:0:
64,192,350141,1,0,0:0:0:0:
320,192,350195,1,0,0:0:0:0:
448,192,350195,1,0,0:0:0:0:
192,192,350306,1,0,0:0:0:0:
448,192,350362,1,0,0:0:0:0:
320,192,350417,1,0,0:0:0:0:
64,192,350473,1,0,0:0:0:0:
192,192,350473,1,0,0:0:0:0:
192,192,350584,1,0,0:0:0:0:
320,192,350640,1,0,0:0:0:0:
448,192,350640,1,0,0:0:0:0:
64,192,350693,1,0,0:0:0:0:
448,192,350747,1,0,0:0:0:0:
320,192,350801,1,0,0:0:0:0:
64,192,350854,1,0,0:0:0:0:
192,192,350908,1,0,0:0:0:0:
320,192,350962,1,0,0:0:0:0:
448,192,351016,1,0,0:0:0:0:
192,192,351069,1,0,0:0:0:0:
64,192,351123,1,0,0:0:0:0:
448,192,351177,1,0,0:0:0:0:
320,192,351230,1,0,0:0:0:0:
192,192,351284,1,0,0:0:0:0:
64,192,351338,1,0,0:0:0:0:
192,192,351392,1,0,0:0:0:0:
320,192,351445,1,0,0:0:0:0:
64,192,351500,1,0,0:0:0:0:
448,192,351500,1,0,0:0:0:0:
64,192,351717,1,0,0:0:0:0:
448,192,351717,1,0,0:0:0:0:
192,192,351772,1,0,0:0:0:0:
320,192,351826,1,0,0:0:0:0:
448,192,351881,1,0,0:0:0:0:
320,192,351935,1,0,0:0:0:0:
192,192,351990,1,0,0:0:0:0:
64,192,352044,1,0,0:0:0:0:
448,192,352099,1,0,0:0:0:0:
320,192,352153,1,0,0:0:0:0:
192,192,352208,1,0,0:0:0:0:
320,192,352262,1,0,0:0:0:0:
192,192,352317,1,0,0:0:0:0:
64,192,352371,1,0,0:0:0:0:
448,192,352371,1,0,0:0:0:0:
64,192,352480,1,0,0:0:0:0:
320,192,352480,1,0,0:0:0:0:
192,192,352535,1,0,0:0:0:0:
448,192,352589,1,0,0:0:0:0:
64,192,352698,1,0,0:0:0:0:
320,192,352698,1,0,0:0:0:0:
448,192,352753,1,0,0:0:0:0:
192,192,352807,1,0,0:0:0:0:
192,192,352916,1,0,0:0:0:0:
192,192,353025,1,0,0:0:0:0:
192,192,353134,1,0,0:0:0:0:
64,192,353243,1,0,0:0:0:0:
320,192,353243,1,0,0:0:0:0:
448,192,353243,1,0,0:0:0:0:
320,192,353461,1,0,0:0:0:0:
64,192,353680,1,0,0:0:0:0:
192,192,353680,1,0,0:0:0:0:
448,192,353735,1,0,0:0:0:0:
320,192,353791,1,0,0:0:0:0:
192,192,353847,1,0,0:0:0:0:
64,192,353902,1,0,0:0:0:0:
192,192,353958,1,0,0:0:0:0:
320,192,354014,1,0,0:0:0:0:
64,192,354069,1,0,0:0:0:0:
192,192,354125,1,0,0:0:0:0:
448,192,354125,1,0,0:0:0:0:
320,192,354178,1,0,0:0:0:0:
192,192,354232,1,0,0:0:0:0:
320,192,354286,1,0,0:0:0:0:
448,192,354339,1,0,0:0:0:0:
64,192,354393,1,0,0:0:0:0:
192,192,354447,1,0,0:0:0:0:
320,192,354501,1,0,0:0:0:0:
448,192,354554,1,0,0:0:0:0:
192,192,354608,1,0,0:0:0:0:
320,192,354662,1,0,0:0:0:0:
192,192,354715,1,0,0:0:0:0:
64,192,354769,1,0,0:0:0:0:
448,192,354841,1,0,0:0:0:0:
192,192,354912,1,0,0:0:0:0:
64,192,354984,1,0,0:0:0:0:
320,192,354984,1,0,0:0:0:0:
448,192,354984,1,0,0:0:0:0:
192,192,355056,1,0,0:0:0:0:
448,192,355127,1,0,0:0:0:0:
320,192,355199,1,0,0:0:0:0:
64,192,355306,1,0,0:0:0:0:
192,192,355414,1,0,0:0:0:0:
448,192,355414,1,0,0:0:0:0:
192,192,355521,1,0,0:0:0:0:
448,192,355521,1,0,0:0:0:0:
64,192,355629,1,0,0:0:0:0:
320,192,355629,1,0,0:0:0:0:
192,192,355790,1,0,0:0:0:0:
64,192,355843,1,0,0:0:0:0:
320,192,355843,1,0,0:0:0:0:
320,192,355951,1,0,0:0:0:0:
192,192,356058,1,0,0:0:0:0:
64,192,356112,1,0,0:0:0:0:
192,192,356166,1,0,0:0:0:0:
320,192,356219,1,0,0:0:0:0:
448,192,356273,1,0,0:0:0:0:
192,192,356327,1,0,0:0:0:0:
320,192,356381,1,0,0:0:0:0:
448,192,356434,1,0,0:0:0:0:
64,192,356488,1,0,0:0:0:0:
320,192,356524,1,0,0:0:0:0:
64,192,356595,1,0,0:0:0:0:
448,192,356704,1,0,0:0:0:0:
192,192,356740,1,0,0:0:0:0:
320,192,356776,1,0,0:0:0:0:
448,192,356812,1,0,0:0:0:0:
192,192,356849,1,0,0:0:0:0:
64,192,356921,1,0,0:0:0:0:
192,192,356958,1,0,0:0:0:0:
320,192,356994,1,0,0:0:0:0:
448,192,357030,1,0,0:0:0:0:
320,192,357103,1,0,0:0:0:0:
192,192,357139,1,0,0:0:0:0:
64,192,357212,1,0,0:0:0:0:
192,192,357285,1,0,0:0:0:0:
448,192,357357,1,0,0:0:0:0:
320,192,357412,1,0,0:0:0:0:
192,192,357466,1,0,0:0:0:0:
320,192,357521,1,0,0:0:0:0:
64,192,357576,1,0,0:0:0:0:
192,192,357576,1,0,0:0:0:0:
448,192,357623,1,0,0:0:0:0:
320,192,357671,1,0,0:0:0:0:
192,192,357719,1,0,0:0:0:0:
64,192,357766,1,0,0:0:0:0:
448,192,357790,1,0,0:0:0:0:
448,192,357898,1,0,0:0:0:0:
64,192,358005,1,0,0:0:0:0:
192,192,358005,1,0,0:0:0:0:
320,192,358067,1,0,0:0:0:0:
448,192,358128,1,0,0:0:0:0:
192,192,358128,1,0,0:0:0:0:
64,192,358189,1,0,0:0:0:0:
192,192,358251,1,0,0:0:0:0:
448,192,358251,1,0,0:0:0:0:
320,192,358292,1,0,0:0:0:0:
64,192,358435,1,0,0:0:0:0:
320,192,358435,1,0,0:0:0:0:
448,192,358435,1,0,0:0:0:0:
192,192,358542,1,0,0:0:0:0:
448,192,358542,1,0,0:0:0:0:
64,192,358650,1,0,0:0:0:0:
320,192,358704,1,0,0:0:0:0:
64,192,358757,1,0,0:0:0:0:
320,192,358811,1,0,0:0:0:0:
192,192,358865,1,0,0:0:0:0:
64,192,358919,1,0,0:0:0:0:
320,192,359081,1,0,0:0:0:0:
448,192,359081,1,0,0:0:0:0:
320,192,359135,1,0,0:0:0:0:
192,192,359189,1,0,0:0:0:0:
64,192,359298,1,0,0:0:0:0:
448,192,359298,1,0,0:0:0:0:
64,192,359405,1,0,0:0:0:0:
448,192,359405,1,0,0:0:0:0:
192,192,359512,1,0,0:0:0:0:
320,192,359548,1,0,0:0:0:0:
448,192,359584,1,0,0:0:0:0:
192,192,359727,1,0,0:0:0:0:
320,192,359727,1,0,0:0:0:0:
192,192,359835,1,0,0:0:0:0:
320,192,359835,1,0,0:0:0:0:
64,192,359942,1,0,0:0:0:0:
448,192,359942,1,0,0:0:0:0:
320,192,360050,1,0,0:0:0:0:
64,192,360157,1,0,0:0:0:0:
192,192,360157,1,0,0:0:0:0:
448,192,360211,1,0,0:0:0:0:
320,192,360264,1,0,0:0:0:0:
192,192,360318,1,0,0:0:0:0:
64,192,360372,1,0,0:0:0:0:
448,192,360372,1,0,0:0:0:0:
192,192,360426,1,0,0:0:0:0:
320,192,360479,1,0,0:0:0:0:
448,192,360533,1,0,0:0:0:0:
64,192,360587,1,0,0:0:0:0:
192,192,360587,1,0,0:0:0:0:
320,192,360639,1,0,0:0:0:0:
64,192,360692,1,0,0:0:0:0:
320,192,360745,1,0,0:0:0:0:
192,192,360798,1,0,0:0:0:0:
448,192,360798,1,0,0:0:0:0:
192,192,360904,1,0,0:0:0:0:
64,192,361010,1,0,0:0:0:0:
320,192,361010,1,0,0:0:0:0:
448,192,361010,1,0,0:0:0:0:
192,192,361081,1,0,0:0:0:0:
448,192,361116,1,0,0:0:0:0:
320,192,361151,1,0,0:0:0:0:
64,192,361222,1,0,0:0:0:0:
192,192,361257,1,0,0:0:0:0:
320,192,361293,1,0,0:0:0:0:
448,192,361328,1,0,0:0:0:0:
64,192,361363,1,0,0:0:0:0:
192,192,361398,1,0,0:0:0:0:
320,192,361434,1,0,0:0:0:0:
448,192,361468,1,0,0:0:0:0:
64,192,361503,1,0,0:0:0:0:
192,192,361538,1,0,0:0:0:0:
320,192,361573,1,0,0:0:0:0:
448,192,361608,1,0,0:0:0:0:
64,192,361642,1,0,0:0:0:0:
320,192,361695,1,0,0:0:0:0:
192,192,361747,1,0,0:0:0:0:
448,192,361799,1,0,0:0:0:0:
64,192,361851,1,0,0:0:0:0:
320,192,361851,1,0,0:0:0:0:
192,192,361956,1,0,0:0:0:0:
448,192,361956,1,0,0:0:0:0:
192,192,362060,1,0,0:0:0:0:
448,192,362060,1,0,0:0:0:0:
64,192,362165,1,0,0:0:0:0:
320,192,362165,1,0,0:0:0:0:
64,192,362269,1,0,0:0:0:0:
320,192,362269,1,0,0:0:0:0:
192,192,362373,1,0,0:0:0:0:
448,192,362373,1,0,0:0:0:0:
192,192,362478,1,0,0:0:0:0:
448,192,362478,1,0,0:0:0:0:
64,192,362687,1,0,0:0:0:0:
192,192,362687,1,0,0:0:0:0:
448,192,362738,1,0,0:0:0:0:
192,192,362790,1,0,0:0:0:0:
64,192,362841,1,0,0:0:0:0:
320,192,362893,1,0,0:0:0:0:
448,192,362893,1,0,0:0:0:0:
192,192,362944,1,0,0:0:0:0:
448,192,362996,1,0,0:0:0:0:
320,192,363047,1,0,0:0:0:0:
64,192,363099,1,0,0:0:0:0:
192,192,363099,1,0,0:0:0:0:
64,192,363203,1,0,0:0:0:0:
192,192,363203,1,0,0:0:0:0:
320,192,363203,1,0,0:0:0:0:
448,192,363203,1,0,0:0:0:0:
64,192,363307,1,0,0:0:0:0:
320,192,363307,1,0,0:0:0:0:
448,192,363307,1,0,0:0:0:0:
192,192,363412,1,0,0:0:0:0:
320,192,363517,1,0,0:0:0:0:
448,192,363517,1,0,0:0:0:0:
192,192,363622,1,0,0:0:0:0:
64,192,363728,1,0,0:0:0:0:
448,192,363728,1,0,0:0:0:0:
192,192,363799,1,0,0:0:0:0:
320,192,363799,1,0,0:0:0:0:
64,192,363870,1,0,0:0:0:0:
448,192,363870,1,0,0:0:0:0:
192,192,363940,1,0,0:0:0:0:
320,192,363940,1,0,0:0:0:0:
64,192,364011,1,0,0:0:0:0:
448,192,364011,1,0,0:0:0:0:
320,192,364081,1,0,0:0:0:0:
64,192,364152,1,0,0:0:0:0:
192,192,364152,1,0,0:0:0:0:
448,192,364187,1,0,0:0:0:0:
192,192,364258,1,0,0:0:0:0:
64,192,364364,128,0,364576:0:0:0:0:
320,192,364364,1,0,0:0:0:0:
448,192,364364,1,0,0:0:0:0:
320,192,364470,1,0,0:0:0:0:
448,192,364470,1,0,0:0:0:0:
320,192,364576,1,0,0:0:0:0:
448,192,364576,1,0,0:0:0:0:
64,192,364646,1,0,0:0:0:0:
192,192,364717,1,0,0:0:0:0:
64,192,364787,1,0,0:0:0:0:
448,192,364787,1,0,0:0:0:0:
320,192,364840,1,0,0:0:0:0:
192,192,364893,1,0,0:0:0:0:
320,192,364946,1,0,0:0:0:0:
192,192,364999,1,0,0:0:0:0:
64,192,365052,1,0,0:0:0:0:
448,192,365105,1,0,0:0:0:0:
320,192,365158,1,0,0:0:0:0:
64,192,365211,1,0,0:0:0:0:
192,192,365211,1,0,0:0:0:0:
448,192,365246,1,0,0:0:0:0:
320,192,365282,1,0,0:0:0:0:
192,192,365317,1,0,0:0:0:0:
448,192,365352,1,0,0:0:0:0:
64,192,365423,1,0,0:0:0:0:
192,192,365458,1,0,0:0:0:0:
320,192,365494,1,0,0:0:0:0:
448,192,365529,1,0,0:0:0:0:
64,192,365635,1,0,0:0:0:0:
192,192,365635,1,0,0:0:0:0:
320,192,365635,1,0,0:0:0:0:
192,192,365741,1,0,0:0:0:0:
320,192,365847,1,0,0:0:0:0:
448,192,365847,1,0,0:0:0:0:
64,192,365882,1,0,0:0:0:0:
320,192,365952,1,0,0:0:0:0:
192,192,365988,1,0,0:0:0:0:
64,192,366023,1,0,0:0:0:0:
448,192,366058,1,0,0:0:0:0:
192,192,366111,1,0,0:0:0:0:
448,192,366164,1,0,0:0:0:0:
192,192,366217,1,0,0:0:0:0:
448,192,366270,1,0,0:0:0:0:
320,192,366376,1,0,0:0:0:0:
64,192,366482,1,0,0:0:0:0:
320,192,366482,1,0,0:0:0:0:
448,192,366482,1,0,0:0:0:0:
192,192,366535,1,0,0:0:0:0:
192,192,366694,1,0,0:0:0:0:
448,192,366694,1,0,0:0:0:0:
64,192,366747,1,0,0:0:0:0:
64,192,366906,1,0,0:0:0:0:
448,192,366906,128,0,367119:0:0:0:0:
192,192,366959,1,0,0:0:0:0:
64,192,367119,1,0,0:0:0:0:
192,192,367172,1,0,0:0:0:0:
64,192,367225,1,0,0:0:0:0:
448,192,367279,1,0,0:0:0:0:
192,192,367332,1,0,0:0:0:0:
320,192,367332,1,0,0:0:0:0:
64,192,367385,1,0,0:0:0:0:
320,192,367439,1,0,0:0:0:0:
448,192,367492,1,0,0:0:0:0:
64,192,367545,1,0,0:0:0:0:
192,192,367599,1,0,0:0:0:0:
320,192,367652,1,0,0:0:0:0:
448,192,367705,1,0,0:0:0:0:
64,192,367760,1,0,0:0:0:0:
192,192,367760,1,0,0:0:0:0:
320,192,367812,1,0,0:0:0:0:
64,192,367865,1,0,0:0:0:0:
448,192,367918,1,0,0:0:0:0:
320,192,367971,1,0,0:0:0:0:
192,192,368024,1,0,0:0:0:0:
64,192,368077,1,0,0:0:0:0:
192,192,368130,1,0,0:0:0:0:
320,192,368183,1,0,0:0:0:0:
448,192,368183,1,0,0:0:0:0:
64,192,368235,1,0,0:0:0:0:
192,192,368287,1,0,0:0:0:0:
320,192,368339,1,0,0:0:0:0:
192,192,368391,1,0,0:0:0:0:
320,192,368444,1,0,0:0:0:0:
448,192,368496,1,0,0:0:0:0:
64,192,368548,1,0,0:0:0:0:
192,192,368600,1,0,0:0:0:0:
320,192,368600,1,0,0:0:0:0:
448,192,368652,1,0,0:0:0:0:
64,192,368705,1,0,0:0:0:0:
192,192,368757,1,0,0:0:0:0:
448,192,368809,1,0,0:0:0:0:
320,192,368861,1,0,0:0:0:0:
192,192,368914,1,0,0:0:0:0:
64,192,368966,1,0,0:0:0:0:
320,192,369019,1,0,0:0:0:0:
448,192,369019,1,0,0:0:0:0:
192,192,369072,1,0,0:0:0:0:
448,192,369125,1,0,0:0:0:0:
320,192,369178,1,0,0:0:0:0:
64,192,369232,1,0,0:0:0:0:
192,192,369303,1,0,0:0:0:0:
320,192,369374,1,0,0:0:0:0:
64,192,369445,1,0,0:0:0:0:
192,192,369445,1,0,0:0:0:0:
448,192,369445,1,0,0:0:0:0:
64,192,369605,1,0,0:0:0:0:
448,192,369605,1,0,0:0:0:0:
320,192,369658,1,0,0:0:0:0:
192,192,369712,1,0,0:0:0:0:
64,192,369765,1,0,0:0:0:0:
448,192,369765,1,0,0:0:0:0:
320,192,369872,1,0,0:0:0:0:
448,192,369872,1,0,0:0:0:0:
64,192,369925,1,0,0:0:0:0:
192,192,369978,1,0,0:0:0:0:
320,192,370032,1,0,0:0:0:0:
448,192,370085,1,0,0:0:0:0:
64,192,370138,1,0,0:0:0:0:
320,192,370192,1,0,0:0:0:0:
192,192,370245,1,0,0:0:0:0:
64,192,370299,1,0,0:0:0:0:
448,192,370299,1,0,0:0:0:0:
192,192,370351,1,0,0:0:0:0:
320,192,370404,1,0,0:0:0:0:
64,192,370456,1,0,0:0:0:0:
448,192,370509,1,0,0:0:0:0:
320,192,370561,1,0,0:0:0:0:
192,192,370614,1,0,0:0:0:0:
64,192,370667,1,0,0:0:0:0:
320,192,370719,1,0,0:0:0:0:
448,192,370719,1,0,0:0:0:0:
192,192,370772,1,0,0:0:0:0:
448,192,370824,1,0,0:0:0:0:
64,192,370877,1,0,0:0:0:0:
192,192,370930,1,0,0:0:0:0:
320,192,370982,1,0,0:0:0:0:
448,192,371035,1,0,0:0:0:0:
320,192,371087,1,0,0:0:0:0:
64,192,371140,1,0,0:0:0:0:
192,192,371140,1,0,0:0:0:0:
448,192,371193,1,0,0:0:0:0:
320,192,371246,1,0,0:0:0:0:
192,192,371299,1,0,0:0:0:0:
448,192,371353,1,0,0:0:0:0:
64,192,371406,1,0,0:0:0:0:
192,192,371459,1,0,0:0:0:0:
320,192,371513,1,0,0:0:0:0:
192,192,371566,1,0,0:0:0:0:
448,192,371566,1,0,0:0:0:0:
64,192,371619,1,0,0:0:0:0:
448,192,371673,1,0,0:0:0:0:
320,192,371726,1,0,0:0:0:0:
64,192,371779,1,0,0:0:0:0:
192,192,371833,1,0,0:0:0:0:
320,192,371886,1,0,0:0:0:0:
448,192,371939,1,0,0:0:0:0:
64,192,371993,1,0,0:0:0:0:
192,192,371993,1,0,0:0:0:0:
320,192,372028,1,0,0:0:0:0:
448,192,372064,1,0,0:0:0:0:
192,192,372099,1,0,0:0:0:0:
64,192,372135,1,0,0:0:0:0:
448,192,372206,1,0,0:0:0:0:
320,192,372242,1,0,0:0:0:0:
192,192,372277,1,0,0:0:0:0:
64,192,372313,1,0,0:0:0:0:
192,192,372384,1,0,0:0:0:0:
320,192,372419,1,0,0:0:0:0:
448,192,372419,1,0,0:0:0:0:
64,192,372473,1,0,0:0:0:0:
192,192,372526,1,0,0:0:0:0:
320,192,372579,1,0,0:0:0:0:
192,192,372633,1,0,0:0:0:0:
320,192,372686,1,0,0:0:0:0:
448,192,372739,1,0,0:0:0:0:
64,192,372793,1,0,0:0:0:0:
192,192,372846,1,0,0:0:0:0:
320,192,372846,1,0,0:0:0:0:
192,192,372953,1,0,0:0:0:0:
448,192,372953,1,0,0:0:0:0:
64,192,373059,1,0,0:0:0:0:
320,192,373059,1,0,0:0:0:0:
320,192,373166,1,0,0:0:0:0:
64,192,373273,1,0,0:0:0:0:
192,192,373273,1,0,0:0:0:0:
448,192,373273,1,0,0:0:0:0:
320,192,373379,1,0,0:0:0:0:
64,192,373433,1,0,0:0:0:0:
320,192,373486,1,0,0:0:0:0:
64,192,373539,1,0,0:0:0:0:
192,192,373593,1,0,0:0:0:0:
64,192,373699,1,0,0:0:0:0:
320,192,373699,1,0,0:0:0:0:
448,192,373699,1,0,0:0:0:0:
192,192,373806,1,0,0:0:0:0:
448,192,373859,1,0,0:0:0:0:
192,192,373913,1,0,0:0:0:0:
448,192,373966,1,0,0:0:0:0:
320,192,374019,1,0,0:0:0:0:
64,192,374127,1,0,0:0:0:0:
192,192,374127,1,0,0:0:0:0:
448,192,374127,1,0,0:0:0:0:
320,192,374196,1,0,0:0:0:0:
192,192,374231,1,0,0:0:0:0:
64,192,374266,1,0,0:0:0:0:
320,192,374335,1,0,0:0:0:0:
320,192,374440,1,0,0:0:0:0:
64,192,374544,1,0,0:0:0:0:
448,192,374544,1,0,0:0:0:0:
192,192,374649,1,0,0:0:0:0:
320,192,374649,1,0,0:0:0:0:
448,192,374649,1,0,0:0:0:0:
320,192,374754,1,0,0:0:0:0:
64,192,374859,1,0,0:0:0:0:
192,192,374859,1,0,0:0:0:0:
448,192,374859,1,0,0:0:0:0:
192,192,374964,1,0,0:0:0:0:
320,192,374964,1,0,0:0:0:0:
64,192,375069,1,0,0:0:0:0:
192,192,375069,1,0,0:0:0:0:
448,192,375069,1,0,0:0:0:0:
320,192,375175,1,0,0:0:0:0:
448,192,375175,1,0,0:0:0:0:
320,192,375280,1,0,0:0:0:0:
448,192,375280,1,0,0:0:0:0:
64,192,375386,1,0,0:0:0:0:
192,192,375386,1,0,0:0:0:0:
448,192,375421,1,0,0:0:0:0:
320,192,375457,1,0,0:0:0:0:
192,192,375492,1,0,0:0:0:0:
64,192,375563,1,0,0:0:0:0:
192,192,375599,1,0,0:0:0:0:
320,192,375634,1,0,0:0:0:0:
448,192,375670,1,0,0:0:0:0:
64,192,375705,1,0,0:0:0:0:
320,192,375741,1,0,0:0:0:0:
64,192,375812,1,0,0:0:0:0:
192,192,375812,1,0,0:0:0:0:
448,192,375848,1,0,0:0:0:0:
192,192,375919,1,0,0:0:0:0:
64,192,376025,1,0,0:0:0:0:
320,192,376025,1,0,0:0:0:0:
448,192,376025,1,0,0:0:0:0:
192,192,376132,1,0,0:0:0:0:
320,192,376132,1,0,0:0:0:0:
448,192,376132,1,0,0:0:0:0:
64,192,376239,1,0,0:0:0:0:
192,192,376273,1,0,0:0:0:0:
320,192,376308,1,0,0:0:0:0:
448,192,376343,1,0,0:0:0:0:
64,192,376378,1,0,0:0:0:0:
192,192,376413,1,0,0:0:0:0:
320,192,376447,1,0,0:0:0:0:
448,192,376482,1,0,0:0:0:0:
64,192,376517,1,0,0:0:0:0:
192,192,376552,1,0,0:0:0:0:
320,192,376587,1,0,0:0:0:0:
448,192,376621,1,0,0:0:0:0:
64,192,376656,1,0,0:0:0:0:
192,192,376691,1,0,0:0:0:0:
320,192,376726,1,0,0:0:0:0:
448,192,376761,1,0,0:0:0:0:
64,192,376795,1,0,0:0:0:0:
192,192,376830,1,0,0:0:0:0:
320,192,376865,1,0,0:0:0:0:
448,192,376900,1,0,0:0:0:0:
64,192,376935,1,0,0:0:0:0:
192,192,376970,1,0,0:0:0:0:
320,192,377004,1,0,0:0:0:0:
448,192,377039,1,0,0:0:0:0:
64,192,377075,1,0,0:0:0:0:
192,192,377110,1,0,0:0:0:0:
320,192,377146,1,0,0:0:0:0:
448,192,377181,1,0,0:0:0:0:
64,192,377217,1,0,0:0:0:0:
192,192,377252,1,0,0:0:0:0:
320,192,377288,1,0,0:0:0:0:
320,192,377394,1,0,0:0:0:0:
64,192,377501,1,0,0:0:0:0:
448,192,377501,1,0,0:0:0:0:
320,192,377554,1,0,0:0:0:0:
192,192,377608,1,0,0:0:0:0:
64,192,377661,1,0,0:0:0:0:
320,192,377714,1,0,0:0:0:0:
448,192,377714,1,0,0:0:0:0:
64,192,377928,128,0,378141:0:0:0:0:
320,192,377928,1,0,0:0:0:0:
448,192,377928,1,0,0:0:0:0:
320,192,378034,1,0,0:0:0:0:
448,192,378034,1,0,0:0:0:0:
192,192,378141,1,0,0:0:0:0:
320,192,378248,1,0,0:0:0:0:
448,192,378248,1,0,0:0:0:0:
64,192,378354,1,0,0:0:0:0:
320,192,378354,1,0,0:0:0:0:
448,192,378354,128,0,378568:0:0:0:0:
192,192,378408,1,0,0:0:0:0:
64,192,378461,1,0,0:0:0:0:
192,192,378514,1,0,0:0:0:0:
64,192,378568,1,0,0:0:0:0:
320,192,378568,1,0,0:0:0:0:
320,192,378674,1,0,0:0:0:0:
64,192,378781,1,0,0:0:0:0:
448,192,378781,1,0,0:0:0:0:
192,192,378834,1,0,0:0:0:0:
320,192,378888,1,0,0:0:0:0:
64,192,378941,1,0,0:0:0:0:
448,192,378994,1,0,0:0:0:0:
320,192,379048,1,0,0:0:0:0:
192,192,379101,1,0,0:0:0:0:
320,192,379154,1,0,0:0:0:0:
64,192,379208,1,0,0:0:0:0:
192,192,379208,1,0,0:0:0:0:
448,192,379261,1,0,0:0:0:0:
320,192,379314,1,0,0:0:0:0:
192,192,379368,1,0,0:0:0:0:
448,192,379421,1,0,0:0:0:0:
64,192,379474,1,0,0:0:0:0:
192,192,379528,1,0,0:0:0:0:
320,192,379581,1,0,0:0:0:0:
64,192,379634,1,0,0:0:0:0:
448,192,379634,1,0,0:0:0:0:
192,192,379688,1,0,0:0:0:0:
192,192,379794,1,0,0:0:0:0:
64,192,379848,1,0,0:0:0:0:
448,192,379848,1,0,0:0:0:0:
320,192,379901,1,0,0:0:0:0:
320,192,380008,1,0,0:0:0:0:
64,192,380061,1,0,0:0:0:0:
448,192,380061,1,0,0:0:0:0:
192,192,380087,1,0,0:0:0:0:
192,192,380166,1,0,0:0:0:0:
448,192,380219,1,0,0:0:0:0:
320,192,380272,1,0,0:0:0:0:
64,192,380325,1,0,0:0:0:0:
192,192,380378,1,0,0:0:0:0:
320,192,380431,1,0,0:0:0:0:
64,192,380485,1,0,0:0:0:0:
448,192,380485,1,0,0:0:0:0:
192,192,380555,1,0,0:0:0:0:
448,192,380625,1,0,0:0:0:0:
320,192,380695,1,0,0:0:0:0:
64,192,380765,1,0,0:0:0:0:
192,192,380835,1,0,0:0:0:0:
64,192,380905,1,0,0:0:0:0:
448,192,380905,1,0,0:0:0:0:
448,192,380974,1,0,0:0:0:0:
64,192,381113,1,0,0:0:0:0:
192,192,381113,1,0,0:0:0:0:
320,192,381113,1,0,0:0:0:0:
192,192,381218,1,0,0:0:0:0:
448,192,381218,1,0,0:0:0:0:
64,192,381323,1,0,0:0:0:0:
320,192,381323,1,0,0:0:0:0:
192,192,381377,1,0,0:0:0:0:
448,192,381431,1,0,0:0:0:0:
320,192,381485,1,0,0:0:0:0:
64,192,381539,1,0,0:0:0:0:
192,192,381593,1,0,0:0:0:0:
320,192,381647,1,0,0:0:0:0:
448,192,381701,1,0,0:0:0:0:
64,192,381755,1,0,0:0:0:0:
192,192,381755,1,0,0:0:0:0:
320,192,381809,1,0,0:0:0:0:
448,192,381864,1,0,0:0:0:0:
320,192,381918,1,0,0:0:0:0:
192,192,381972,1,0,0:0:0:0:
64,192,382026,1,0,0:0:0:0:
192,192,382080,1,0,0:0:0:0:
64,192,382134,1,0,0:0:0:0:
320,192,382189,1,0,0:0:0:0:
448,192,382189,1,0,0:0:0:0:
320,192,382293,1,0,0:0:0:0:
448,192,382293,1,0,0:0:0:0:
320,192,382397,1,0,0:0:0:0:
448,192,382397,1,0,0:0:0:0:
192,192,382502,1,0,0:0:0:0:
64,192,382607,1,0,0:0:0:0:
320,192,382607,1,0,0:0:0:0:
448,192,382607,1,0,0:0:0:0:
320,192,382714,1,0,0:0:0:0:
448,192,382714,1,0,0:0:0:0:
64,192,382821,1,0,0:0:0:0:
192,192,382821,1,0,0:0:0:0:
64,192,382929,1,0,0:0:0:0:
192,192,382929,1,0,0:0:0:0:
320,192,383036,1,0,0:0:0:0:
448,192,383036,1,0,0:0:0:0:
64,192,383090,1,0,0:0:0:0:
320,192,383144,1,0,0:0:0:0:
448,192,383144,1,0,0:0:0:0:
192,192,383197,1,0,0:0:0:0:
64,192,383251,1,0,0:0:0:0:
448,192,383251,1,0,0:0:0:0:
320,192,383305,1,0,0:0:0:0:
192,192,383359,1,0,0:0:0:0:
64,192,383466,1,0,0:0:0:0:
320,192,383466,1,0,0:0:0:0:
448,192,383466,1,0,0:0:0:0:
64,192,383536,1,0,0:0:0:0:
192,192,383571,1,0,0:0:0:0:
320,192,383606,1,0,0:0:0:0:
448,192,383641,1,0,0:0:0:0:
64,192,383676,1,0,0:0:0:0:
320,192,383711,1,0,0:0:0:0:
192,192,383781,1,0,0:0:0:0:
192,192,383887,1,0,0:0:0:0:
448,192,383887,1,0,0:0:0:0:
64,192,383992,1,0,0:0:0:0:
320,192,383992,1,0,0:0:0:0:
320,192,384098,1,0,0:0:0:0:
64,192,384204,1,0,0:0:0:0:
192,192,384204,1,0,0:0:0:0:
192,192,384310,128,0,384522:0:0:0:0:
320,192,384310,1,0,0:0:0:0:
448,192,384310,1,0,0:0:0:0:
320,192,384416,1,0,0:0:0:0:
448,192,384416,1,0,0:0:0:0:
64,192,384522,1,0,0:0:0:0:
320,192,384522,1,0,0:0:0:0:
448,192,384522,1,0,0:0:0:0:
192,192,384628,1,0,0:0:0:0:
64,192,384734,1,0,0:0:0:0:
448,192,384734,1,0,0:0:0:0:
320,192,384787,1,0,0:0:0:0:
320,192,384895,1,0,0:0:0:0:
64,192,384948,1,0,0:0:0:0:
448,192,384948,1,0,0:0:0:0:
192,192,385002,1,0,0:0:0:0:
192,192,385110,1,0,0:0:0:0:
64,192,385163,1,0,0:0:0:0:
320,192,385163,1,0,0:0:0:0:
448,192,385163,1,0,0:0:0:0:
448,192,385271,1,0,0:0:0:0:
320,192,385324,1,0,0:0:0:0:
64,192,385378,1,0,0:0:0:0:
192,192,385378,1,0,0:0:0:0:
64,192,385486,1,0,0:0:0:0:
192,192,385486,1,0,0:0:0:0:
192,192,385593,1,0,0:0:0:0:
448,192,385593,1,0,0:0:0:0:
64,192,385700,1,0,0:0:0:0:
320,192,385700,1,0,0:0:0:0:
320,192,385808,1,0,0:0:0:0:
448,192,385808,1,0,0:0:0:0:
320,192,385915,1,0,0:0:0:0:
448,192,385915,1,0,0:0:0:0:
64,192,386023,1,0,0:0:0:0:
192,192,386023,1,0,0:0:0:0:
448,192,386023,1,0,0:0:0:0:
320,192,386084,1,0,0:0:0:0:
192,192,386145,1,0,0:0:0:0:
64,192,386207,1,0,0:0:0:0:
192,192,386264,1,0,0:0:0:0:
448,192,386264,1,0,0:0:0:0:
192,192,386381,1,0,0:0:0:0:
320,192,386453,1,0,0:0:0:0:
448,192,386453,1,0,0:0:0:0:
448,192,386558,1,0,0:0:0:0:
64,192,386593,1,0,0:0:0:0:
192,192,386628,1,0,0:0:0:0:
320,192,386663,1,0,0:0:0:0:
64,192,386698,1,0,0:0:0:0:
448,192,386733,1,0,0:0:0:0:
320,192,386768,1,0,0:0:0:0:
192,192,386803,1,0,0:0:0:0:
64,192,386838,1,0,0:0:0:0:
448,192,386874,1,0,0:0:0:0:
192,192,386926,1,0,0:0:0:0:
320,192,386979,1,0,0:0:0:0:
192,192,387032,1,0,0:0:0:0:
64,192,387085,1,0,0:0:0:0:
448,192,387085,1,0,0:0:0:0:
192,192,387191,1,0,0:0:0:0:
320,192,387191,1,0,0:0:0:0:
64,192,387297,1,0,0:0:0:0:
320,192,387297,1,0,0:0:0:0:
448,192,387297,1,0,0:0:0:0:
64,192,387403,1,0,0:0:0:0:
192,192,387403,1,0,0:0:0:0:
448,192,387456,1,0,0:0:0:0:
320,192,387509,1,0,0:0:0:0:
320,192,387615,1,0,0:0:0:0:
448,192,387615,1,0,0:0:0:0:
64,192,387721,1,0,0:0:0:0:
192,192,387721,1,0,0:0:0:0:
448,192,387721,1,0,0:0:0:0:
320,192,387773,1,0,0:0:0:0:
192,192,387826,1,0,0:0:0:0:
64,192,387878,1,0,0:0:0:0:
320,192,387931,1,0,0:0:0:0:
448,192,387931,1,0,0:0:0:0:
320,192,388036,1,0,0:0:0:0:
64,192,388141,1,0,0:0:0:0:
192,192,388141,1,0,0:0:0:0:
448,192,388194,1,0,0:0:0:0:
64,192,388246,1,0,0:0:0:0:
320,192,388246,1,0,0:0:0:0:
192,192,388352,1,0,0:0:0:0:
320,192,388352,1,0,0:0:0:0:
448,192,388352,1,0,0:0:0:0:
192,192,388457,1,0,0:0:0:0:
320,192,388562,1,0,0:0:0:0:
448,192,388562,1,0,0:0:0:0:
64,192,388667,1,0,0:0:0:0:
320,192,388667,1,0,0:0:0:0:
64,192,388772,1,0,0:0:0:0:
192,192,388772,1,0,0:0:0:0:
448,192,388772,1,0,0:0:0:0:
192,192,388877,1,0,0:0:0:0:
320,192,388983,1,0,0:0:0:0:
448,192,388983,1,0,0:0:0:0:
64,192,389035,1,0,0:0:0:0:
320,192,389088,1,0,0:0:0:0:
448,192,389088,1,0,0:0:0:0:
64,192,389193,1,0,0:0:0:0:
192,192,389193,1,0,0:0:0:0:
192,192,389298,1,0,0:0:0:0:
64,192,389404,1,0,0:0:0:0:
320,192,389404,1,0,0:0:0:0:
448,192,389404,1,0,0:0:0:0:
320,192,389508,1,0,0:0:0:0:
64,192,389612,1,0,0:0:0:0:
192,192,389612,1,0,0:0:0:0:
448,192,389612,1,0,0:0:0:0:
64,192,389717,1,0,0:0:0:0:
192,192,389717,1,0,0:0:0:0:
448,192,389717,1,0,0:0:0:0:
320,192,389821,1,0,0:0:0:0:
448,192,389821,1,0,0:0:0:0:
64,192,389873,1,0,0:0:0:0:
192,192,389926,1,0,0:0:0:0:
448,192,389978,1,0,0:0:0:0:
320,192,390030,1,0,0:0:0:0:
64,192,390082,1,0,0:0:0:0:
320,192,390135,1,0,0:0:0:0:
64,192,390239,1,0,0:0:0:0:
192,192,390239,1,0,0:0:0:0:
448,192,390239,1,0,0:0:0:0:
192,192,390317,1,0,0:0:0:0:
320,192,390317,1,0,0:0:0:0:
64,192,390343,1,0,0:0:0:0:
448,192,390448,1,0,0:0:0:0:
448,192,390517,1,0,0:0:0:0:
192,192,390587,1,0,0:0:0:0:
192,192,390657,1,0,0:0:0:0:
448,192,390657,1,0,0:0:0:0:
64,192,390818,1,0,0:0:0:0:
320,192,390818,1,0,0:0:0:0:
192,192,390871,1,0,0:0:0:0:
448,192,390925,1,0,0:0:0:0:
320,192,390979,1,0,0:0:0:0:
192,192,391033,1,0,0:0:0:0:
64,192,391086,1,0,0:0:0:0:
320,192,391086,1,0,0:0:0:0:
192,192,391113,1,0,0:0:0:0:
448,192,391113,1,0,0:0:0:0:
64,192,391301,1,0,0:0:0:0:
448,192,391301,1,0,0:0:0:0:
192,192,391355,1,0,0:0:0:0:
320,192,391355,1,0,0:0:0:0:
64,192,391516,1,0,0:0:0:0:
192,192,391516,1,0,0:0:0:0:
320,192,391516,1,0,0:0:0:0:
448,192,391516,1,0,0:0:0:0:
64,192,391623,1,0,0:0:0:0:
192,192,391623,1,0,0:0:0:0:
448,192,391731,1,0,0:0:0:0:
192,192,391802,1,0,0:0:0:0:
320,192,391802,1,0,0:0:0:0:
64,192,391874,1,0,0:0:0:0:
448,192,391874,1,0,0:0:0:0:
192,192,391946,1,0,0:0:0:0:
320,192,391946,1,0,0:0:0:0:
64,192,392017,1,0,0:0:0:0:
320,192,392052,1,0,0:0:0:0:
448,192,392052,1,0,0:0:0:0:
64,192,392159,1,0,0:0:0:0:
192,192,392159,1,0,0:0:0:0:
448,192,392212,1,0,0:0:0:0:
320,192,392265,1,0,0:0:0:0:
192,192,392319,1,0,0:0:0:0:
64,192,392373,1,0,0:0:0:0:
448,192,392373,1,0,0:0:0:0:
192,192,392425,1,0,0:0:0:0:
320,192,392478,1,0,0:0:0:0:
448,192,392530,1,0,0:0:0:0:
320,192,392583,1,0,0:0:0:0:
192,192,392635,1,0,0:0:0:0:
448,192,392688,1,0,0:0:0:0:
64,192,392741,1,0,0:0:0:0:
192,192,392793,1,0,0:0:0:0:
320,192,392793,1,0,0:0:0:0:
448,192,392845,1,0,0:0:0:0:
448,192,392951,1,0,0:0:0:0:
320,192,393004,1,0,0:0:0:0:
64,192,393057,1,0,0:0:0:0:
64,192,393163,1,0,0:0:0:0:
192,192,393216,1,0,0:0:0:0:
320,192,393216,1,0,0:0:0:0:
448,192,393269,1,0,0:0:0:0:
448,192,393375,1,0,0:0:0:0:
320,192,393428,1,0,0:0:0:0:
64,192,393481,1,0,0:0:0:0:
192,192,393534,1,0,0:0:0:0:
320,192,393534,1,0,0:0:0:0:
64,192,393641,1,0,0:0:0:0:
192,192,393641,1,0,0:0:0:0:
448,192,393693,1,0,0:0:0:0:
64,192,393746,1,0,0:0:0:0:
192,192,393746,1,0,0:0:0:0:
192,192,393851,1,0,0:0:0:0:
320,192,393851,1,0,0:0:0:0:
320,192,393956,1,0,0:0:0:0:
448,192,393956,1,0,0:0:0:0:
64,192,394009,1,0,0:0:0:0:
192,192,394061,1,0,0:0:0:0:
320,192,394061,1,0,0:0:0:0:
448,192,394061,1,0,0:0:0:0:
64,192,394272,1,0,0:0:0:0:
448,192,394272,1,0,0:0:0:0:
64,192,394485,1,0,0:0:0:0:
192,192,394485,1,0,0:0:0:0:
320,192,394485,1,0,0:0:0:0:
192,192,394593,1,0,0:0:0:0:
448,192,394593,1,0,0:0:0:0:
64,192,394702,1,0,0:0:0:0:
320,192,394702,1,0,0:0:0:0:
192,192,394811,1,0,0:0:0:0:
448,192,394811,1,0,0:0:0:0:
64,192,394921,1,0,0:0:0:0:
192,192,394921,1,0,0:0:0:0:
320,192,394921,1,0,0:0:0:0:
192,192,395132,1,0,0:0:0:0:
448,192,395132,1,0,0:0:0:0:
64,192,395238,1,0,0:0:0:0:
320,192,395238,1,0,0:0:0:0:
192,192,395344,1,0,0:0:0:0:
320,192,395344,1,0,0:0:0:0:
448,192,395344,1,0,0:0:0:0:
192,192,395450,1,0,0:0:0:0:
448,192,395450,1,0,0:0:0:0:
64,192,395556,1,0,0:0:0:0:
320,192,395556,1,0,0:0:0:0:
192,192,395662,1,0,0:0:0:0:
448,192,395662,1,0,0:0:0:0:
64,192,395768,1,0,0:0:0:0:
192,192,395768,1,0,0:0:0:0:
320,192,395768,1,0,0:0:0:0:
320,192,395873,1,0,0:0:0:0:
64,192,395978,1,0,0:0:0:0:
448,192,395978,1,0,0:0:0:0:
192,192,396048,1,0,0:0:0:0:
64,192,396083,1,0,0:0:0:0:
192,192,396189,1,0,0:0:0:0:
320,192,396189,1,0,0:0:0:0:
448,192,396189,1,0,0:0:0:0:
320,192,396296,1,0,0:0:0:0:
448,192,396296,1,0,0:0:0:0:
320,192,396403,1,0,0:0:0:0:
448,192,396403,1,0,0:0:0:0:
64,192,396511,1,0,0:0:0:0:
192,192,396511,1,0,0:0:0:0:
320,192,396618,1,0,0:0:0:0:
448,192,396618,1,0,0:0:0:0:
64,192,396672,1,0,0:0:0:0:
192,192,396726,1,0,0:0:0:0:
320,192,396779,1,0,0:0:0:0:
448,192,396833,1,0,0:0:0:0:
64,192,396887,1,0,0:0:0:0:
320,192,396941,1,0,0:0:0:0:
64,192,396994,1,0,0:0:0:0:
320,192,397048,1,0,0:0:0:0:
448,192,397048,1,0,0:0:0:0:
64,192,397099,1,0,0:0:0:0:
192,192,397150,1,0,0:0:0:0:
320,192,397201,1,0,0:0:0:0:
448,192,397252,1,0,0:0:0:0:
64,192,397303,1,0,0:0:0:0:
320,192,397354,1,0,0:0:0:0:
64,192,397406,1,0,0:0:0:0:
320,192,397458,1,0,0:0:0:0:
64,192,397510,1,0,0:0:0:0:
448,192,397563,1,0,0:0:0:0:
192,192,397616,1,0,0:0:0:0:
448,192,397669,1,0,0:0:0:0:
320,192,397722,1,0,0:0:0:0:
192,192,397775,1,0,0:0:0:0:
64,192,397828,1,0,0:0:0:0:
320,192,397881,1,0,0:0:0:0:
448,192,397881,1,0,0:0:0:0:
192,192,397934,1,0,0:0:0:0:
320,192,397987,1,0,0:0:0:0:
448,192,398040,1,0,0:0:0:0:
64,192,398093,1,0,0:0:0:0:
192,192,398128,1,0,0:0:0:0:
320,192,398164,1,0,0:0:0:0:
448,192,398199,1,0,0:0:0:0:
64,192,398234,1,0,0:0:0:0:
192,192,398269,1,0,0:0:0:0:
448,192,398305,1,0,0:0:0:0:
320,192,398340,1,0,0:0:0:0:
192,192,398375,1,0,0:0:0:0:
64,192,398411,1,0,0:0:0:0:
448,192,398446,1,0,0:0:0:0:
320,192,398481,1,0,0:0:0:0:
64,192,398517,1,0,0:0:0:0:
192,192,398517,1,0,0:0:0:0:
192,192,398623,1,0,0:0:0:0:
64,192,398728,1,0,0:0:0:0:
448,192,398728,1,0,0:0:0:0:
192,192,398781,1,0,0:0:0:0:
320,192,398834,1,0,0:0:0:0:
448,192,398887,1,0,0:0:0:0:
320,192,398940,1,0,0:0:0:0:
192,192,398993,1,0,0:0:0:0:
64,192,399046,1,0,0:0:0:0:
448,192,399046,1,0,0:0:0:0:
320,192,399099,1,0,0:0:0:0:
192,192,399152,1,0,0:0:0:0:
64,192,399205,1,0,0:0:0:0:
192,192,399258,1,0,0:0:0:0:
320,192,399311,1,0,0:0:0:0:
64,192,399364,1,0,0:0:0:0:
448,192,399364,1,0,0:0:0:0:
192,192,399470,1,0,0:0:0:0:
320,192,399470,1,0,0:0:0:0:
64,192,399576,1,0,0:0:0:0:
192,192,399576,1,0,0:0:0:0:
448,192,399576,1,0,0:0:0:0:
64,192,399683,1,0,0:0:0:0:
320,192,399683,1,0,0:0:0:0:
192,192,399790,1,0,0:0:0:0:
448,192,399790,1,0,0:0:0:0:
64,192,399898,1,0,0:0:0:0:
320,192,399898,1,0,0:0:0:0:
192,192,400005,1,0,0:0:0:0:
448,192,400005,1,0,0:0:0:0:
192,192,400113,1,0,0:0:0:0:
448,192,400113,1,0,0:0:0:0:
192,192,400220,1,0,0:0:0:0:
448,192,400220,1,0,0:0:0:0:
320,192,400256,1,0,0:0:0:0:
64,192,400435,1,0,0:0:0:0:
192,192,400435,1,0,0:0:0:0:
320,192,400435,1,0,0:0:0:0:
192,192,400540,1,0,0:0:0:0:
64,192,400575,1,0,0:0:0:0:
320,192,400645,1,0,0:0:0:0:
448,192,400645,1,0,0:0:0:0:
320,192,400750,1,0,0:0:0:0:
64,192,400855,1,0,0:0:0:0:
448,192,400855,1,0,0:0:0:0:
192,192,400908,1,0,0:0:0:0:
192,192,401013,1,0,0:0:0:0:
64,192,401066,1,0,0:0:0:0:
448,192,401066,1,0,0:0:0:0:
320,192,401118,1,0,0:0:0:0:
320,192,401223,1,0,0:0:0:0:
64,192,401276,1,0,0:0:0:0:
192,192,401276,1,0,0:0:0:0:
448,192,401276,1,0,0:0:0:0:
448,192,401416,1,0,0:0:0:0:
64,192,401486,1,0,0:0:0:0:
320,192,401486,1,0,0:0:0:0:
192,192,401539,1,0,0:0:0:0:
192,192,401644,1,0,0:0:0:0:
64,192,401697,128,0,401801:0:0:0:0:
448,192,401697,128,0,401801:0:0:0:0:
320,192,401749,128,0,401801:0:0:0:0:
64,192,401905,128,0,402010:0:0:0:0:
448,192,401905,128,0,402010:0:0:0:0:
192,192,401958,128,0,402010:0:0:0:0:
64,192,402115,128,0,402325:0:0:0:0:
192,192,402115,128,0,402325:0:0:0:0:
320,192,402115,1,0,0:0:0:0:
448,192,402115,1,0,0:0:0:0:
320,192,402220,1,0,0:0:0:0:
448,192,402220,1,0,0:0:0:0:
320,192,402325,1,0,0:0:0:0:
448,192,402325,1,0,0:0:0:0:
64,192,402536,1,0,0:0:0:0:
192,192,402536,1,0,0:0:0:0:
448,192,402536,1,0,0:0:0:0:
192,192,402640,1,0,0:0:0:0:
448,192,402640,1,0,0:0:0:0:
64,192,402744,1,0,0:0:0:0:
320,192,402744,1,0,0:0:0:0:
192,192,402849,1,0,0:0:0:0:
320,192,402849,1,0,0:0:0:0:
64,192,402953,1,0,0:0:0:0:
192,192,402953,1,0,0:0:0:0:
448,192,402953,1,0,0:0:0:0:
64,192,403058,1,0,0:0:0:0:
320,192,403058,1,0,0:0:0:0:
192,192,403162,1,0,0:0:0:0:
320,192,403162,1,0,0:0:0:0:
448,192,403162,1,0,0:0:0:0:
64,192,403371,1,0,0:0:0:0:
192,192,403371,1,0,0:0:0:0:
448,192,403371,1,0,0:0:0:0:
320,192,403423,1,0,0:0:0:0:
192,192,403476,1,0,0:0:0:0:
64,192,403529,1,0,0:0:0:0:
192,192,403582,1,0,0:0:0:0:
320,192,403635,1,0,0:0:0:0:
448,192,403688,1,0,0:0:0:0:
320,192,403741,1,0,0:0:0:0:
64,192,403794,1,0,0:0:0:0:
192,192,403794,1,0,0:0:0:0:
448,192,403847,1,0,0:0:0:0:
192,192,403900,1,0,0:0:0:0:
448,192,403953,1,0,0:0:0:0:
320,192,404006,1,0,0:0:0:0:
192,192,404059,1,0,0:0:0:0:
64,192,404112,1,0,0:0:0:0:
192,192,404165,1,0,0:0:0:0:
320,192,404218,1,0,0:0:0:0:
64,192,404272,1,0,0:0:0:0:
320,192,404327,1,0,0:0:0:0:
64,192,404382,1,0,0:0:0:0:
320,192,404437,1,0,0:0:0:0:
192,192,404492,1,0,0:0:0:0:
64,192,404547,1,0,0:0:0:0:
192,192,404602,1,0,0:0:0:0:
320,192,404658,1,0,0:0:0:0:
448,192,404658,1,0,0:0:0:0:
64,192,404710,1,0,0:0:0:0:
448,192,404763,1,0,0:0:0:0:
320,192,404815,1,0,0:0:0:0:
192,192,404868,1,0,0:0:0:0:
448,192,404920,1,0,0:0:0:0:
192,192,404973,1,0,0:0:0:0:
448,192,405026,1,0,0:0:0:0:
192,192,405078,1,0,0:0:0:0:
448,192,405131,1,0,0:0:0:0:
192,192,405183,1,0,0:0:0:0:
320,192,405236,1,0,0:0:0:0:
64,192,405289,1,0,0:0:0:0:
192,192,405341,1,0,0:0:0:0:
320,192,405394,1,0,0:0:0:0:
448,192,405446,1,0,0:0:0:0:
64,192,405499,1,0,0:0:0:0:
192,192,405499,1,0,0:0:0:0:
320,192,405551,1,0,0:0:0:0:
64,192,405604,1,0,0:0:0:0:
448,192,405657,1,0,0:0:0:0:
320,192,405709,1,0,0:0:0:0:
192,192,405762,1,0,0:0:0:0:
320,192,405814,1,0,0:0:0:0:
192,192,405867,1,0,0:0:0:0:
64,192,405920,1,0,0:0:0:0:
448,192,405920,1,0,0:0:0:0:
448,192,406025,1,0,0:0:0:0:
64,192,406051,1,0,0:0:0:0:
320,192,406051,1,0,0:0:0:0:
192,192,406130,1,0,0:0:0:0:
192,192,406235,1,0,0:0:0:0:
448,192,406235,1,0,0:0:0:0:
64,192,406340,1,0,0:0:0:0:
320,192,406340,1,0,0:0:0:0:
448,192,406340,1,0,0:0:0:0:
192,192,406410,1,0,0:0:0:0:
320,192,406480,1,0,0:0:0:0:
192,192,406551,1,0,0:0:0:0:
448,192,406551,1,0,0:0:0:0:
64,192,406621,1,0,0:0:0:0:
192,192,406691,1,0,0:0:0:0:
64,192,406761,1,0,0:0:0:0:
320,192,406761,1,0,0:0:0:0:
448,192,406761,1,0,0:0:0:0:
320,192,406866,1,0,0:0:0:0:
448,192,406866,1,0,0:0:0:0:
320,192,406971,1,0,0:0:0:0:
448,192,406971,1,0,0:0:0:0:
320,192,407076,1,0,0:0:0:0:
448,192,407076,1,0,0:0:0:0:
64,192,407182,1,0,0:0:0:0:
192,192,407182,1,0,0:0:0:0:
320,192,407252,1,0,0:0:0:0:
192,192,407287,1,0,0:0:0:0:
64,192,407323,1,0,0:0:0:0:
448,192,407393,1,0,0:0:0:0:
192,192,407446,1,0,0:0:0:0:
448,192,407499,1,0,0:0:0:0:
64,192,407605,1,0,0:0:0:0:
320,192,407605,1,0,0:0:0:0:
192,192,407657,1,0,0:0:0:0:
448,192,407710,1,0,0:0:0:0:
64,192,407762,1,0,0:0:0:0:
192,192,407815,1,0,0:0:0:0:
320,192,407815,1,0,0:0:0:0:
64,192,408025,1,0,0:0:0:0:
192,192,408025,1,0,0:0:0:0:
320,192,408025,1,0,0:0:0:0:
192,192,408095,1,0,0:0:0:0:
64,192,408236,1,0,0:0:0:0:
320,192,408236,1,0,0:0:0:0:
320,192,408306,1,0,0:0:0:0:
64,192,408447,1,0,0:0:0:0:
192,192,408447,1,0,0:0:0:0:
448,192,408447,1,0,0:0:0:0:
320,192,408518,1,0,0:0:0:0:
192,192,408553,1,0,0:0:0:0:
64,192,408624,1,0,0:0:0:0:
192,192,408660,1,0,0:0:0:0:
320,192,408695,1,0,0:0:0:0:
448,192,408731,1,0,0:0:0:0:
64,192,408766,1,0,0:0:0:0:
192,192,408802,1,0,0:0:0:0:
320,192,408838,1,0,0:0:0:0:
64,192,408873,1,0,0:0:0:0:
448,192,408873,1,0,0:0:0:0:
64,192,409086,1,0,0:0:0:0:
192,192,409086,1,0,0:0:0:0:
448,192,409086,1,0,0:0:0:0:
64,192,409193,1,0,0:0:0:0:
192,192,409193,1,0,0:0:0:0:
448,192,409193,1,0,0:0:0:0:
64,192,409300,1,0,0:0:0:0:
192,192,409300,1,0,0:0:0:0:
448,192,409300,1,0,0:0:0:0:
64,192,409403,1,0,0:0:0:0:
192,192,409403,1,0,0:0:0:0:
448,192,409403,1,0,0:0:0:0:
320,192,409506,1,0,0:0:0:0:
320,192,409609,1,0,0:0:0:0:
64,192,409712,1,0,0:0:0:0:
192,192,409712,1,0,0:0:0:0:
448,192,409712,1,0,0:0:0:0:
320,192,409918,1,0,0:0:0:0:
64,192,409969,1,0,0:0:0:0:
320,192,410021,1,0,0:0:0:0:
64,192,410072,1,0,0:0:0:0:
320,192,410124,1,0,0:0:0:0:
192,192,410159,1,0,0:0:0:0:
448,192,410195,1,0,0:0:0:0:
64,192,410231,1,0,0:0:0:0:
192,192,410267,1,0,0:0:0:0:
320,192,410303,1,0,0:0:0:0:
448,192,410338,1,0,0:0:0:0:
64,192,410365,1,0,0:0:0:0:
64,192,410473,1,0,0:0:0:0:
320,192,410553,1,0,0:0:0:0:
448,192,410553,1,0,0:0:0:0:
320,192,410625,1,0,0:0:0:0:
192,192,410661,1,0,0:0:0:0:
64,192,410696,1,0,0:0:0:0:
448,192,410768,1,0,0:0:0:0:
192,192,410804,1,0,0:0:0:0:
320,192,410840,1,0,0:0:0:0:
448,192,410876,1,0,0:0:0:0:
64,192,410911,1,0,0:0:0:0:
320,192,410947,1,0,0:0:0:0:
64,192,411017,1,0,0:0:0:0:
192,192,411051,1,0,0:0:0:0:
448,192,411085,1,0,0:0:0:0:
320,192,411136,1,0,0:0:0:0:
64,192,411187,1,0,0:0:0:0:
192,192,411187,1,0,0:0:0:0:
448,192,411238,1,0,0:0:0:0:
192,192,411289,1,0,0:0:0:0:
448,192,411341,1,0,0:0:0:0:
64,192,411392,1,0,0:0:0:0:
320,192,411392,1,0,0:0:0:0:
64,192,411597,1,0,0:0:0:0:
448,192,411597,1,0,0:0:0:0:
192,192,411712,1,0,0:0:0:0:
320,192,411712,1,0,0:0:0:0:
320,192,411829,1,0,0:0:0:0:
192,192,411863,1,0,0:0:0:0:
64,192,411897,1,0,0:0:0:0:
448,192,411931,1,0,0:0:0:0:
320,192,411965,1,0,0:0:0:0:
192,192,411999,1,0,0:0:0:0:
64,192,412033,1,0,0:0:0:0:
320,192,412067,1,0,0:0:0:0:
448,192,412101,1,0,0:0:0:0:
64,192,412135,1,0,0:0:0:0:
192,192,412170,1,0,0:0:0:0:
64,192,412238,1,0,0:0:0:0:
320,192,412238,1,0,0:0:0:0:
448,192,412238,1,0,0:0:0:0:
192,192,412341,1,0,0:0:0:0:
320,192,412341,1,0,0:0:0:0:
64,192,412445,1,0,0:0:0:0:
448,192,412445,1,0,0:0:0:0:
192,192,412549,1,0,0:0:0:0:
320,192,412549,1,0,0:0:0:0:
192,192,412652,1,0,0:0:0:0:
320,192,412652,1,0,0:0:0:0:
64,192,412687,1,0,0:0:0:0:
448,192,412687,1,0,0:0:0:0:
64,192,412791,1,0,0:0:0:0:
448,192,412791,1,0,0:0:0:0:
192,192,412894,1,0,0:0:0:0:
320,192,412894,1,0,0:0:0:0:
320,192,412964,1,0,0:0:0:0:
64,192,413068,1,0,0:0:0:0:
192,192,413068,1,0,0:0:0:0:
448,192,413068,1,0,0:0:0:0:
192,192,413177,1,0,0:0:0:0:
64,192,413287,1,0,0:0:0:0:
320,192,413287,1,0,0:0:0:0:
448,192,413287,1,0,0:0:0:0:
320,192,413397,1,0,0:0:0:0:
64,192,413507,1,0,0:0:0:0:
192,192,413507,1,0,0:0:0:0:
448,192,413507,1,0,0:0:0:0:
64,192,413610,1,0,0:0:0:0:
192,192,413610,1,0,0:0:0:0:
448,192,413610,1,0,0:0:0:0:
320,192,413713,1,0,0:0:0:0:
448,192,413713,1,0,0:0:0:0:
64,192,413816,1,0,0:0:0:0:
192,192,413816,1,0,0:0:0:0:
192,192,413919,1,0,0:0:0:0:
320,192,413919,1,0,0:0:0:0:
448,192,413919,1,0,0:0:0:0:
192,192,414022,1,0,0:0:0:0:
320,192,414022,1,0,0:0:0:0:
448,192,414022,1,0,0:0:0:0:
64,192,414125,1,0,0:0:0:0:
320,192,414125,1,0,0:0:0:0:
192,192,414228,1,0,0:0:0:0:
448,192,414228,1,0,0:0:0:0:
64,192,414331,1,0,0:0:0:0:
320,192,414331,1,0,0:0:0:0:
448,192,414331,1,0,0:0:0:0:
320,192,414435,1,0,0:0:0:0:
64,192,414539,1,0,0:0:0:0:
192,192,414539,1,0,0:0:0:0:
448,192,414539,1,0,0:0:0:0:
192,192,414644,1,0,0:0:0:0:
64,192,414748,1,0,0:0:0:0:
320,192,414748,1,0,0:0:0:0:
448,192,414748,1,0,0:0:0:0:
192,192,414800,1,0,0:0:0:0:
320,192,414853,1,0,0:0:0:0:
448,192,414905,1,0,0:0:0:0:
320,192,414957,1,0,0:0:0:0:
192,192,415009,1,0,0:0:0:0:
64,192,415062,1,0,0:0:0:0:
192,192,415114,1,0,0:0:0:0:
320,192,415166,1,0,0:0:0:0:
448,192,415201,1,0,0:0:0:0:
64,192,415236,1,0,0:0:0:0:
192,192,415270,1,0,0:0:0:0:
320,192,415305,1,0,0:0:0:0:
448,192,415340,1,0,0:0:0:0:
64,192,415375,1,0,0:0:0:0:
192,192,415427,1,0,0:0:0:0:
320,192,415479,1,0,0:0:0:0:
192,192,415532,1,0,0:0:0:0:
64,192,415584,1,0,0:0:0:0:
448,192,415584,1,0,0:0:0:0:
192,192,415688,1,0,0:0:0:0:
448,192,415688,1,0,0:0:0:0:
64,192,415793,1,0,0:0:0:0:
320,192,415793,1,0,0:0:0:0:
320,192,415897,1,0,0:0:0:0:
64,192,416001,1,0,0:0:0:0:
192,192,416001,1,0,0:0:0:0:
448,192,416054,1,0,0:0:0:0:
320,192,416106,1,0,0:0:0:0:
192,192,416158,1,0,0:0:0:0:
64,192,416210,1,0,0:0:0:0:
192,192,416263,1,0,0:0:0:0:
320,192,416315,1,0,0:0:0:0:
192,192,416367,1,0,0:0:0:0:
64,192,416420,1,0,0:0:0:0:
448,192,416420,1,0,0:0:0:0:
320,192,416472,1,0,0:0:0:0:
320,192,416578,1,0,0:0:0:0:
64,192,416631,1,0,0:0:0:0:
448,192,416631,1,0,0:0:0:0:
192,192,416684,1,0,0:0:0:0:
192,192,416790,1,0,0:0:0:0:
320,192,416843,1,0,0:0:0:0:
448,192,416843,1,0,0:0:0:0:
64,192,416949,1,0,0:0:0:0:
192,192,416949,1,0,0:0:0:0:
448,192,416949,1,0,0:0:0:0:
64,192,417055,1,0,0:0:0:0:
192,192,417055,1,0,0:0:0:0:
320,192,417055,1,0,0:0:0:0:
320,192,417161,1,0,0:0:0:0:
64,192,417267,1,0,0:0:0:0:
192,192,417267,1,0,0:0:0:0:
448,192,417267,1,0,0:0:0:0:
192,192,417373,1,0,0:0:0:0:
320,192,417399,1,0,0:0:0:0:
448,192,417426,1,0,0:0:0:0:
64,192,417452,1,0,0:0:0:0:
320,192,417505,1,0,0:0:0:0:
192,192,417532,1,0,0:0:0:0:
64,192,417558,1,0,0:0:0:0:
192,192,417690,1,0,0:0:0:0:
320,192,417690,1,0,0:0:0:0:
448,192,417690,1,0,0:0:0:0:
64,192,417795,1,0,0:0:0:0:
320,192,417795,1,0,0:0:0:0:
448,192,417795,1,0,0:0:0:0:
192,192,417900,1,0,0:0:0:0:
448,192,417900,1,0,0:0:0:0:
192,192,418005,1,0,0:0:0:0:
64,192,418110,1,0,0:0:0:0:
320,192,418110,1,0,0:0:0:0:
448,192,418110,1,0,0:0:0:0:
64,192,418215,1,0,0:0:0:0:
320,192,418215,1,0,0:0:0:0:
448,192,418215,1,0,0:0:0:0:
64,192,418321,1,0,0:0:0:0:
320,192,418321,1,0,0:0:0:0:
448,192,418321,1,0,0:0:0:0:
192,192,418426,1,0,0:0:0:0:
320,192,418531,1,0,0:0:0:0:
448,192,418531,1,0,0:0:0:0:
192,192,418591,1,0,0:0:0:0:
448,192,418651,1,0,0:0:0:0:
64,192,418651,1,0,0:0:0:0:
192,192,418711,1,0,0:0:0:0:
320,192,418771,1,0,0:0:0:0:
192,192,418831,1,0,0:0:0:0:
448,192,418831,1,0,0:0:0:0:
64,192,418891,1,0,0:0:0:0:
448,192,418952,1,0,0:0:0:0:
64,192,419012,1,0,0:0:0:0:
320,192,419012,1,0,0:0:0:0:
192,192,419073,1,0,0:0:0:0:
320,192,419133,1,0,0:0:0:0:
192,192,419194,1,0,0:0:0:0:
448,192,419194,1,0,0:0:0:0:
64,192,419254,1,0,0:0:0:0:
448,192,419315,1,0,0:0:0:0:
64,192,419375,1,0,0:0:0:0:
320,192,419375,1,0,0:0:0:0:
448,192,419460,1,0,0:0:0:0:
192,192,419460,1,0,0:0:0:0:
320,192,419545,1,0,0:0:0:0:
192,192,419587,1,0,0:0:0:0:
192,192,419693,1,0,0:0:0:0:
320,192,419693,1,0,0:0:0:0:
64,192,419799,1,0,0:0:0:0:
320,192,419799,1,0,0:0:0:0:
448,192,419799,1,0,0:0:0:0:
192,192,419905,1,0,0:0:0:0:
448,192,419905,1,0,0:0:0:0:
64,192,420011,1,0,0:0:0:0:
320,192,420011,1,0,0:0:0:0:
320,192,420117,1,0,0:0:0:0:
64,192,420222,1,0,0:0:0:0:
192,192,420222,1,0,0:0:0:0:
448,192,420275,1,0,0:0:0:0:
192,192,420328,1,0,0:0:0:0:
320,192,420328,1,0,0:0:0:0:
64,192,420381,1,0,0:0:0:0:
320,192,420434,1,0,0:0:0:0:
448,192,420434,1,0,0:0:0:0:
320,192,420540,1,0,0:0:0:0:
64,192,420646,1,0,0:0:0:0:
192,192,420646,1,0,0:0:0:0:
448,192,420646,1,0,0:0:0:0:
64,192,420752,1,0,0:0:0:0:
192,192,420752,1,0,0:0:0:0:
448,192,420752,1,0,0:0:0:0:
320,192,420858,1,0,0:0:0:0:
320,192,420964,1,0,0:0:0:0:
64,192,421071,1,0,0:0:0:0:
192,192,421097,1,0,0:0:0:0:
64,192,421176,1,0,0:0:0:0:
448,192,421202,1,0,0:0:0:0:
192,192,421281,1,0,0:0:0:0:
320,192,421281,1,0,0:0:0:0:
64,192,421386,1,0,0:0:0:0:
192,192,421386,1,0,0:0:0:0:
64,192,421491,1,0,0:0:0:0:
320,192,421491,1,0,0:0:0:0:
448,192,421491,1,0,0:0:0:0:
192,192,421544,1,0,0:0:0:0:
320,192,421596,1,0,0:0:0:0:
448,192,421649,1,0,0:0:0:0:
320,192,421702,1,0,0:0:0:0:
192,192,421754,1,0,0:0:0:0:
64,192,421807,1,0,0:0:0:0:
192,192,421859,1,0,0:0:0:0:
320,192,421912,1,0,0:0:0:0:
448,192,421912,1,0,0:0:0:0:
64,192,421963,1,0,0:0:0:0:
448,192,422015,1,0,0:0:0:0:
192,192,422118,1,0,0:0:0:0:
320,192,422118,1,0,0:0:0:0:
320,192,422221,1,0,0:0:0:0:
64,192,422324,1,0,0:0:0:0:
192,192,422324,1,0,0:0:0:0:
448,192,422324,1,0,0:0:0:0:
64,192,422426,1,0,0:0:0:0:
320,192,422426,1,0,0:0:0:0:
192,192,422528,1,0,0:0:0:0:
448,192,422528,1,0,0:0:0:0:
64,192,422630,1,0,0:0:0:0:
320,192,422630,1,0,0:0:0:0:
192,192,422733,1,0,0:0:0:0:
320,192,422733,1,0,0:0:0:0:
448,192,422733,1,0,0:0:0:0:
192,192,422836,1,0,0:0:0:0:
64,192,422939,1,0,0:0:0:0:
320,192,422939,1,0,0:0:0:0:
448,192,422939,1,0,0:0:0:0:
448,192,423042,1,0,0:0:0:0:
64,192,423145,1,0,0:0:0:0:
192,192,423145,1,0,0:0:0:0:
320,192,423145,1,0,0:0:0:0:
64,192,423250,1,0,0:0:0:0:
192,192,423250,1,0,0:0:0:0:
448,192,423250,1,0,0:0:0:0:
192,192,423355,1,0,0:0:0:0:
320,192,423355,1,0,0:0:0:0:
448,192,423355,1,0,0:0:0:0:
320,192,423460,1,0,0:0:0:0:
448,192,423460,1,0,0:0:0:0:
64,192,423565,128,0,423670:0:0:0:0:
192,192,423565,128,0,423670:0:0:0:0:
448,192,423670,1,0,0:0:0:0:
320,192,423776,1,0,0:0:0:0:
192,192,423828,1,0,0:0:0:0:
64,192,423881,1,0,0:0:0:0:
192,192,423933,1,0,0:0:0:0:
320,192,423987,1,0,0:0:0:0:
448,192,423987,1,0,0:0:0:0:
64,192,424039,1,0,0:0:0:0:
192,192,424091,1,0,0:0:0:0:
320,192,424091,1,0,0:0:0:0:
448,192,424143,1,0,0:0:0:0:
64,192,424195,1,0,0:0:0:0:
320,192,424248,1,0,0:0:0:0:
192,192,424300,1,0,0:0:0:0:
320,192,424352,1,0,0:0:0:0:
64,192,424404,1,0,0:0:0:0:
192,192,424404,1,0,0:0:0:0:
448,192,424456,1,0,0:0:0:0:
320,192,424509,1,0,0:0:0:0:
192,192,424561,1,0,0:0:0:0:
320,192,424613,1,0,0:0:0:0:
448,192,424665,1,0,0:0:0:0:
64,192,424718,1,0,0:0:0:0:
192,192,424770,1,0,0:0:0:0:
64,192,424822,1,0,0:0:0:0:
320,192,424822,1,0,0:0:0:0:
448,192,424822,1,0,0:0:0:0:
192,192,424892,1,0,0:0:0:0:
448,192,424927,1,0,0:0:0:0:
320,192,424979,1,0,0:0:0:0:
64,192,425032,1,0,0:0:0:0:
192,192,425032,1,0,0:0:0:0:
192,192,425190,1,0,0:0:0:0:
320,192,425242,1,0,0:0:0:0:
448,192,425242,1,0,0:0:0:0:
64,192,425295,1,0,0:0:0:0:
320,192,425347,1,0,0:0:0:0:
448,192,425347,1,0,0:0:0:0:
64,192,425400,1,0,0:0:0:0:
320,192,425453,1,0,0:0:0:0:
448,192,425453,1,0,0:0:0:0:
192,192,425488,1,0,0:0:0:0:
64,192,425523,1,0,0:0:0:0:
320,192,425664,1,0,0:0:0:0:
448,192,425664,1,0,0:0:0:0:
192,192,425715,1,0,0:0:0:0:
64,192,425767,1,0,0:0:0:0:
192,192,425819,1,0,0:0:0:0:
320,192,425871,1,0,0:0:0:0:
448,192,425923,1,0,0:0:0:0:
64,192,425975,1,0,0:0:0:0:
192,192,426027,1,0,0:0:0:0:
320,192,426078,1,0,0:0:0:0:
448,192,426078,1,0,0:0:0:0:
192,192,426130,1,0,0:0:0:0:
320,192,426182,1,0,0:0:0:0:
64,192,426234,1,0,0:0:0:0:
448,192,426286,1,0,0:0:0:0:
320,192,426339,1,0,0:0:0:0:
64,192,426391,1,0,0:0:0:0:
192,192,426391,1,0,0:0:0:0:
192,192,426496,1,0,0:0:0:0:
320,192,426496,1,0,0:0:0:0:
448,192,426496,1,0,0:0:0:0:
320,192,426567,1,0,0:0:0:0:
448,192,426567,1,0,0:0:0:0:
64,192,426709,1,0,0:0:0:0:
192,192,426709,1,0,0:0:0:0:
64,192,426815,1,0,0:0:0:0:
192,192,426815,1,0,0:0:0:0:
64,192,426922,1,0,0:0:0:0:
192,192,426922,1,0,0:0:0:0:
448,192,426975,1,0,0:0:0:0:
320,192,427029,1,0,0:0:0:0:
448,192,427082,1,0,0:0:0:0:
64,192,427136,1,0,0:0:0:0:
192,192,427171,1,0,0:0:0:0:
448,192,427206,1,0,0:0:0:0:
320,192,427241,1,0,0:0:0:0:
192,192,427276,1,0,0:0:0:0:
64,192,427346,1,0,0:0:0:0:
320,192,427346,1,0,0:0:0:0:
448,192,427346,1,0,0:0:0:0:
64,192,427451,1,0,0:0:0:0:
192,192,427504,1,0,0:0:0:0:
320,192,427556,1,0,0:0:0:0:
448,192,427609,1,0,0:0:0:0:
320,192,427661,1,0,0:0:0:0:
192,192,427714,1,0,0:0:0:0:
64,192,427767,1,0,0:0:0:0:
448,192,427767,1,0,0:0:0:0:
192,192,427817,1,0,0:0:0:0:
320,192,427867,1,0,0:0:0:0:
64,192,427918,1,0,0:0:0:0:
448,192,427968,1,0,0:0:0:0:
320,192,428002,1,0,0:0:0:0:
192,192,428036,1,0,0:0:0:0:
64,192,428069,1,0,0:0:0:0:
448,192,428137,1,0,0:0:0:0:
192,192,428170,1,0,0:0:0:0:
320,192,428170,1,0,0:0:0:0:
320,192,428271,1,0,0:0:0:0:
64,192,428372,1,0,0:0:0:0:
192,192,428372,1,0,0:0:0:0:
192,192,428473,1,0,0:0:0:0:
448,192,428473,1,0,0:0:0:0:
64,192,428575,1,0,0:0:0:0:
320,192,428575,1,0,0:0:0:0:
448,192,428575,1,0,0:0:0:0:
192,192,428680,1,0,0:0:0:0:
320,192,428680,1,0,0:0:0:0:
64,192,428785,1,0,0:0:0:0:
192,192,428785,1,0,0:0:0:0:
320,192,428890,1,0,0:0:0:0:
448,192,428890,1,0,0:0:0:0:
64,192,428995,1,0,0:0:0:0:
192,192,428995,1,0,0:0:0:0:
448,192,428995,1,0,0:0:0:0:
64,192,429097,1,0,0:0:0:0:
320,192,429097,1,0,0:0:0:0:
192,192,429199,1,0,0:0:0:0:
448,192,429199,1,0,0:0:0:0:
64,192,429301,1,0,0:0:0:0:
192,192,429336,1,0,0:0:0:0:
320,192,429370,1,0,0:0:0:0:
448,192,429404,1,0,0:0:0:0:
192,192,429438,1,0,0:0:0:0:
64,192,429472,1,0,0:0:0:0:
448,192,429506,1,0,0:0:0:0:
320,192,429540,1,0,0:0:0:0:
192,192,429574,1,0,0:0:0:0:
64,192,429608,1,0,0:0:0:0:
448,192,429634,1,0,0:0:0:0:
192,192,429711,1,0,0:0:0:0:
320,192,429762,1,0,0:0:0:0:
64,192,429813,1,0,0:0:0:0:
448,192,429813,1,0,0:0:0:0:
320,192,429864,1,0,0:0:0:0:
192,192,429915,1,0,0:0:0:0:
320,192,429966,1,0,0:0:0:0:
64,192,430018,1,0,0:0:0:0:
448,192,430018,1,0,0:0:0:0:
320,192,430120,1,0,0:0:0:0:
64,192,430223,1,0,0:0:0:0:
192,192,430223,1,0,0:0:0:0:
64,192,430327,1,0,0:0:0:0:
192,192,430327,1,0,0:0:0:0:
64,192,430431,1,0,0:0:0:0:
192,192,430431,1,0,0:0:0:0:
64,192,430536,1,0,0:0:0:0:
192,192,430536,1,0,0:0:0:0:
192,192,430640,1,0,0:0:0:0:
320,192,430640,1,0,0:0:0:0:
448,192,430640,1,0,0:0:0:0:
320,192,430745,1,0,0:0:0:0:
448,192,430745,1,0,0:0:0:0:
320,192,430849,1,0,0:0:0:0:
448,192,430849,1,0,0:0:0:0:
320,192,430954,1,0,0:0:0:0:
448,192,430954,1,0,0:0:0:0:
192,192,431058,1,0,0:0:0:0:
320,192,431058,1,0,0:0:0:0:
64,192,431162,1,0,0:0:0:0:
192,192,431162,1,0,0:0:0:0:
64,192,431267,1,0,0:0:0:0:
192,192,431267,1,0,0:0:0:0:
64,192,431371,1,0,0:0:0:0:
192,192,431371,1,0,0:0:0:0:
192,192,431476,1,0,0:0:0:0:
320,192,431476,1,0,0:0:0:0:
448,192,431476,1,0,0:0:0:0:
64,192,431583,1,0,0:0:0:0:
320,192,431583,1,0,0:0:0:0:
192,192,431690,1,0,0:0:0:0:
448,192,431690,1,0,0:0:0:0:
320,192,431798,1,0,0:0:0:0:
448,192,431798,1,0,0:0:0:0:
64,192,431906,1,0,0:0:0:0:
192,192,431906,1,0,0:0:0:0:
320,192,431906,1,0,0:0:0:0:
64,192,432009,1,0,0:0:0:0:
192,192,432009,1,0,0:0:0:0:
448,192,432009,1,0,0:0:0:0:
192,192,432112,1,0,0:0:0:0:
320,192,432112,1,0,0:0:0:0:
320,192,432215,1,0,0:0:0:0:
64,192,432318,1,0,0:0:0:0:
192,192,432318,1,0,0:0:0:0:
448,192,432318,1,0,0:0:0:0:
64,192,432421,1,0,0:0:0:0:
192,192,432421,1,0,0:0:0:0:
448,192,432421,1,0,0:0:0:0:
64,192,432525,1,0,0:0:0:0:
320,192,432525,1,0,0:0:0:0:
192,192,432629,1,0,0:0:0:0:
448,192,432629,1,0,0:0:0:0:
64,192,432732,1,0,0:0:0:0:
320,192,432732,1,0,0:0:0:0:
448,192,432732,1,0,0:0:0:0:
64,192,432836,1,0,0:0:0:0:
320,192,432836,1,0,0:0:0:0:
192,192,432940,1,0,0:0:0:0:
448,192,432940,1,0,0:0:0:0:
64,192,433044,1,0,0:0:0:0:
320,192,433044,1,0,0:0:0:0:
192,192,433147,1,0,0:0:0:0:
320,192,433147,1,0,0:0:0:0:
448,192,433147,1,0,0:0:0:0:
64,192,433251,1,0,0:0:0:0:
192,192,433251,1,0,0:0:0:0:
64,192,433355,1,0,0:0:0:0:
192,192,433355,1,0,0:0:0:0:
192,192,433460,1,0,0:0:0:0:
320,192,433460,1,0,0:0:0:0:
320,192,433564,1,0,0:0:0:0:
448,192,433564,1,0,0:0:0:0:
192,192,433643,1,0,0:0:0:0:
448,192,433669,1,0,0:0:0:0:
320,192,433695,1,0,0:0:0:0:
64,192,433773,1,0,0:0:0:0:
192,192,433825,1,0,0:0:0:0:
320,192,433878,1,0,0:0:0:0:
192,192,433930,1,0,0:0:0:0:
64,192,433982,1,0,0:0:0:0:
448,192,433982,1,0,0:0:0:0:
192,192,434034,1,0,0:0:0:0:
320,192,434086,1,0,0:0:0:0:
448,192,434139,1,0,0:0:0:0:
320,192,434191,1,0,0:0:0:0:
192,192,434243,1,0,0:0:0:0:
64,192,434295,1,0,0:0:0:0:
192,192,434348,1,0,0:0:0:0:
320,192,434400,1,0,0:0:0:0:
448,192,434400,1,0,0:0:0:0:
64,192,434469,1,0,0:0:0:0:
192,192,434469,1,0,0:0:0:0:
320,192,434539,1,0,0:0:0:0:
448,192,434539,1,0,0:0:0:0:
64,192,434609,1,0,0:0:0:0:
192,192,434609,1,0,0:0:0:0:
320,192,434678,1,0,0:0:0:0:
448,192,434678,1,0,0:0:0:0:
64,192,434748,1,0,0:0:0:0:
192,192,434748,1,0,0:0:0:0:
320,192,434818,1,0,0:0:0:0:
448,192,434818,1,0,0:0:0:0:
64,192,434890,1,0,0:0:0:0:
192,192,434890,1,0,0:0:0:0:
320,192,434963,1,0,0:0:0:0:
448,192,434963,1,0,0:0:0:0:
64,192,435035,1,0,0:0:0:0:
192,192,435035,1,0,0:0:0:0:
192,192,435254,1,0,0:0:0:0:
320,192,435254,1,0,0:0:0:0:
448,192,435254,1,0,0:0:0:0:
192,192,435356,1,0,0:0:0:0:
320,192,435356,1,0,0:0:0:0:
448,192,435356,1,0,0:0:0:0:
192,192,435458,1,0,0:0:0:0:
320,192,435458,1,0,0:0:0:0:
448,192,435458,1,0,0:0:0:0:
320,192,435560,1,0,0:0:0:0:
64,192,435663,1,0,0:0:0:0:
192,192,435663,1,0,0:0:0:0:
448,192,435663,1,0,0:0:0:0:
320,192,435714,1,0,0:0:0:0:
192,192,435765,1,0,0:0:0:0:
448,192,435816,1,0,0:0:0:0:
64,192,435867,1,0,0:0:0:0:
192,192,435918,1,0,0:0:0:0:
320,192,435970,1,0,0:0:0:0:
192,192,436021,1,0,0:0:0:0:
64,192,436072,1,0,0:0:0:0:
448,192,436072,1,0,0:0:0:0:
192,192,436123,1,0,0:0:0:0:
320,192,436174,1,0,0:0:0:0:
448,192,436225,1,0,0:0:0:0:
320,192,436277,1,0,0:0:0:0:
192,192,436328,1,0,0:0:0:0:
64,192,436379,1,0,0:0:0:0:
192,192,436481,1,0,0:0:0:0:
320,192,436481,1,0,0:0:0:0:
448,192,436481,1,0,0:0:0:0:
320,192,436583,1,0,0:0:0:0:
448,192,436583,1,0,0:0:0:0:
320,192,436686,1,0,0:0:0:0:
448,192,436686,1,0,0:0:0:0:
320,192,436788,1,0,0:0:0:0:
448,192,436788,1,0,0:0:0:0:
64,192,436891,1,0,0:0:0:0:
192,192,436891,1,0,0:0:0:0:
320,192,436891,128,0,437215:0:0:0:0:
448,192,436891,128,0,437215:0:0:0:0:
64,192,436999,1,0,0:0:0:0:
192,192,436999,1,0,0:0:0:0:
64,192,437107,1,0,0:0:0:0:
192,192,437215,1,0,0:0:0:0:
320,192,437324,1,0,0:0:0:0:
448,192,437324,1,0,0:0:0:0:
192,192,437359,1,0,0:0:0:0:
64,192,437394,1,0,0:0:0:0:
448,192,437429,1,0,0:0:0:0:
320,192,437481,1,0,0:0:0:0:
64,192,437534,1,0,0:0:0:0:
192,192,437586,1,0,0:0:0:0:
320,192,437639,1,0,0:0:0:0:
448,192,437692,1,0,0:0:0:0:
64,192,437744,1,0,0:0:0:0:
192,192,437744,1,0,0:0:0:0:
320,192,437797,1,0,0:0:0:0:
192,192,437849,1,0,0:0:0:0:
64,192,437902,1,0,0:0:0:0:
448,192,437955,1,0,0:0:0:0:
192,192,438007,1,0,0:0:0:0:
320,192,438060,1,0,0:0:0:0:
192,192,438112,1,0,0:0:0:0:
64,192,438165,1,0,0:0:0:0:
448,192,438165,1,0,0:0:0:0:
320,192,438217,1,0,0:0:0:0:
192,192,438270,1,0,0:0:0:0:
320,192,438323,1,0,0:0:0:0:
448,192,438375,1,0,0:0:0:0:
64,192,438428,1,0,0:0:0:0:
192,192,438480,1,0,0:0:0:0:
320,192,438533,1,0,0:0:0:0:
64,192,438586,1,0,0:0:0:0:
448,192,438586,1,0,0:0:0:0:
192,192,438621,1,0,0:0:0:0:
320,192,438656,1,0,0:0:0:0:
448,192,438726,1,0,0:0:0:0:
320,192,438796,1,0,0:0:0:0:
192,192,438848,1,0,0:0:0:0:
64,192,438901,1,0,0:0:0:0:
192,192,438954,1,0,0:0:0:0:
320,192,439006,1,0,0:0:0:0:
448,192,439006,1,0,0:0:0:0:
64,192,439059,1,0,0:0:0:0:
192,192,439111,1,0,0:0:0:0:
320,192,439164,1,0,0:0:0:0:
448,192,439217,1,0,0:0:0:0:
320,192,439269,1,0,0:0:0:0:
192,192,439322,1,0,0:0:0:0:
320,192,439374,1,0,0:0:0:0:
64,192,439427,1,0,0:0:0:0:
448,192,439427,1,0,0:0:0:0:
64,192,439532,1,0,0:0:0:0:
192,192,439532,1,0,0:0:0:0:
320,192,439637,1,0,0:0:0:0:
448,192,439637,1,0,0:0:0:0:
320,192,439742,1,0,0:0:0:0:
448,192,439742,1,0,0:0:0:0:
64,192,439848,1,0,0:0:0:0:
192,192,439848,1,0,0:0:0:0:
448,192,439848,1,0,0:0:0:0:
320,192,439951,1,0,0:0:0:0:
192,192,439985,1,0,0:0:0:0:
64,192,440019,1,0,0:0:0:0:
448,192,440054,1,0,0:0:0:0:
64,192,440157,1,0,0:0:0:0:
192,192,440208,1,0,0:0:0:0:
320,192,440260,1,0,0:0:0:0:
448,192,440260,1,0,0:0:0:0:
64,192,440294,1,0,0:0:0:0:
192,192,440328,1,0,0:0:0:0:
320,192,440363,1,0,0:0:0:0:
448,192,440397,1,0,0:0:0:0:
320,192,440466,1,0,0:0:0:0:
192,192,440500,1,0,0:0:0:0:
64,192,440534,1,0,0:0:0:0:
192,192,440603,1,0,0:0:0:0:
320,192,440637,1,0,0:0:0:0:
448,192,440672,1,0,0:0:0:0:
64,192,440724,1,0,0:0:0:0:
320,192,440776,1,0,0:0:0:0:
64,192,440828,1,0,0:0:0:0:
192,192,440880,1,0,0:0:0:0:
320,192,440933,1,0,0:0:0:0:
448,192,440985,1,0,0:0:0:0:
320,192,441037,1,0,0:0:0:0:
64,192,441089,1,0,0:0:0:0:
192,192,441089,1,0,0:0:0:0:
448,192,441115,1,0,0:0:0:0:
448,192,441194,1,0,0:0:0:0:
320,192,441246,1,0,0:0:0:0:
64,192,441298,1,0,0:0:0:0:
192,192,441350,1,0,0:0:0:0:
64,192,441403,1,0,0:0:0:0:
192,192,441455,1,0,0:0:0:0:
320,192,441508,1,0,0:0:0:0:
448,192,441508,1,0,0:0:0:0:
320,192,441609,1,0,0:0:0:0:
448,192,441609,1,0,0:0:0:0:
64,192,441711,1,0,0:0:0:0:
192,192,441711,1,0,0:0:0:0:
448,192,441745,1,0,0:0:0:0:
320,192,441778,1,0,0:0:0:0:
64,192,441812,1,0,0:0:0:0:
192,192,441812,1,0,0:0:0:0:
192,192,441914,1,0,0:0:0:0:
320,192,441914,1,0,0:0:0:0:
448,192,441914,128,0,442125:0:0:0:0:
320,192,442019,1,0,0:0:0:0:
64,192,442125,1,0,0:0:0:0:
192,192,442125,1,0,0:0:0:0:
192,192,442231,1,0,0:0:0:0:
64,192,442337,1,0,0:0:0:0:
448,192,442337,1,0,0:0:0:0:
320,192,442390,1,0,0:0:0:0:
192,192,442443,1,0,0:0:0:0:
320,192,442496,1,0,0:0:0:0:
64,192,442549,1,0,0:0:0:0:
448,192,442549,1,0,0:0:0:0:
320,192,442602,1,0,0:0:0:0:
64,192,442655,1,0,0:0:0:0:
192,192,442655,1,0,0:0:0:0:
320,192,442761,1,0,0:0:0:0:
448,192,442761,1,0,0:0:0:0:
64,192,442796,1,0,0:0:0:0:
192,192,442831,1,0,0:0:0:0:
320,192,442867,1,0,0:0:0:0:
448,192,442867,1,0,0:0:0:0:
320,192,442973,1,0,0:0:0:0:
448,192,442973,1,0,0:0:0:0:
64,192,443185,1,0,0:0:0:0:
192,192,443185,1,0,0:0:0:0:
448,192,443185,1,0,0:0:0:0:
192,192,443275,1,0,0:0:0:0:
64,192,443275,1,0,0:0:0:0:
64,192,443364,1,0,0:0:0:0:
192,192,443364,1,0,0:0:0:0:
64,192,443457,1,0,0:0:0:0:
192,192,443457,1,0,0:0:0:0:
320,192,443594,1,0,0:0:0:0:
448,192,443594,1,0,0:0:0:0:
320,192,443700,1,0,0:0:0:0:
448,192,443700,1,0,0:0:0:0:
64,192,443807,1,0,0:0:0:0:
192,192,443807,128,0,444020:0:0:0:0:
320,192,443807,1,0,0:0:0:0:
448,192,443807,1,0,0:0:0:0:
64,192,443913,1,0,0:0:0:0:
320,192,444020,1,0,0:0:0:0:
448,192,444020,1,0,0:0:0:0:
320,192,444127,1,0,0:0:0:0:
448,192,444127,1,0,0:0:0:0:
64,192,444233,128,0,444448:0:0:0:0:
192,192,444233,1,0,0:0:0:0:
320,192,444233,1,0,0:0:0:0:
448,192,444233,1,0,0:0:0:0:
192,192,444340,1,0,0:0:0:0:
320,192,444448,1,0,0:0:0:0:
448,192,444448,1,0,0:0:0:0:
320,192,444551,1,0,0:0:0:0:
448,192,444551,1,0,0:0:0:0:
64,192,444655,1,0,0:0:0:0:
192,192,444655,128,0,444862:0:0:0:0:
320,192,444655,1,0,0:0:0:0:
448,192,444655,1,0,0:0:0:0:
64,192,444759,1,0,0:0:0:0:
320,192,444862,1,0,0:0:0:0:
448,192,444862,1,0,0:0:0:0:
64,192,444966,1,0,0:0:0:0:
320,192,444966,1,0,0:0:0:0:
448,192,444966,1,0,0:0:0:0:
64,192,445070,1,0,0:0:0:0:
192,192,445070,1,0,0:0:0:0:
320,192,445174,1,0,0:0:0:0:
448,192,445174,1,0,0:0:0:0:
64,192,445277,1,0,0:0:0:0:
192,192,445277,1,0,0:0:0:0:
320,192,445277,1,0,0:0:0:0:
448,192,445277,1,0,0:0:0:0:
64,192,445384,1,0,0:0:0:0:
192,192,445384,1,0,0:0:0:0:
320,192,445384,1,0,0:0:0:0:
64,192,445491,1,0,0:0:0:0:
192,192,445491,1,0,0:0:0:0:
448,192,445545,1,0,0:0:0:0:
320,192,445599,1,0,0:0:0:0:
64,192,445706,1,0,0:0:0:0:
192,192,445706,1,0,0:0:0:0:
448,192,445706,1,0,0:0:0:0:
192,192,445814,1,0,0:0:0:0:
320,192,445814,1,0,0:0:0:0:
448,192,445814,1,0,0:0:0:0:
64,192,445921,1,0,0:0:0:0:
320,192,445921,1,0,0:0:0:0:
192,192,446029,1,0,0:0:0:0:
448,192,446029,1,0,0:0:0:0:
64,192,446137,1,0,0:0:0:0:
192,192,446137,1,0,0:0:0:0:
320,192,446137,1,0,0:0:0:0:
64,192,446241,1,0,0:0:0:0:
192,192,446241,1,0,0:0:0:0:
448,192,446241,1,0,0:0:0:0:
320,192,446345,1,0,0:0:0:0:
448,192,446345,1,0,0:0:0:0:
64,192,446450,1,0,0:0:0:0:
192,192,446450,1,0,0:0:0:0:
64,192,446554,1,0,0:0:0:0:
192,192,446554,1,0,0:0:0:0:
320,192,446554,1,0,0:0:0:0:
448,192,446554,1,0,0:0:0:0:
448,192,446659,1,0,0:0:0:0:
64,192,446763,1,0,0:0:0:0:
320,192,446763,1,0,0:0:0:0:
192,192,446868,1,0,0:0:0:0:
64,192,446972,1,0,0:0:0:0:
192,192,446972,1,0,0:0:0:0:
320,192,446972,1,0,0:0:0:0:
448,192,446972,1,0,0:0:0:0:
64,192,447076,1,0,0:0:0:0:
320,192,447076,1,0,0:0:0:0:
448,192,447076,1,0,0:0:0:0:
64,192,447181,1,0,0:0:0:0:
320,192,447181,1,0,0:0:0:0:
448,192,447181,1,0,0:0:0:0:
192,192,447285,1,0,0:0:0:0:
64,192,447390,1,0,0:0:0:0:
320,192,447390,1,0,0:0:0:0:
448,192,447390,1,0,0:0:0:0:
64,192,447496,1,0,0:0:0:0:
448,192,447496,1,0,0:0:0:0:
64,192,447603,1,0,0:0:0:0:
448,192,447603,1,0,0:0:0:0:
320,192,447709,1,0,0:0:0:0:
192,192,447816,1,0,0:0:0:0:
448,192,447816,1,0,0:0:0:0:
192,192,447923,1,0,0:0:0:0:
448,192,447923,1,0,0:0:0:0:
192,192,448029,1,0,0:0:0:0:
448,192,448029,1,0,0:0:0:0:
320,192,448136,1,0,0:0:0:0:
64,192,448243,1,0,0:0:0:0:
192,192,448243,1,0,0:0:0:0:
448,192,448243,1,0,0:0:0:0:
64,192,448350,1,0,0:0:0:0:
192,192,448350,1,0,0:0:0:0:
320,192,448457,1,0,0:0:0:0:
448,192,448457,1,0,0:0:0:0:
320,192,448565,1,0,0:0:0:0:
448,192,448565,1,0,0:0:0:0:
64,192,448672,1,0,0:0:0:0:
192,192,448672,1,0,0:0:0:0:
320,192,448672,1,0,0:0:0:0:
192,192,448780,1,0,0:0:0:0:
320,192,448815,1,0,0:0:0:0:
448,192,448851,1,0,0:0:0:0:
64,192,448887,1,0,0:0:0:0:
192,192,448923,1,0,0:0:0:0:
320,192,448959,1,0,0:0:0:0:
448,192,448995,1,0,0:0:0:0:
64,192,449103,1,0,0:0:0:0:
192,192,449103,1,0,0:0:0:0:
320,192,449103,1,0,0:0:0:0:
192,192,449173,1,0,0:0:0:0:
448,192,449208,1,0,0:0:0:0:
320,192,449261,1,0,0:0:0:0:
64,192,449314,1,0,0:0:0:0:
192,192,449314,1,0,0:0:0:0:
448,192,449420,1,0,0:0:0:0:
64,192,449456,1,0,0:0:0:0:
192,192,449491,1,0,0:0:0:0:
448,192,449526,1,0,0:0:0:0:
320,192,449632,1,0,0:0:0:0:
192,192,449667,1,0,0:0:0:0:
64,192,449703,1,0,0:0:0:0:
320,192,449738,1,0,0:0:0:0:
192,192,449844,1,0,0:0:0:0:
448,192,449844,1,0,0:0:0:0:
64,192,449950,1,0,0:0:0:0:
192,192,449950,1,0,0:0:0:0:
320,192,450003,1,0,0:0:0:0:
448,192,450029,1,0,0:0:0:0:
64,192,450056,1,0,0:0:0:0:
320,192,450109,1,0,0:0:0:0:
192,192,450135,1,0,0:0:0:0:
64,192,450162,1,0,0:0:0:0:
448,192,450215,1,0,0:0:0:0:
192,192,450268,1,0,0:0:0:0:
320,192,450268,1,0,0:0:0:0:
64,192,450374,1,0,0:0:0:0:
320,192,450374,1,0,0:0:0:0:
448,192,450374,1,0,0:0:0:0:
64,192,450584,1,0,0:0:0:0:
448,192,450584,1,0,0:0:0:0:
192,192,450619,1,0,0:0:0:0:
320,192,450619,1,0,0:0:0:0:
192,192,450794,1,0,0:0:0:0:
320,192,450794,1,0,0:0:0:0:
64,192,450829,1,0,0:0:0:0:
448,192,450829,1,0,0:0:0:0:
64,192,450934,1,0,0:0:0:0:
448,192,450934,1,0,0:0:0:0:
64,192,451040,1,0,0:0:0:0:
448,192,451040,1,0,0:0:0:0:
64,192,451145,1,0,0:0:0:0:
448,192,451145,1,0,0:0:0:0:
192,192,451215,1,0,0:0:0:0:
320,192,451250,1,0,0:0:0:0:
448,192,451285,1,0,0:0:0:0:
64,192,451320,1,0,0:0:0:0:
192,192,451355,1,0,0:0:0:0:
320,192,451390,1,0,0:0:0:0:
448,192,451425,1,0,0:0:0:0:
64,192,451636,1,0,0:0:0:0:
192,192,451636,1,0,0:0:0:0:
64,192,451709,1,0,0:0:0:0:
192,192,451709,1,0,0:0:0:0:
320,192,451782,1,0,0:0:0:0:
448,192,451782,1,0,0:0:0:0:
320,192,451855,1,0,0:0:0:0:
448,192,451855,1,0,0:0:0:0:
64,192,451928,1,0,0:0:0:0:
192,192,451928,1,0,0:0:0:0:
64,192,452075,1,0,0:0:0:0:
192,192,452075,1,0,0:0:0:0:
320,192,452127,1,0,0:0:0:0:
448,192,452127,1,0,0:0:0:0:
320,192,452233,1,0,0:0:0:0:
448,192,452233,1,0,0:0:0:0:
320,192,452339,1,0,0:0:0:0:
448,192,452339,1,0,0:0:0:0:
192,192,452419,1,0,0:0:0:0:
64,192,452498,1,0,0:0:0:0:
192,192,452525,1,0,0:0:0:0:
320,192,452551,1,0,0:0:0:0:
448,192,452578,1,0,0:0:0:0:
320,192,452657,1,0,0:0:0:0:
192,192,452710,1,0,0:0:0:0:
64,192,452763,1,0,0:0:0:0:
192,192,452816,1,0,0:0:0:0:
320,192,452869,1,0,0:0:0:0:
448,192,452922,1,0,0:0:0:0:
192,192,452957,1,0,0:0:0:0:
64,192,452992,1,0,0:0:0:0:
448,192,453028,1,0,0:0:0:0:
320,192,453063,1,0,0:0:0:0:
192,192,453098,1,0,0:0:0:0:
448,192,453169,1,0,0:0:0:0:
320,192,453204,1,0,0:0:0:0:
192,192,453240,1,0,0:0:0:0:
64,192,453275,1,0,0:0:0:0:
320,192,453345,1,0,0:0:0:0:
448,192,453345,1,0,0:0:0:0:
64,192,453451,1,0,0:0:0:0:
320,192,453451,1,0,0:0:0:0:
192,192,453557,1,0,0:0:0:0:
448,192,453557,1,0,0:0:0:0:
320,192,453663,1,0,0:0:0:0:
64,192,453769,1,0,0:0:0:0:
192,192,453769,1,0,0:0:0:0:
448,192,453803,1,0,0:0:0:0:
320,192,453838,1,0,0:0:0:0:
64,192,453872,1,0,0:0:0:0:
192,192,453872,1,0,0:0:0:0:
320,192,453976,1,0,0:0:0:0:
448,192,453976,1,0,0:0:0:0:
64,192,454011,1,0,0:0:0:0:
192,192,454045,1,0,0:0:0:0:
320,192,454080,1,0,0:0:0:0:
448,192,454114,1,0,0:0:0:0:
64,192,454184,1,0,0:0:0:0:
192,192,454184,1,0,0:0:0:0:
320,192,454184,1,0,0:0:0:0:
192,192,454290,1,0,0:0:0:0:
64,192,454397,1,0,0:0:0:0:
320,192,454397,1,0,0:0:0:0:
192,192,454450,1,0,0:0:0:0:
448,192,454503,1,0,0:0:0:0:
64,192,454610,1,0,0:0:0:0:
192,192,454610,1,0,0:0:0:0:
320,192,454610,1,0,0:0:0:0:
64,192,454717,1,0,0:0:0:0:
192,192,454717,1,0,0:0:0:0:
320,192,454717,1,0,0:0:0:0:
320,192,454823,1,0,0:0:0:0:
64,192,454930,1,0,0:0:0:0:
448,192,454930,1,0,0:0:0:0:
64,192,455038,1,0,0:0:0:0:
192,192,455038,1,0,0:0:0:0:
320,192,455038,1,0,0:0:0:0:
192,192,455105,1,0,0:0:0:0:
448,192,455173,1,0,0:0:0:0:
64,192,455241,1,0,0:0:0:0:
320,192,455241,1,0,0:0:0:0:
320,192,455342,1,0,0:0:0:0:
192,192,455376,1,0,0:0:0:0:
64,192,455410,1,0,0:0:0:0:
320,192,455444,1,0,0:0:0:0:
448,192,455444,1,0,0:0:0:0:
192,192,455551,1,0,0:0:0:0:
64,192,455658,1,0,0:0:0:0:
320,192,455658,1,0,0:0:0:0:
448,192,455658,1,0,0:0:0:0:
320,192,455766,1,0,0:0:0:0:
64,192,455874,1,0,0:0:0:0:
192,192,455874,1,0,0:0:0:0:
448,192,455874,1,0,0:0:0:0:
192,192,455944,1,0,0:0:0:0:
64,192,455979,1,0,0:0:0:0:
448,192,456015,1,0,0:0:0:0:
192,192,456085,1,0,0:0:0:0:
320,192,456121,1,0,0:0:0:0:
448,192,456156,1,0,0:0:0:0:
64,192,456191,1,0,0:0:0:0:
320,192,456244,1,0,0:0:0:0:
64,192,456297,1,0,0:0:0:0:
192,192,456297,1,0,0:0:0:0:
192,192,456403,1,0,0:0:0:0:
448,192,456403,1,0,0:0:0:0:
64,192,456509,1,0,0:0:0:0:
320,192,456509,1,0,0:0:0:0:
448,192,456509,1,0,0:0:0:0:
192,192,456615,1,0,0:0:0:0:
320,192,456615,1,0,0:0:0:0:
64,192,456721,1,0,0:0:0:0:
192,192,456721,1,0,0:0:0:0:
448,192,456721,1,0,0:0:0:0:
64,192,456823,1,0,0:0:0:0:
320,192,456823,1,0,0:0:0:0:
192,192,456925,1,0,0:0:0:0:
320,192,456925,1,0,0:0:0:0:
64,192,457027,1,0,0:0:0:0:
192,192,457027,1,0,0:0:0:0:
320,192,457130,1,0,0:0:0:0:
448,192,457130,1,0,0:0:0:0:
64,192,457166,1,0,0:0:0:0:
192,192,457202,1,0,0:0:0:0:
320,192,457238,1,0,0:0:0:0:
448,192,457274,1,0,0:0:0:0:
64,192,457310,1,0,0:0:0:0:
192,192,457346,1,0,0:0:0:0:
320,192,457382,1,0,0:0:0:0:
448,192,457418,1,0,0:0:0:0:
64,192,457454,1,0,0:0:0:0:
192,192,457490,1,0,0:0:0:0:
320,192,457526,1,0,0:0:0:0:
448,192,457563,1,0,0:0:0:0:
64,192,457597,1,0,0:0:0:0:
192,192,457632,1,0,0:0:0:0:
320,192,457666,1,0,0:0:0:0:
448,192,457701,1,0,0:0:0:0:
64,192,457735,1,0,0:0:0:0:
192,192,457770,1,0,0:0:0:0:
320,192,457805,1,0,0:0:0:0:
448,192,457839,1,0,0:0:0:0:
64,192,457874,1,0,0:0:0:0:
192,192,457908,1,0,0:0:0:0:
320,192,457943,1,0,0:0:0:0:
448,192,457977,1,0,0:0:0:0:
64,192,458012,1,0,0:0:0:0:
192,192,458047,1,0,0:0:0:0:
320,192,458081,1,0,0:0:0:0:
448,192,458116,1,0,0:0:0:0:
192,192,458150,1,0,0:0:0:0:
64,192,458185,1,0,0:0:0:0:
448,192,458237,1,0,0:0:0:0:
320,192,458289,1,0,0:0:0:0:
192,192,458340,1,0,0:0:0:0:
64,192,458393,1,0,0:0:0:0:
448,192,458393,1,0,0:0:0:0:
192,192,458496,1,0,0:0:0:0:
320,192,458496,1,0,0:0:0:0:
64,192,458599,1,0,0:0:0:0:
448,192,458599,1,0,0:0:0:0:
192,192,458650,1,0,0:0:0:0:
192,192,458753,1,0,0:0:0:0:
320,192,458805,1,0,0:0:0:0:
448,192,458805,1,0,0:0:0:0:
320,192,458908,1,0,0:0:0:0:
448,192,458908,1,0,0:0:0:0:
320,192,459011,1,0,0:0:0:0:
448,192,459011,1,0,0:0:0:0:
320,192,459114,1,0,0:0:0:0:
448,192,459114,1,0,0:0:0:0:
64,192,459217,1,0,0:0:0:0:
192,192,459217,1,0,0:0:0:0:
192,192,459325,1,0,0:0:0:0:
448,192,459325,1,0,0:0:0:0:
64,192,459434,1,0,0:0:0:0:
320,192,459434,1,0,0:0:0:0:
192,192,459543,1,0,0:0:0:0:
320,192,459652,1,0,0:0:0:0:
448,192,459652,1,0,0:0:0:0:
64,192,459761,1,0,0:0:0:0:
192,192,459761,1,0,0:0:0:0:
448,192,459870,1,0,0:0:0:0:
64,192,459907,1,0,0:0:0:0:
192,192,459943,1,0,0:0:0:0:
320,192,459979,1,0,0:0:0:0:
448,192,460016,1,0,0:0:0:0:
64,192,460052,1,0,0:0:0:0:
320,192,460089,1,0,0:0:0:0:
192,192,460124,1,0,0:0:0:0:
448,192,460159,1,0,0:0:0:0:
64,192,460194,1,0,0:0:0:0:
192,192,460229,1,0,0:0:0:0:
448,192,460264,1,0,0:0:0:0:
64,192,460299,1,0,0:0:0:0:
320,192,460299,1,0,0:0:0:0:
64,192,460509,1,0,0:0:0:0:
192,192,460509,1,0,0:0:0:0:
320,192,460509,128,0,460825:0:0:0:0:
448,192,460509,128,0,460825:0:0:0:0:
64,192,460614,1,0,0:0:0:0:
192,192,460614,1,0,0:0:0:0:
64,192,460720,1,0,0:0:0:0:
192,192,460720,1,0,0:0:0:0:
64,192,460825,1,0,0:0:0:0:
192,192,460825,1,0,0:0:0:0:
320,192,460930,1,0,0:0:0:0:
448,192,460930,1,0,0:0:0:0:
192,192,461000,1,0,0:0:0:0:
320,192,461035,1,0,0:0:0:0:
448,192,461070,1,0,0:0:0:0:
64,192,461140,1,0,0:0:0:0:
320,192,461193,1,0,0:0:0:0:
192,192,461245,1,0,0:0:0:0:
320,192,461298,1,0,0:0:0:0:
64,192,461351,1,0,0:0:0:0:
448,192,461351,1,0,0:0:0:0:
192,192,461403,1,0,0:0:0:0:
320,192,461456,1,0,0:0:0:0:
192,192,461508,1,0,0:0:0:0:
64,192,461561,1,0,0:0:0:0:
448,192,461596,1,0,0:0:0:0:
320,192,461631,1,0,0:0:0:0:
192,192,461666,1,0,0:0:0:0:
448,192,461701,1,0,0:0:0:0:
64,192,461771,1,0,0:0:0:0:
192,192,461771,1,0,0:0:0:0:
448,192,461806,1,0,0:0:0:0:
448,192,461911,1,0,0:0:0:0:
320,192,461946,1,0,0:0:0:0:
64,192,461982,1,0,0:0:0:0:
192,192,461982,1,0,0:0:0:0:
64,192,462192,1,0,0:0:0:0:
448,192,462192,1,0,0:0:0:0:
192,192,462244,1,0,0:0:0:0:
320,192,462297,1,0,0:0:0:0:
192,192,462350,1,0,0:0:0:0:
64,192,462402,1,0,0:0:0:0:
448,192,462402,1,0,0:0:0:0:
320,192,462507,1,0,0:0:0:0:
448,192,462507,1,0,0:0:0:0:
64,192,462613,1,0,0:0:0:0:
192,192,462613,1,0,0:0:0:0:
320,192,462613,1,0,0:0:0:0:
192,192,462718,1,0,0:0:0:0:
448,192,462718,1,0,0:0:0:0:
64,192,462770,1,0,0:0:0:0:
320,192,462823,1,0,0:0:0:0:
192,192,462928,1,0,0:0:0:0:
448,192,462928,1,0,0:0:0:0:
192,192,463033,1,0,0:0:0:0:
448,192,463033,1,0,0:0:0:0:
192,192,463138,1,0,0:0:0:0:
448,192,463138,1,0,0:0:0:0:
64,192,463244,128,0,463454:0:0:0:0:
320,192,463244,1,0,0:0:0:0:
192,192,463454,1,0,0:0:0:0:
320,192,463454,1,0,0:0:0:0:
448,192,463454,128,0,463559:0:0:0:0:
320,192,463559,1,0,0:0:0:0:
64,192,463664,128,0,463769:0:0:0:0:
192,192,463664,1,0,0:0:0:0:
448,192,463664,1,0,0:0:0:0:
192,192,463769,1,0,0:0:0:0:
320,192,463875,1,0,0:0:0:0:
448,192,463875,1,0,0:0:0:0:
64,192,463929,1,0,0:0:0:0:
320,192,463983,1,0,0:0:0:0:
448,192,464038,1,0,0:0:0:0:
64,192,464092,1,0,0:0:0:0:
192,192,464092,1,0,0:0:0:0:
320,192,464147,1,0,0:0:0:0:
64,192,464201,1,0,0:0:0:0:
448,192,464201,1,0,0:0:0:0:
192,192,464256,1,0,0:0:0:0:
320,192,464310,1,0,0:0:0:0:
192,192,464365,1,0,0:0:0:0:
64,192,464419,1,0,0:0:0:0:
448,192,464419,1,0,0:0:0:0:
320,192,464474,1,0,0:0:0:0:
192,192,464528,1,0,0:0:0:0:
320,192,464637,1,0,0:0:0:0:
64,192,464747,1,0,0:0:0:0:
448,192,464747,1,0,0:0:0:0:
64,192,464852,1,0,0:0:0:0:
448,192,464852,1,0,0:0:0:0:
64,192,464957,1,0,0:0:0:0:
448,192,464957,1,0,0:0:0:0:
64,192,465062,1,0,0:0:0:0:
448,192,465062,1,0,0:0:0:0:
192,192,465167,1,0,0:0:0:0:
320,192,465167,1,0,0:0:0:0:
64,192,465378,1,0,0:0:0:0:
320,192,465378,128,0,465483:0:0:0:0:
448,192,465378,1,0,0:0:0:0:
448,192,465483,1,0,0:0:0:0:
64,192,465588,1,0,0:0:0:0:
192,192,465588,1,0,0:0:0:0:
448,192,465641,1,0,0:0:0:0:
192,192,465694,1,0,0:0:0:0:
64,192,465747,1,0,0:0:0:0:
320,192,465801,1,0,0:0:0:0:
448,192,465801,1,0,0:0:0:0:
192,192,465854,1,0,0:0:0:0:
64,192,465907,1,0,0:0:0:0:
448,192,465907,1,0,0:0:0:0:
320,192,465961,1,0,0:0:0:0:
192,192,466014,1,0,0:0:0:0:
320,192,466067,1,0,0:0:0:0:
448,192,466121,1,0,0:0:0:0:
64,192,466174,1,0,0:0:0:0:
192,192,466227,1,0,0:0:0:0:
320,192,466227,1,0,0:0:0:0:
192,192,466334,1,0,0:0:0:0:
320,192,466441,1,0,0:0:0:0:
448,192,466441,1,0,0:0:0:0:
64,192,466493,1,0,0:0:0:0:
320,192,466546,1,0,0:0:0:0:
448,192,466598,1,0,0:0:0:0:
64,192,466651,1,0,0:0:0:0:
192,192,466651,1,0,0:0:0:0:
320,192,466703,1,0,0:0:0:0:
64,192,466756,1,0,0:0:0:0:
448,192,466756,1,0,0:0:0:0:
192,192,466809,1,0,0:0:0:0:
320,192,466861,1,0,0:0:0:0:
192,192,466914,1,0,0:0:0:0:
64,192,466966,1,0,0:0:0:0:
448,192,467019,1,0,0:0:0:0:
192,192,467072,1,0,0:0:0:0:
320,192,467072,1,0,0:0:0:0:
320,192,467177,1,0,0:0:0:0:
64,192,467283,1,0,0:0:0:0:
192,192,467283,1,0,0:0:0:0:
448,192,467336,1,0,0:0:0:0:
192,192,467390,1,0,0:0:0:0:
64,192,467444,1,0,0:0:0:0:
320,192,467497,1,0,0:0:0:0:
448,192,467497,1,0,0:0:0:0:
192,192,467551,1,0,0:0:0:0:
64,192,467605,1,0,0:0:0:0:
448,192,467605,1,0,0:0:0:0:
320,192,467659,1,0,0:0:0:0:
192,192,467712,1,0,0:0:0:0:
320,192,467766,1,0,0:0:0:0:
448,192,467820,1,0,0:0:0:0:
64,192,467873,1,0,0:0:0:0:
192,192,467927,1,0,0:0:0:0:
320,192,467927,1,0,0:0:0:0:
192,192,468035,1,0,0:0:0:0:
64,192,468142,1,0,0:0:0:0:
448,192,468142,1,0,0:0:0:0:
64,192,468245,1,0,0:0:0:0:
448,192,468245,1,0,0:0:0:0:
64,192,468349,1,0,0:0:0:0:
448,192,468349,1,0,0:0:0:0:
64,192,468453,1,0,0:0:0:0:
448,192,468453,1,0,0:0:0:0:
192,192,468556,1,0,0:0:0:0:
320,192,468556,1,0,0:0:0:0:
192,192,468660,1,0,0:0:0:0:
448,192,468660,1,0,0:0:0:0:
64,192,468764,1,0,0:0:0:0:
320,192,468764,1,0,0:0:0:0:
320,192,468868,1,0,0:0:0:0:
64,192,468972,1,0,0:0:0:0:
320,192,469007,1,0,0:0:0:0:
192,192,469042,1,0,0:0:0:0:
64,192,469077,1,0,0:0:0:0:
448,192,469113,1,0,0:0:0:0:
192,192,469183,1,0,0:0:0:0:
320,192,469219,1,0,0:0:0:0:
448,192,469254,1,0,0:0:0:0:
64,192,469289,1,0,0:0:0:0:
192,192,469289,1,0,0:0:0:0:
64,192,469395,1,0,0:0:0:0:
320,192,469395,1,0,0:0:0:0:
448,192,469395,1,0,0:0:0:0:
192,192,469501,1,0,0:0:0:0:
320,192,469501,1,0,0:0:0:0:
192,192,469607,1,0,0:0:0:0:
448,192,469607,1,0,0:0:0:0:
64,192,469713,1,0,0:0:0:0:
320,192,469713,1,0,0:0:0:0:
64,192,469819,1,0,0:0:0:0:
192,192,469819,1,0,0:0:0:0:
448,192,469819,1,0,0:0:0:0:
192,192,469923,1,0,0:0:0:0:
320,192,469923,1,0,0:0:0:0:
64,192,470027,1,0,0:0:0:0:
320,192,470027,1,0,0:0:0:0:
448,192,470027,1,0,0:0:0:0:
192,192,470132,1,0,0:0:0:0:
192,192,470236,1,0,0:0:0:0:
320,192,470236,1,0,0:0:0:0:
448,192,470236,1,0,0:0:0:0:
320,192,470341,1,0,0:0:0:0:
64,192,470445,1,0,0:0:0:0:
192,192,470445,1,0,0:0:0:0:
448,192,470445,1,0,0:0:0:0:
64,192,470550,1,0,0:0:0:0:
192,192,470550,1,0,0:0:0:0:
320,192,470550,1,0,0:0:0:0:
64,192,470655,128,0,471790:0:0:0:0:
192,192,470655,1,0,0:0:0:0:
448,192,470655,1,0,0:0:0:0:
320,192,470736,1,0,0:0:0:0:
448,192,470817,1,0,0:0:0:0:
320,192,470898,1,0,0:0:0:0:
448,192,470980,1,0,0:0:0:0:
192,192,471061,1,0,0:0:0:0:
320,192,471061,1,0,0:0:0:0:
448,192,471142,1,0,0:0:0:0:
320,192,471224,1,0,0:0:0:0:
448,192,471305,1,0,0:0:0:0:
320,192,471386,1,0,0:0:0:0:
192,192,471468,1,0,0:0:0:0:
448,192,471468,1,0,0:0:0:0:
320,192,471553,1,0,0:0:0:0:
448,192,471639,1,0,0:0:0:0:
192,192,471639,1,0,0:0:0:0:
320,192,471725,1,0,0:0:0:0:
448,192,471811,1,0,0:0:0:0:
64,192,471897,1,0,0:0:0:0:
192,192,471897,1,0,0:0:0:0:
320,192,471897,1,0,0:0:0:0:
192,192,472008,1,0,0:0:0:0:
320,192,472119,1,0,0:0:0:0:
448,192,472119,1,0,0:0:0:0:
64,192,472175,1,0,0:0:0:0:
320,192,472231,1,0,0:0:0:0:
192,192,472286,1,0,0:0:0:0:
64,192,472343,1,0,0:0:0:0:
320,192,472343,128,0,472624:0:0:0:0:
448,192,472343,128,0,472649:0:0:0:0:
64,192,472445,1,0,0:0:0:0:
64,192,472547,1,0,0:0:0:0:
192,192,472598,1,0,0:0:0:0:
192,192,472701,1,0,0:0:0:0:
320,192,472752,1,0,0:0:0:0:
448,192,472752,1,0,0:0:0:0:
320,192,472857,1,0,0:0:0:0:
448,192,472857,1,0,0:0:0:0:
64,192,472963,1,0,0:0:0:0:
192,192,472963,1,0,0:0:0:0:
192,192,473069,1,0,0:0:0:0:
320,192,473176,1,0,0:0:0:0:
448,192,473176,1,0,0:0:0:0:
64,192,473281,1,0,0:0:0:0:
448,192,473281,1,0,0:0:0:0:
192,192,473333,1,0,0:0:0:0:
64,192,473386,1,0,0:0:0:0:
192,192,473438,1,0,0:0:0:0:
320,192,473491,1,0,0:0:0:0:
448,192,473544,1,0,0:0:0:0:
64,192,473596,1,0,0:0:0:0:
320,192,473596,1,0,0:0:0:0:
448,192,473649,1,0,0:0:0:0:
192,192,473701,1,0,0:0:0:0:
320,192,473754,1,0,0:0:0:0:
64,192,473807,1,0,0:0:0:0:
192,192,473859,1,0,0:0:0:0:
64,192,473912,1,0,0:0:0:0:
192,192,473964,1,0,0:0:0:0:
320,192,474017,1,0,0:0:0:0:
448,192,474017,1,0,0:0:0:0:
320,192,474122,1,0,0:0:0:0:
448,192,474122,1,0,0:0:0:0:
320,192,474227,1,0,0:0:0:0:
448,192,474227,1,0,0:0:0:0:
192,192,474332,1,0,0:0:0:0:
320,192,474332,1,0,0:0:0:0:
64,192,474438,1,0,0:0:0:0:
192,192,474438,1,0,0:0:0:0:
448,192,474438,1,0,0:0:0:0:
64,192,474543,1,0,0:0:0:0:
192,192,474543,1,0,0:0:0:0:
64,192,474648,1,0,0:0:0:0:
192,192,474648,1,0,0:0:0:0:
192,192,474753,1,0,0:0:0:0:
320,192,474753,1,0,0:0:0:0:
64,192,474859,1,0,0:0:0:0:
320,192,474859,1,0,0:0:0:0:
448,192,474859,1,0,0:0:0:0:
320,192,474962,1,0,0:0:0:0:
448,192,474962,1,0,0:0:0:0:
320,192,475065,1,0,0:0:0:0:
448,192,475065,1,0,0:0:0:0:
192,192,475168,1,0,0:0:0:0:
320,192,475168,1,0,0:0:0:0:
64,192,475271,1,0,0:0:0:0:
192,192,475271,1,0,0:0:0:0:
448,192,475271,1,0,0:0:0:0:
64,192,475374,1,0,0:0:0:0:
320,192,475374,1,0,0:0:0:0:
192,192,475477,1,0,0:0:0:0:
448,192,475477,1,0,0:0:0:0:
320,192,475580,1,0,0:0:0:0:
448,192,475580,1,0,0:0:0:0:
64,192,475683,1,0,0:0:0:0:
192,192,475683,1,0,0:0:0:0:
320,192,475683,1,0,0:0:0:0:
64,192,475789,1,0,0:0:0:0:
192,192,475789,1,0,0:0:0:0:
64,192,475896,1,0,0:0:0:0:
448,192,475896,1,0,0:0:0:0:
320,192,476002,1,0,0:0:0:0:
448,192,476002,1,0,0:0:0:0:
64,192,476109,1,0,0:0:0:0:
192,192,476109,1,0,0:0:0:0:
320,192,476109,1,0,0:0:0:0:
64,192,476216,1,0,0:0:0:0:
448,192,476216,1,0,0:0:0:0:
192,192,476322,1,0,0:0:0:0:
320,192,476322,1,0,0:0:0:0:
320,192,476429,1,0,0:0:0:0:
448,192,476429,1,0,0:0:0:0:
64,192,476536,1,0,0:0:0:0:
192,192,476536,1,0,0:0:0:0:
448,192,476536,1,0,0:0:0:0:
64,192,476641,1,0,0:0:0:0:
320,192,476641,1,0,0:0:0:0:
192,192,476746,1,0,0:0:0:0:
448,192,476746,1,0,0:0:0:0:
192,192,476851,1,0,0:0:0:0:
64,192,476956,1,0,0:0:0:0:
320,192,476956,1,0,0:0:0:0:
448,192,476956,1,0,0:0:0:0:
64,192,477061,1,0,0:0:0:0:
320,192,477061,1,0,0:0:0:0:
448,192,477061,1,0,0:0:0:0:
192,192,477167,1,0,0:0:0:0:
320,192,477167,1,0,0:0:0:0:
64,192,477377,1,0,0:0:0:0:
192,192,477377,1,0,0:0:0:0:
320,192,477377,1,0,0:0:0:0:
448,192,477377,1,0,0:0:0:0:
64,192,477482,1,0,0:0:0:0:
192,192,477482,1,0,0:0:0:0:
320,192,477482,1,0,0:0:0:0:
448,192,477482,1,0,0:0:0:0:
64,192,477587,128,0,477692:0:0:0:0:
192,192,477587,128,0,477692:0:0:0:0:
320,192,477587,128,0,477692:0:0:0:0:
448,192,477587,128,0,477692:0:0:0:0:
64,192,477798,1,0,0:0:0:0:
192,192,477798,1,0,0:0:0:0:
448,192,477798,1,0,0:0:0:0:
320,192,477850,1,0,0:0:0:0:
192,192,477903,1,0,0:0:0:0:
64,192,477955,1,0,0:0:0:0:
448,192,478008,1,0,0:0:0:0:
320,192,478060,1,0,0:0:0:0:
192,192,478113,1,0,0:0:0:0:
320,192,478166,1,0,0:0:0:0:
64,192,478219,1,0,0:0:0:0:
448,192,478219,1,0,0:0:0:0:
192,192,478271,1,0,0:0:0:0:
320,192,478323,1,0,0:0:0:0:
64,192,478375,1,0,0:0:0:0:
320,192,478427,1,0,0:0:0:0:
64,192,478480,1,0,0:0:0:0:
448,192,478532,1,0,0:0:0:0:
320,192,478584,1,0,0:0:0:0:
192,192,478636,1,0,0:0:0:0:
448,192,478671,1,0,0:0:0:0:
64,192,478706,1,0,0:0:0:0:
192,192,478741,1,0,0:0:0:0:
64,192,478811,1,0,0:0:0:0:
448,192,478846,1,0,0:0:0:0:
320,192,478898,1,0,0:0:0:0:
192,192,478951,1,0,0:0:0:0:
320,192,479004,1,0,0:0:0:0:
448,192,479056,1,0,0:0:0:0:
64,192,479091,1,0,0:0:0:0:
192,192,479126,1,0,0:0:0:0:
320,192,479161,1,0,0:0:0:0:
448,192,479196,1,0,0:0:0:0:
64,192,479231,1,0,0:0:0:0:
192,192,479267,1,0,0:0:0:0:
320,192,479302,1,0,0:0:0:0:
448,192,479337,1,0,0:0:0:0:
64,192,479372,1,0,0:0:0:0:
192,192,479407,1,0,0:0:0:0:
320,192,479442,1,0,0:0:0:0:
448,192,479477,1,0,0:0:0:0:
64,192,479512,1,0,0:0:0:0:
192,192,479547,1,0,0:0:0:0:
320,192,479582,1,0,0:0:0:0:
448,192,479617,1,0,0:0:0:0:
192,192,479687,1,0,0:0:0:0:
64,192,479740,1,0,0:0:0:0:
448,192,479792,1,0,0:0:0:0:
320,192,479845,1,0,0:0:0:0:
64,192,479898,1,0,0:0:0:0:
192,192,479898,1,0,0:0:0:0:
448,192,479950,1,0,0:0:0:0:
192,192,480003,1,0,0:0:0:0:
320,192,480003,1,0,0:0:0:0:
64,192,480055,1,0,0:0:0:0:
320,192,480108,1,0,0:0:0:0:
448,192,480108,1,0,0:0:0:0:
320,192,480213,1,0,0:0:0:0:
448,192,480213,1,0,0:0:0:0:
64,192,480319,1,0,0:0:0:0:
192,192,480319,1,0,0:0:0:0:
192,192,480425,1,0,0:0:0:0:
320,192,480461,1,0,0:0:0:0:
448,192,480496,1,0,0:0:0:0:
64,192,480532,1,0,0:0:0:0:
320,192,480638,1,0,0:0:0:0:
448,192,480638,1,0,0:0:0:0:
64,192,480745,1,0,0:0:0:0:
192,192,480745,1,0,0:0:0:0:
448,192,480745,1,0,0:0:0:0:
320,192,480852,1,0,0:0:0:0:
192,192,480887,1,0,0:0:0:0:
64,192,480923,1,0,0:0:0:0:
448,192,480958,1,0,0:0:0:0:
320,192,480994,1,0,0:0:0:0:
64,192,481065,1,0,0:0:0:0:
192,192,481101,1,0,0:0:0:0:
320,192,481136,1,0,0:0:0:0:
64,192,481172,1,0,0:0:0:0:
448,192,481172,1,0,0:0:0:0:
320,192,481332,1,0,0:0:0:0:
64,192,481385,1,0,0:0:0:0:
448,192,481385,1,0,0:0:0:0:
192,192,481438,1,0,0:0:0:0:
192,192,481545,1,0,0:0:0:0:
320,192,481599,1,0,0:0:0:0:
448,192,481599,1,0,0:0:0:0:
64,192,481650,1,0,0:0:0:0:
320,192,481702,1,0,0:0:0:0:
448,192,481702,1,0,0:0:0:0:
192,192,481754,1,0,0:0:0:0:
64,192,481806,1,0,0:0:0:0:
448,192,481806,1,0,0:0:0:0:
320,192,481910,1,0,0:0:0:0:
64,192,482014,1,0,0:0:0:0:
192,192,482014,1,0,0:0:0:0:
448,192,482066,1,0,0:0:0:0:
64,192,482119,1,0,0:0:0:0:
192,192,482119,1,0,0:0:0:0:
320,192,482172,1,0,0:0:0:0:
64,192,482225,1,0,0:0:0:0:
448,192,482225,1,0,0:0:0:0:
192,192,482331,1,0,0:0:0:0:
320,192,482437,1,0,0:0:0:0:
448,192,482437,1,0,0:0:0:0:
64,192,482490,1,0,0:0:0:0:
320,192,482543,1,0,0:0:0:0:
448,192,482543,1,0,0:0:0:0:
192,192,482596,1,0,0:0:0:0:
64,192,482649,1,0,0:0:0:0:
448,192,482649,1,0,0:0:0:0:
320,192,482755,1,0,0:0:0:0:
64,192,482861,1,0,0:0:0:0:
192,192,482861,1,0,0:0:0:0:
448,192,482912,1,0,0:0:0:0:
64,192,482964,1,0,0:0:0:0:
192,192,482964,1,0,0:0:0:0:
320,192,483015,1,0,0:0:0:0:
64,192,483067,1,0,0:0:0:0:
448,192,483067,1,0,0:0:0:0:
192,192,483170,1,0,0:0:0:0:
320,192,483273,1,0,0:0:0:0:
448,192,483273,1,0,0:0:0:0:
64,192,483324,1,0,0:0:0:0:
320,192,483376,1,0,0:0:0:0:
448,192,483376,1,0,0:0:0:0:
192,192,483427,1,0,0:0:0:0:
64,192,483479,1,0,0:0:0:0:
448,192,483479,1,0,0:0:0:0:
320,192,483582,1,0,0:0:0:0:
64,192,483685,1,0,0:0:0:0:
192,192,483685,1,0,0:0:0:0:
448,192,483737,1,0,0:0:0:0:
64,192,483790,1,0,0:0:0:0:
192,192,483790,1,0,0:0:0:0:
320,192,483842,1,0,0:0:0:0:
64,192,483895,1,0,0:0:0:0:
448,192,483895,1,0,0:0:0:0:
192,192,484000,1,0,0:0:0:0:
320,192,484105,1,0,0:0:0:0:
448,192,484105,1,0,0:0:0:0:
64,192,484158,1,0,0:0:0:0:
320,192,484210,1,0,0:0:0:0:
448,192,484210,1,0,0:0:0:0:
192,192,484263,1,0,0:0:0:0:
64,192,484316,1,0,0:0:0:0:
448,192,484316,1,0,0:0:0:0:
320,192,484421,1,0,0:0:0:0:
64,192,484527,1,0,0:0:0:0:
192,192,484527,1,0,0:0:0:0:
448,192,484579,1,0,0:0:0:0:
64,192,484631,1,0,0:0:0:0:
192,192,484631,1,0,0:0:0:0:
320,192,484683,1,0,0:0:0:0:
64,192,484735,1,0,0:0:0:0:
448,192,484735,1,0,0:0:0:0:
192,192,484840,1,0,0:0:0:0:
320,192,484944,1,0,0:0:0:0:
448,192,484944,1,0,0:0:0:0:
64,192,484996,1,0,0:0:0:0:
320,192,485049,1,0,0:0:0:0:
448,192,485049,1,0,0:0:0:0:
192,192,485101,1,0,0:0:0:0:
64,192,485153,1,0,0:0:0:0:
448,192,485153,1,0,0:0:0:0:
320,192,485258,1,0,0:0:0:0:
64,192,485362,1,0,0:0:0:0:
192,192,485362,1,0,0:0:0:0:
448,192,485414,1,0,0:0:0:0:
64,192,485467,1,0,0:0:0:0:
192,192,485467,1,0,0:0:0:0:
320,192,485519,1,0,0:0:0:0:
64,192,485572,1,0,0:0:0:0:
448,192,485572,1,0,0:0:0:0:
320,192,485677,1,0,0:0:0:0:
64,192,485782,1,0,0:0:0:0:
192,192,485782,1,0,0:0:0:0:
320,192,485817,1,0,0:0:0:0:
448,192,485852,1,0,0:0:0:0:
192,192,485887,1,0,0:0:0:0:
64,192,485957,1,0,0:0:0:0:
448,192,485993,1,0,0:0:0:0:
320,192,486028,1,0,0:0:0:0:
192,192,486063,1,0,0:0:0:0:
64,192,486098,1,0,0:0:0:0:
192,192,486168,1,0,0:0:0:0:
320,192,486203,1,0,0:0:0:0:
448,192,486203,128,0,486308:0:0:0:0:
320,192,486308,1,0,0:0:0:0:
64,192,486413,128,0,486518:0:0:0:0:
192,192,486413,1,0,0:0:0:0:
448,192,486413,1,0,0:0:0:0:
192,192,486518,1,0,0:0:0:0:
64,192,486624,1,0,0:0:0:0:
320,192,486624,1,0,0:0:0:0:
448,192,486624,128,0,486729:0:0:0:0:
64,192,486729,1,0,0:0:0:0:
320,192,486729,1,0,0:0:0:0:
192,192,486834,1,0,0:0:0:0:
448,192,486834,1,0,0:0:0:0:
192,192,486939,1,0,0:0:0:0:
64,192,487044,1,0,0:0:0:0:
320,192,487044,1,0,0:0:0:0:
448,192,487044,1,0,0:0:0:0:
320,192,487149,1,0,0:0:0:0:
64,192,487255,1,0,0:0:0:0:
192,192,487255,1,0,0:0:0:0:
448,192,487307,1,0,0:0:0:0:
192,192,487360,1,0,0:0:0:0:
64,192,487465,1,0,0:0:0:0:
448,192,487465,1,0,0:0:0:0:
192,192,487517,1,0,0:0:0:0:
320,192,487517,1,0,0:0:0:0:
320,192,487623,1,0,0:0:0:0:
448,192,487675,1,0,0:0:0:0:
64,192,487728,1,0,0:0:0:0:
192,192,487780,1,0,0:0:0:0:
320,192,487780,1,0,0:0:0:0:
64,192,487886,1,0,0:0:0:0:
192,192,487886,1,0,0:0:0:0:
448,192,487886,1,0,0:0:0:0:
320,192,487991,1,0,0:0:0:0:
448,192,487991,1,0,0:0:0:0:
64,192,488096,1,0,0:0:0:0:
192,192,488096,1,0,0:0:0:0:
320,192,488096,1,0,0:0:0:0:
64,192,488201,1,0,0:0:0:0:
192,192,488201,1,0,0:0:0:0:
192,192,488306,1,0,0:0:0:0:
320,192,488306,1,0,0:0:0:0:
448,192,488306,1,0,0:0:0:0:
320,192,488411,1,0,0:0:0:0:
448,192,488411,1,0,0:0:0:0:
64,192,488517,1,0,0:0:0:0:
192,192,488517,1,0,0:0:0:0:
320,192,488517,1,0,0:0:0:0:
64,192,488622,1,0,0:0:0:0:
192,192,488622,1,0,0:0:0:0:
192,192,488727,1,0,0:0:0:0:
320,192,488727,1,0,0:0:0:0:
448,192,488727,1,0,0:0:0:0:
320,192,488832,1,0,0:0:0:0:
448,192,488832,1,0,0:0:0:0:
64,192,488937,1,0,0:0:0:0:
192,192,488937,1,0,0:0:0:0:
320,192,488937,1,0,0:0:0:0:
64,192,489042,1,0,0:0:0:0:
192,192,489042,1,0,0:0:0:0:
192,192,489148,1,0,0:0:0:0:
320,192,489148,1,0,0:0:0:0:
448,192,489148,1,0,0:0:0:0:
320,192,489253,1,0,0:0:0:0:
448,192,489253,1,0,0:0:0:0:
64,192,489359,1,0,0:0:0:0:
192,192,489359,1,0,0:0:0:0:
320,192,489359,1,0,0:0:0:0:
64,192,489465,1,0,0:0:0:0:
192,192,489465,1,0,0:0:0:0:
192,192,489571,1,0,0:0:0:0:
320,192,489571,1,0,0:0:0:0:
448,192,489571,1,0,0:0:0:0:
320,192,489677,1,0,0:0:0:0:
448,192,489677,1,0,0:0:0:0:
64,192,489783,1,0,0:0:0:0:
192,192,489783,1,0,0:0:0:0:
320,192,489783,1,0,0:0:0:0:
64,192,489889,1,0,0:0:0:0:
192,192,489889,1,0,0:0:0:0:
192,192,489995,1,0,0:0:0:0:
320,192,489995,1,0,0:0:0:0:
448,192,489995,1,0,0:0:0:0:
64,192,490099,1,0,0:0:0:0:
320,192,490099,1,0,0:0:0:0:
64,192,490203,1,0,0:0:0:0:
192,192,490203,1,0,0:0:0:0:
448,192,490203,1,0,0:0:0:0:
320,192,490308,1,0,0:0:0:0:
448,192,490308,1,0,0:0:0:0:
64,192,490412,1,0,0:0:0:0:
192,192,490412,1,0,0:0:0:0:
448,192,490464,1,0,0:0:0:0:
64,192,490517,1,0,0:0:0:0:
448,192,490569,1,0,0:0:0:0:
320,192,490621,1,0,0:0:0:0:
64,192,490673,1,0,0:0:0:0:
192,192,490726,1,0,0:0:0:0:
320,192,490830,1,0,0:0:0:0:
448,192,490830,1,0,0:0:0:0:
64,192,490865,1,0,0:0:0:0:
192,192,490900,1,0,0:0:0:0:
320,192,490934,1,0,0:0:0:0:
448,192,490969,1,0,0:0:0:0:
64,192,491004,1,0,0:0:0:0:
192,192,491039,1,0,0:0:0:0:
320,192,491074,1,0,0:0:0:0:
448,192,491108,1,0,0:0:0:0:
64,192,491143,1,0,0:0:0:0:
192,192,491248,1,0,0:0:0:0:
320,192,491248,1,0,0:0:0:0:
448,192,491248,1,0,0:0:0:0:
64,192,491352,1,0,0:0:0:0:
192,192,491352,1,0,0:0:0:0:
320,192,491457,1,0,0:0:0:0:
448,192,491457,1,0,0:0:0:0:
64,192,491561,1,0,0:0:0:0:
320,192,491561,1,0,0:0:0:0:
192,192,491666,1,0,0:0:0:0:
448,192,491666,1,0,0:0:0:0:
192,192,491769,1,0,0:0:0:0:
448,192,491769,1,0,0:0:0:0:
64,192,491873,1,0,0:0:0:0:
320,192,491873,1,0,0:0:0:0:
320,192,491977,1,0,0:0:0:0:
64,192,492080,1,0,0:0:0:0:
192,192,492080,1,0,0:0:0:0:
448,192,492080,1,0,0:0:0:0:
64,192,492184,1,0,0:0:0:0:
192,192,492288,1,0,0:0:0:0:
320,192,492288,1,0,0:0:0:0:
192,192,492392,1,0,0:0:0:0:
448,192,492495,1,0,0:0:0:0:
320,192,492530,1,0,0:0:0:0:
64,192,492564,1,0,0:0:0:0:
192,192,492599,1,0,0:0:0:0:
448,192,492634,1,0,0:0:0:0:
320,192,492668,1,0,0:0:0:0:
64,192,492703,1,0,0:0:0:0:
192,192,492737,1,0,0:0:0:0:
448,192,492772,1,0,0:0:0:0:
320,192,492806,1,0,0:0:0:0:
64,192,492841,1,0,0:0:0:0:
192,192,492876,1,0,0:0:0:0:
448,192,492911,1,0,0:0:0:0:
320,192,492945,1,0,0:0:0:0:
64,192,492980,1,0,0:0:0:0:
192,192,493015,1,0,0:0:0:0:
448,192,493050,1,0,0:0:0:0:
320,192,493085,1,0,0:0:0:0:
64,192,493119,1,0,0:0:0:0:
192,192,493154,1,0,0:0:0:0:
448,192,493189,1,0,0:0:0:0:
320,192,493224,1,0,0:0:0:0:
192,192,493259,1,0,0:0:0:0:
64,192,493328,1,0,0:0:0:0:
320,192,493328,1,0,0:0:0:0:
448,192,493328,1,0,0:0:0:0:
192,192,493433,1,0,0:0:0:0:
320,192,493433,1,0,0:0:0:0:
64,192,493537,1,0,0:0:0:0:
192,192,493589,1,0,0:0:0:0:
320,192,493642,1,0,0:0:0:0:
192,192,493694,1,0,0:0:0:0:
64,192,493746,1,0,0:0:0:0:
448,192,493746,1,0,0:0:0:0:
320,192,493798,1,0,0:0:0:0:
448,192,493850,1,0,0:0:0:0:
320,192,493903,1,0,0:0:0:0:
64,192,493955,1,0,0:0:0:0:
192,192,493955,1,0,0:0:0:0:
320,192,494059,1,0,0:0:0:0:
64,192,494164,1,0,0:0:0:0:
448,192,494164,1,0,0:0:0:0:
192,192,494269,1,0,0:0:0:0:
320,192,494269,1,0,0:0:0:0:
448,192,494269,1,0,0:0:0:0:
64,192,494374,1,0,0:0:0:0:
192,192,494374,1,0,0:0:0:0:
320,192,494479,1,0,0:0:0:0:
448,192,494479,1,0,0:0:0:0:
64,192,494584,1,0,0:0:0:0:
192,192,494584,1,0,0:0:0:0:
320,192,494584,1,0,0:0:0:0:
64,192,494689,1,0,0:0:0:0:
192,192,494689,1,0,0:0:0:0:
448,192,494689,1,0,0:0:0:0:
192,192,494795,128,0,494900:0:0:0:0:
320,192,494795,1,0,0:0:0:0:
320,192,494900,1,0,0:0:0:0:
64,192,495006,1,0,0:0:0:0:
448,192,495006,1,0,0:0:0:0:
192,192,495040,1,0,0:0:0:0:
320,192,495075,1,0,0:0:0:0:
64,192,495124,1,0,0:0:0:0:
448,192,495161,1,0,0:0:0:0:
320,192,495213,1,0,0:0:0:0:
64,192,495265,1,0,0:0:0:0:
192,192,495317,1,0,0:0:0:0:
64,192,495420,1,0,0:0:0:0:
192,192,495420,1,0,0:0:0:0:
320,192,495420,1,0,0:0:0:0:
448,192,495420,1,0,0:0:0:0:
448,192,495524,1,0,0:0:0:0:
64,192,495628,1,0,0:0:0:0:
192,192,495628,1,0,0:0:0:0:
320,192,495628,1,0,0:0:0:0:
320,192,495732,1,0,0:0:0:0:
448,192,495835,1,0,0:0:0:0:
320,192,495869,1,0,0:0:0:0:
64,192,495903,1,0,0:0:0:0:
192,192,495938,1,0,0:0:0:0:
448,192,495938,1,0,0:0:0:0:
64,192,496041,1,0,0:0:0:0:
192,192,496041,1,0,0:0:0:0:
320,192,496144,1,0,0:0:0:0:
64,192,496247,1,0,0:0:0:0:
192,192,496247,1,0,0:0:0:0:
320,192,496298,1,0,0:0:0:0:
448,192,496349,1,0,0:0:0:0:
320,192,496400,1,0,0:0:0:0:
192,192,496451,1,0,0:0:0:0:
64,192,496502,1,0,0:0:0:0:
192,192,496553,1,0,0:0:0:0:
320,192,496605,1,0,0:0:0:0:
64,192,496657,1,0,0:0:0:0:
448,192,496657,1,0,0:0:0:0:
320,192,496726,1,0,0:0:0:0:
192,192,496761,1,0,0:0:0:0:
64,192,496796,1,0,0:0:0:0:
448,192,496831,1,0,0:0:0:0:
320,192,496865,1,0,0:0:0:0:
192,192,496900,1,0,0:0:0:0:
64,192,496935,1,0,0:0:0:0:
320,192,497074,1,0,0:0:0:0:
448,192,497074,1,0,0:0:0:0:
64,192,497126,1,0,0:0:0:0:
192,192,497179,1,0,0:0:0:0:
320,192,497231,1,0,0:0:0:0:
64,192,497283,1,0,0:0:0:0:
448,192,497283,1,0,0:0:0:0:
320,192,497335,1,0,0:0:0:0:
448,192,497388,1,0,0:0:0:0:
64,192,497492,128,0,497599:0:0:0:0:
192,192,497492,128,0,497599:0:0:0:0:
320,192,497492,1,0,0:0:0:0:
448,192,497599,1,0,0:0:0:0:
320,192,497653,1,0,0:0:0:0:
64,192,497706,1,0,0:0:0:0:
192,192,497760,1,0,0:0:0:0:
320,192,497814,1,0,0:0:0:0:
192,192,497868,1,0,0:0:0:0:
320,192,497921,1,0,0:0:0:0:
448,192,497921,128,0,498082:0:0:0:0:
64,192,497975,1,0,0:0:0:0:
192,192,498029,1,0,0:0:0:0:
320,192,498082,1,0,0:0:0:0:
64,192,498136,1,0,0:0:0:0:
448,192,498190,1,0,0:0:0:0:
320,192,498244,1,0,0:0:0:0:
192,192,498297,1,0,0:0:0:0:
64,192,498352,1,0,0:0:0:0:
448,192,498352,1,0,0:0:0:0:
64,192,498455,1,0,0:0:0:0:
320,192,498455,1,0,0:0:0:0:
448,192,498455,1,0,0:0:0:0:
192,192,498558,1,0,0:0:0:0:
320,192,498558,1,0,0:0:0:0:
192,192,498661,1,0,0:0:0:0:
64,192,498764,1,0,0:0:0:0:
320,192,498764,1,0,0:0:0:0:
448,192,498764,1,0,0:0:0:0:
448,192,498867,1,0,0:0:0:0:
64,192,498970,1,0,0:0:0:0:
192,192,498970,1,0,0:0:0:0:
320,192,498970,1,0,0:0:0:0:
320,192,499073,1,0,0:0:0:0:
64,192,499176,1,0,0:0:0:0:
192,192,499176,1,0,0:0:0:0:
448,192,499176,1,0,0:0:0:0:
64,192,499279,1,0,0:0:0:0:
192,192,499383,1,0,0:0:0:0:
320,192,499383,1,0,0:0:0:0:
448,192,499383,1,0,0:0:0:0:
320,192,499487,1,0,0:0:0:0:
64,192,499590,1,0,0:0:0:0:
448,192,499590,1,0,0:0:0:0:
320,192,499642,1,0,0:0:0:0:
64,192,499694,1,0,0:0:0:0:
192,192,499694,1,0,0:0:0:0:
448,192,499729,1,0,0:0:0:0:
320,192,499763,1,0,0:0:0:0:
192,192,499798,1,0,0:0:0:0:
64,192,499832,1,0,0:0:0:0:
64,192,500005,1,0,0:0:0:0:
448,192,500005,1,0,0:0:0:0:
192,192,500109,1,0,0:0:0:0:
192,192,500213,1,0,0:0:0:0:
448,192,500213,1,0,0:0:0:0:
320,192,500265,1,0,0:0:0:0:
320,192,500368,1,0,0:0:0:0:
64,192,500420,1,0,0:0:0:0:
192,192,500420,1,0,0:0:0:0:
448,192,500455,1,0,0:0:0:0:
320,192,500491,1,0,0:0:0:0:
64,192,500563,1,0,0:0:0:0:
192,192,500599,1,0,0:0:0:0:
320,192,500634,1,0,0:0:0:0:
448,192,500634,1,0,0:0:0:0:
192,192,500742,1,0,0:0:0:0:
64,192,500849,1,0,0:0:0:0:
448,192,500849,1,0,0:0:0:0:
192,192,500885,1,0,0:0:0:0:
320,192,500921,1,0,0:0:0:0:
64,192,500957,1,0,0:0:0:0:
64,192,501064,1,0,0:0:0:0:
448,192,501064,1,0,0:0:0:0:
320,192,501100,1,0,0:0:0:0:
192,192,501136,1,0,0:0:0:0:
448,192,501172,1,0,0:0:0:0:
64,192,501280,1,0,0:0:0:0:
448,192,501280,1,0,0:0:0:0:
192,192,501315,1,0,0:0:0:0:
320,192,501350,1,0,0:0:0:0:
64,192,501385,1,0,0:0:0:0:
64,192,501491,1,0,0:0:0:0:
448,192,501491,1,0,0:0:0:0:
192,192,501562,1,0,0:0:0:0:
320,192,501633,1,0,0:0:0:0:
64,192,501703,1,0,0:0:0:0:
448,192,501703,1,0,0:0:0:0:
320,192,501774,1,0,0:0:0:0:
192,192,501809,1,0,0:0:0:0:
64,192,501844,1,0,0:0:0:0:
448,192,501915,1,0,0:0:0:0:
192,192,501968,1,0,0:0:0:0:
448,192,502021,1,0,0:0:0:0:
64,192,502127,1,0,0:0:0:0:
192,192,502127,1,0,0:0:0:0:
320,192,502127,1,0,0:0:0:0:
64,192,502233,1,0,0:0:0:0:
192,192,502268,1,0,0:0:0:0:
320,192,502339,1,0,0:0:0:0:
448,192,502339,1,0,0:0:0:0:
320,192,502445,1,0,0:0:0:0:
64,192,502550,1,0,0:0:0:0:
192,192,502550,1,0,0:0:0:0:
448,192,502550,1,0,0:0:0:0:
192,192,502656,1,0,0:0:0:0:
64,192,502763,1,0,0:0:0:0:
320,192,502763,1,0,0:0:0:0:
448,192,502763,1,0,0:0:0:0:
64,192,502869,1,0,0:0:0:0:
192,192,502976,1,0,0:0:0:0:
320,192,502976,1,0,0:0:0:0:
448,192,502976,1,0,0:0:0:0:
192,192,503083,1,0,0:0:0:0:
64,192,503189,1,0,0:0:0:0:
320,192,503189,1,0,0:0:0:0:
448,192,503189,1,0,0:0:0:0:
64,192,503296,1,0,0:0:0:0:
192,192,503404,1,0,0:0:0:0:
320,192,503404,1,0,0:0:0:0:
448,192,503404,1,0,0:0:0:0:
192,192,503515,1,0,0:0:0:0:
64,192,503626,1,0,0:0:0:0:
320,192,503626,1,0,0:0:0:0:
448,192,503626,1,0,0:0:0:0:
320,192,503738,1,0,0:0:0:0:
448,192,503738,1,0,0:0:0:0:
64,192,503849,1,0,0:0:0:0:
192,192,503849,1,0,0:0:0:0:
448,192,503849,1,0,0:0:0:0:
64,192,503950,1,0,0:0:0:0:
192,192,503950,1,0,0:0:0:0:
192,192,504052,1,0,0:0:0:0:
320,192,504052,1,0,0:0:0:0:
320,192,504153,1,0,0:0:0:0:
448,192,504153,1,0,0:0:0:0:
64,192,504256,1,0,0:0:0:0:
192,192,504256,1,0,0:0:0:0:
448,192,504310,1,0,0:0:0:0:
320,192,504364,1,0,0:0:0:0:
192,192,504418,1,0,0:0:0:0:
320,192,504472,1,0,0:0:0:0:
192,192,504526,1,0,0:0:0:0:
64,192,504580,1,0,0:0:0:0:
448,192,504634,1,0,0:0:0:0:
192,192,504689,1,0,0:0:0:0:
320,192,504689,1,0,0:0:0:0:
64,192,504741,1,0,0:0:0:0:
448,192,504794,1,0,0:0:0:0:
320,192,504829,1,0,0:0:0:0:
192,192,504899,1,0,0:0:0:0:
64,192,504951,1,0,0:0:0:0:
192,192,505004,1,0,0:0:0:0:
320,192,505057,1,0,0:0:0:0:
64,192,505109,1,0,0:0:0:0:
448,192,505109,1,0,0:0:0:0:
192,192,505214,1,0,0:0:0:0:
320,192,505320,1,0,0:0:0:0:
64,192,505346,1,0,0:0:0:0:
448,192,505390,1,0,0:0:0:0:
320,192,505436,1,0,0:0:0:0:
192,192,505483,1,0,0:0:0:0:
64,192,505530,1,0,0:0:0:0:
448,192,505577,1,0,0:0:0:0:
192,192,505624,1,0,0:0:0:0:
64,192,505671,1,0,0:0:0:0:
448,192,505718,1,0,0:0:0:0:
192,192,505765,1,0,0:0:0:0:
320,192,505812,1,0,0:0:0:0:
448,192,505859,1,0,0:0:0:0:
320,192,505906,1,0,0:0:0:0:
64,192,505953,1,0,0:0:0:0:
192,192,505953,1,0,0:0:0:0:
448,192,506006,1,0,0:0:0:0:
320,192,506059,1,0,0:0:0:0:
192,192,506112,1,0,0:0:0:0:
448,192,506165,1,0,0:0:0:0:
64,192,506218,1,0,0:0:0:0:
192,192,506271,1,0,0:0:0:0:
64,192,506324,1,0,0:0:0:0:
320,192,506377,1,0,0:0:0:0:
448,192,506377,1,0,0:0:0:0:
192,192,506447,1,0,0:0:0:0:
320,192,506483,1,0,0:0:0:0:
448,192,506518,1,0,0:0:0:0:
320,192,506589,1,0,0:0:0:0:
192,192,506642,1,0,0:0:0:0:
64,192,506695,1,0,0:0:0:0:
192,192,506747,1,0,0:0:0:0:
320,192,506800,1,0,0:0:0:0:
448,192,506800,1,0,0:0:0:0:
64,192,506853,1,0,0:0:0:0:
192,192,506906,1,0,0:0:0:0:
320,192,506959,1,0,0:0:0:0:
192,192,507012,1,0,0:0:0:0:
320,192,507065,1,0,0:0:0:0:
448,192,507118,1,0,0:0:0:0:
64,192,507171,1,0,0:0:0:0:
192,192,507224,1,0,0:0:0:0:
320,192,507224,1,0,0:0:0:0:
64,192,507330,1,0,0:0:0:0:
192,192,507436,1,0,0:0:0:0:
448,192,507436,1,0,0:0:0:0:
192,192,507542,1,0,0:0:0:0:
64,192,507648,1,0,0:0:0:0:
448,192,507648,1,0,0:0:0:0:
320,192,507701,1,0,0:0:0:0:
448,192,507754,1,0,0:0:0:0:
192,192,507807,1,0,0:0:0:0:
64,192,507860,1,0,0:0:0:0:
192,192,507913,1,0,0:0:0:0:
320,192,507965,1,0,0:0:0:0:
448,192,508018,1,0,0:0:0:0:
64,192,508072,1,0,0:0:0:0:
192,192,508072,1,0,0:0:0:0:
320,192,508125,1,0,0:0:0:0:
64,192,508178,1,0,0:0:0:0:
192,192,508214,1,0,0:0:0:0:
320,192,508285,1,0,0:0:0:0:
448,192,508338,1,0,0:0:0:0:
320,192,508391,1,0,0:0:0:0:
192,192,508445,1,0,0:0:0:0:
64,192,508499,1,0,0:0:0:0:
448,192,508499,1,0,0:0:0:0:
192,192,508604,1,0,0:0:0:0:
320,192,508709,1,0,0:0:0:0:
448,192,508709,1,0,0:0:0:0:
64,192,508761,1,0,0:0:0:0:
192,192,508814,1,0,0:0:0:0:
320,192,508867,1,0,0:0:0:0:
64,192,508919,1,0,0:0:0:0:
192,192,508919,1,0,0:0:0:0:
448,192,508972,1,0,0:0:0:0:
320,192,509024,1,0,0:0:0:0:
64,192,509077,1,0,0:0:0:0:
448,192,509130,1,0,0:0:0:0:
192,192,509182,1,0,0:0:0:0:
64,192,509235,1,0,0:0:0:0:
192,192,509287,1,0,0:0:0:0:
320,192,509340,1,0,0:0:0:0:
448,192,509340,1,0,0:0:0:0:
64,192,509392,1,0,0:0:0:0:
192,192,509445,1,0,0:0:0:0:
320,192,509498,1,0,0:0:0:0:
192,192,509550,1,0,0:0:0:0:
320,192,509603,1,0,0:0:0:0:
448,192,509655,1,0,0:0:0:0:
64,192,509708,1,0,0:0:0:0:
192,192,509761,1,0,0:0:0:0:
320,192,509761,1,0,0:0:0:0:
64,192,509866,1,0,0:0:0:0:
192,192,509866,1,0,0:0:0:0:
448,192,509866,1,0,0:0:0:0:
320,192,509971,1,0,0:0:0:0:
448,192,509971,1,0,0:0:0:0:
192,192,510076,1,0,0:0:0:0:
64,192,510181,1,0,0:0:0:0:
320,192,510181,1,0,0:0:0:0:
448,192,510181,1,0,0:0:0:0:
192,192,510251,1,0,0:0:0:0:
320,192,510322,1,0,0:0:0:0:
192,192,510392,1,0,0:0:0:0:
448,192,510392,1,0,0:0:0:0:
64,192,510463,1,0,0:0:0:0:
448,192,510534,1,0,0:0:0:0:
64,192,510604,1,0,0:0:0:0:
320,192,510604,1,0,0:0:0:0:
192,192,510675,1,0,0:0:0:0:
320,192,510745,1,0,0:0:0:0:
192,192,510816,1,0,0:0:0:0:
448,192,510816,1,0,0:0:0:0:
64,192,510887,1,0,0:0:0:0:
192,192,510957,1,0,0:0:0:0:
320,192,511029,1,0,0:0:0:0:
448,192,511029,1,0,0:0:0:0:
64,192,511082,1,0,0:0:0:0:
192,192,511136,1,0,0:0:0:0:
320,192,511190,1,0,0:0:0:0:
192,192,511243,1,0,0:0:0:0:
320,192,511297,1,0,0:0:0:0:
448,192,511351,1,0,0:0:0:0:
64,192,511405,1,0,0:0:0:0:
192,192,511458,1,0,0:0:0:0:
320,192,511458,1,0,0:0:0:0:
448,192,511512,1,0,0:0:0:0:
64,192,511566,1,0,0:0:0:0:
192,192,511601,1,0,0:0:0:0:
320,192,511673,1,0,0:0:0:0:
448,192,511727,1,0,0:0:0:0:
320,192,511781,1,0,0:0:0:0:
192,192,511834,1,0,0:0:0:0:
64,192,511888,1,0,0:0:0:0:
448,192,511888,1,0,0:0:0:0:
320,192,511992,1,0,0:0:0:0:
192,192,512096,1,0,0:0:0:0:
448,192,512122,1,0,0:0:0:0:
64,192,512166,1,0,0:0:0:0:
192,192,512212,1,0,0:0:0:0:
320,192,512259,1,0,0:0:0:0:
448,192,512305,1,0,0:0:0:0:
64,192,512352,1,0,0:0:0:0:
320,192,512398,1,0,0:0:0:0:
448,192,512444,1,0,0:0:0:0:
64,192,512491,1,0,0:0:0:0:
320,192,512537,1,0,0:0:0:0:
192,192,512584,1,0,0:0:0:0:
64,192,512630,1,0,0:0:0:0:
192,192,512677,1,0,0:0:0:0:
320,192,512724,1,0,0:0:0:0:
448,192,512724,1,0,0:0:0:0:
64,192,512776,1,0,0:0:0:0:
192,192,512829,1,0,0:0:0:0:
320,192,512882,1,0,0:0:0:0:
64,192,512935,1,0,0:0:0:0:
448,192,512988,1,0,0:0:0:0:
320,192,513041,1,0,0:0:0:0:
448,192,513094,1,0,0:0:0:0:
64,192,513147,1,0,0:0:0:0:
192,192,513147,1,0,0:0:0:0:
320,192,513218,1,0,0:0:0:0:
192,192,513253,1,0,0:0:0:0:
64,192,513288,1,0,0:0:0:0:
192,192,513359,1,0,0:0:0:0:
320,192,513412,1,0,0:0:0:0:
448,192,513465,1,0,0:0:0:0:
320,192,513518,1,0,0:0:0:0:
64,192,513571,1,0,0:0:0:0:
192,192,513571,1,0,0:0:0:0:
448,192,513622,1,0,0:0:0:0:
320,192,513674,1,0,0:0:0:0:
192,192,513726,1,0,0:0:0:0:
320,192,513778,1,0,0:0:0:0:
192,192,513830,1,0,0:0:0:0:
64,192,513882,1,0,0:0:0:0:
448,192,513934,1,0,0:0:0:0:
192,192,513986,1,0,0:0:0:0:
320,192,513986,1,0,0:0:0:0:
448,192,514094,1,0,0:0:0:0:
64,192,514202,1,0,0:0:0:0:
320,192,514202,1,0,0:0:0:0:
320,192,514310,1,0,0:0:0:0:
64,192,514419,1,0,0:0:0:0:
448,192,514419,1,0,0:0:0:0:
192,192,514471,1,0,0:0:0:0:
64,192,514524,1,0,0:0:0:0:
320,192,514577,1,0,0:0:0:0:
448,192,514630,1,0,0:0:0:0:
320,192,514683,1,0,0:0:0:0:
192,192,514736,1,0,0:0:0:0:
64,192,514789,1,0,0:0:0:0:
320,192,514842,1,0,0:0:0:0:
448,192,514842,1,0,0:0:0:0:
192,192,514895,1,0,0:0:0:0:
448,192,514948,1,0,0:0:0:0:
320,192,514983,1,0,0:0:0:0:
192,192,515054,1,0,0:0:0:0:
64,192,515107,1,0,0:0:0:0:
192,192,515160,1,0,0:0:0:0:
320,192,515213,1,0,0:0:0:0:
64,192,515266,1,0,0:0:0:0:
448,192,515266,1,0,0:0:0:0:
320,192,515372,1,0,0:0:0:0:
64,192,515478,1,0,0:0:0:0:
192,192,515478,1,0,0:0:0:0:
448,192,515531,1,0,0:0:0:0:
320,192,515584,1,0,0:0:0:0:
192,192,515636,1,0,0:0:0:0:
320,192,515689,1,0,0:0:0:0:
448,192,515689,1,0,0:0:0:0:
64,192,515743,1,0,0:0:0:0:
192,192,515797,1,0,0:0:0:0:
448,192,515852,1,0,0:0:0:0:
64,192,515906,1,0,0:0:0:0:
320,192,515961,1,0,0:0:0:0:
448,192,516015,1,0,0:0:0:0:
320,192,516070,1,0,0:0:0:0:
64,192,516125,1,0,0:0:0:0:
192,192,516125,1,0,0:0:0:0:
448,192,516177,1,0,0:0:0:0:
320,192,516229,1,0,0:0:0:0:
192,192,516281,1,0,0:0:0:0:
320,192,516333,1,0,0:0:0:0:
192,192,516386,1,0,0:0:0:0:
64,192,516438,1,0,0:0:0:0:
448,192,516490,1,0,0:0:0:0:
192,192,516542,1,0,0:0:0:0:
320,192,516542,1,0,0:0:0:0:
192,192,516751,1,0,0:0:0:0:
192,192,516856,1,0,0:0:0:0:
64,192,516961,1,0,0:0:0:0:
320,192,516961,1,0,0:0:0:0:
448,192,516961,1,0,0:0:0:0:
192,192,517070,1,0,0:0:0:0:
64,192,517180,1,0,0:0:0:0:
320,192,517180,1,0,0:0:0:0:
448,192,517180,1,0,0:0:0:0:
192,192,517290,1,0,0:0:0:0:
64,192,517400,1,0,0:0:0:0:
320,192,517400,1,0,0:0:0:0:
448,192,517400,1,0,0:0:0:0:
192,192,517514,1,0,0:0:0:0:
64,192,517629,1,0,0:0:0:0:
320,192,517629,1,0,0:0:0:0:
448,192,517629,1,0,0:0:0:0:
192,192,517744,1,0,0:0:0:0:
320,192,517859,1,0,0:0:0:0:
448,192,517859,1,0,0:0:0:0:
64,192,517935,1,0,0:0:0:0:
192,192,518012,1,0,0:0:0:0:
320,192,518088,1,0,0:0:0:0:
192,192,518165,1,0,0:0:0:0:
320,192,518242,1,0,0:0:0:0:
64,192,518319,1,0,0:0:0:0:
448,192,518319,1,0,0:0:0:0:
192,192,518393,1,0,0:0:0:0:
448,192,518467,1,0,0:0:0:0:
320,192,518541,1,0,0:0:0:0:
192,192,518597,1,0,0:0:0:0:
448,192,518653,1,0,0:0:0:0:
320,192,518708,1,0,0:0:0:0:
64,192,518764,1,0,0:0:0:0:
192,192,518764,1,0,0:0:0:0:
448,192,518874,1,0,0:0:0:0:
320,192,518985,1,0,0:0:0:0:
64,192,519040,1,0,0:0:0:0:
192,192,519095,1,0,0:0:0:0:
320,192,519151,1,0,0:0:0:0:
64,192,519207,1,0,0:0:0:0:
192,192,519263,1,0,0:0:0:0:
320,192,519319,1,0,0:0:0:0:
448,192,519375,1,0,0:0:0:0:
64,192,519431,1,0,0:0:0:0:
320,192,519506,1,0,0:0:0:0:
192,192,519581,1,0,0:0:0:0:
320,192,519656,1,0,0:0:0:0:
448,192,519656,1,0,0:0:0:0:
192,192,519730,1,0,0:0:0:0:
64,192,519805,1,0,0:0:0:0:
192,192,519880,1,0,0:0:0:0:
320,192,519955,1,0,0:0:0:0:
448,192,520030,1,0,0:0:0:0:
64,192,520105,1,0,0:0:0:0:
320,192,520105,1,0,0:0:0:0:
192,192,520178,1,0,0:0:0:0:
64,192,520252,1,0,0:0:0:0:
320,192,520326,1,0,0:0:0:0:
192,192,520381,1,0,0:0:0:0:
448,192,520436,1,0,0:0:0:0:
320,192,520492,1,0,0:0:0:0:
64,192,520547,1,0,0:0:0:0:
192,192,520547,1,0,0:0:0:0:
448,192,520621,1,0,0:0:0:0:
192,192,520694,1,0,0:0:0:0:
320,192,520768,1,0,0:0:0:0:
192,192,520842,1,0,0:0:0:0:
64,192,520916,1,0,0:0:0:0:
320,192,520989,1,0,0:0:0:0:
320,192,521210,1,0,0:0:0:0:
64,192,521432,1,0,0:0:0:0:
192,192,521432,1,0,0:0:0:0:
320,192,521469,1,0,0:0:0:0:
448,192,521505,1,0,0:0:0:0:
192,192,521542,1,0,0:0:0:0:
64,192,521598,1,0,0:0:0:0:
448,192,521653,1,0,0:0:0:0:
192,192,521708,1,0,0:0:0:0:
320,192,521763,1,0,0:0:0:0:
448,192,521819,1,0,0:0:0:0:
64,192,521874,1,0,0:0:0:0:
320,192,521948,1,0,0:0:0:0:
192,192,522022,1,0,0:0:0:0:
64,192,522095,1,0,0:0:0:0:
192,192,522151,1,0,0:0:0:0:
448,192,522206,1,0,0:0:0:0:
320,192,522261,1,0,0:0:0:0:
64,192,522316,128,0,522372:0:0:0:0:
192,192,522316,128,0,522372:0:0:0:0:
448,192,522427,1,0,0:0:0:0:
192,192,522538,1,0,0:0:0:0:
320,192,522538,1,0,0:0:0:0:
64,192,522611,1,0,0:0:0:0:
192,192,522685,1,0,0:0:0:0:
320,192,522759,1,0,0:0:0:0:
448,192,522759,1,0,0:0:0:0:
64,192,522833,1,0,0:0:0:0:
192,192,522906,1,0,0:0:0:0:
448,192,522980,1,0,0:0:0:0:
64,192,523035,1,0,0:0:0:0:
320,192,523091,1,0,0:0:0:0:
192,192,523146,1,0,0:0:0:0:
64,192,523202,1,0,0:0:0:0:
448,192,523202,1,0,0:0:0:0:
192,192,523275,1,0,0:0:0:0:
320,192,523348,1,0,0:0:0:0:
448,192,523421,1,0,0:0:0:0:
64,192,523465,1,0,0:0:0:0:
320,192,523553,1,0,0:0:0:0:
192,192,523641,1,0,0:0:0:0:
320,192,523750,1,0,0:0:0:0:
448,192,523860,1,0,0:0:0:0:
64,192,524080,1,0,0:0:0:0:
192,192,524080,1,0,0:0:0:0:
448,192,524080,1,0,0:0:0:0:
320,192,524187,1,0,0:0:0:0:
64,192,524294,1,0,0:0:0:0:
192,192,524294,1,0,0:0:0:0:
448,192,524294,1,0,0:0:0:0:
320,192,524402,1,0,0:0:0:0:
64,192,524510,1,0,0:0:0:0:
192,192,524510,1,0,0:0:0:0:
448,192,524510,1,0,0:0:0:0:
320,192,524621,1,0,0:0:0:0:
64,192,524732,1,0,0:0:0:0:
192,192,524732,1,0,0:0:0:0:
448,192,524732,1,0,0:0:0:0:
320,192,524844,1,0,0:0:0:0:
64,192,524955,1,0,0:0:0:0:
192,192,524955,1,0,0:0:0:0:
320,192,525019,1,0,0:0:0:0:
448,192,525083,1,0,0:0:0:0:
320,192,525141,1,0,0:0:0:0:
64,192,525206,1,0,0:0:0:0:
448,192,525274,1,0,0:0:0:0:
320,192,525337,1,0,0:0:0:0:
64,192,525401,1,0,0:0:0:0:
192,192,525401,1,0,0:0:0:0:
448,192,525473,1,0,0:0:0:0:
192,192,525545,1,0,0:0:0:0:
320,192,525617,1,0,0:0:0:0:
64,192,525671,1,0,0:0:0:0:
192,192,525725,1,0,0:0:0:0:
320,192,525779,1,0,0:0:0:0:
64,192,525833,1,0,0:0:0:0:
448,192,525833,1,0,0:0:0:0:
64,192,526050,1,0,0:0:0:0:
192,192,526050,1,0,0:0:0:0:
448,192,526050,1,0,0:0:0:0:
192,192,526158,1,0,0:0:0:0:
320,192,526483,1,0,0:0:0:0:
448,192,526483,1,0,0:0:0:0:
192,192,526537,1,0,0:0:0:0:
64,192,526591,1,0,0:0:0:0:
320,192,526645,1,0,0:0:0:0:
448,192,526699,1,0,0:0:0:0:
64,192,526751,1,0,0:0:0:0:
192,192,526804,1,0,0:0:0:0:
320,192,526857,1,0,0:0:0:0:
448,192,526910,1,0,0:0:0:0:
64,192,526981,1,0,0:0:0:0:
320,192,527052,1,0,0:0:0:0:
64,192,527123,1,0,0:0:0:0:
192,192,527123,1,0,0:0:0:0:
448,192,527185,1,0,0:0:0:0:
192,192,527248,1,0,0:0:0:0:
448,192,527311,1,0,0:0:0:0:
320,192,527370,1,0,0:0:0:0:
64,192,527436,1,0,0:0:0:0:
192,192,527499,1,0,0:0:0:0:
320,192,527562,1,0,0:0:0:0:
448,192,527562,1,0,0:0:0:0:
192,192,527633,1,0,0:0:0:0:
64,192,527705,1,0,0:0:0:0:
192,192,527776,1,0,0:0:0:0:
320,192,527830,1,0,0:0:0:0:
448,192,527884,1,0,0:0:0:0:
64,192,527938,1,0,0:0:0:0:
192,192,527991,1,0,0:0:0:0:
320,192,527991,1,0,0:0:0:0:
64,192,528422,1,0,0:0:0:0:
320,192,528422,1,0,0:0:0:0:
448,192,528422,1,0,0:0:0:0:
192,192,528484,1,0,0:0:0:0:
320,192,528546,1,0,0:0:0:0:
192,192,528608,1,0,0:0:0:0:
448,192,528608,1,0,0:0:0:0:
64,192,528671,1,0,0:0:0:0:
192,192,528733,1,0,0:0:0:0:
64,192,528795,1,0,0:0:0:0:
320,192,528857,1,0,0:0:0:0:
448,192,528857,1,0,0:0:0:0:
448,192,528966,1,0,0:0:0:0:
64,192,529075,128,0,529184:0:0:0:0:
192,192,529075,128,0,529184:0:0:0:0:
320,192,529075,1,0,0:0:0:0:
64,192,529511,1,0,0:0:0:0:
320,192,529511,1,0,0:0:0:0:
448,192,529511,128,0,529729:0:0:0:0:
320,192,529620,1,0,0:0:0:0:
192,192,529675,1,0,0:0:0:0:
64,192,529729,1,0,0:0:0:0:
64,192,529947,128,0,532735:0:0:0:0:
320,192,529947,1,0,0:0:0:0:
448,192,529947,1,0,0:0:0:0:
320,192,530381,1,0,0:0:0:0:
192,192,530597,1,0,0:0:0:0:
320,192,530597,1,0,0:0:0:0:
448,192,530706,1,0,0:0:0:0:
320,192,531031,1,0,0:0:0:0:
448,192,531031,1,0,0:0:0:0:
192,192,531135,1,0,0:0:0:0:
192,192,531448,1,0,0:0:0:0:
448,192,531448,1,0,0:0:0:0:
320,192,531553,1,0,0:0:0:0:
192,192,531657,1,0,0:0:0:0:
192,192,531867,1,0,0:0:0:0:
448,192,531867,1,0,0:0:0:0:
320,192,531975,1,0,0:0:0:0:
448,192,532083,1,0,0:0:0:0:
192,192,532299,1,0,0:0:0:0:
320,192,532299,1,0,0:0:0:0:
448,192,532407,1,0,0:0:0:0:
320,192,532462,1,0,0:0:0:0:
192,192,532516,1,0,0:0:0:0:
192,192,532735,1,0,0:0:0:0:
320,192,532782,1,0,0:0:0:0:
448,192,532782,1,0,0:0:0:0:
64,192,533305,1,0,0:0:0:0:
192,192,533305,1,0,0:0:0:0:
64,192,533401,1,0,0:0:0:0:
192,192,533401,1,0,0:0:0:0:
320,192,533496,128,0,534258:0:0:0:0:
448,192,533496,128,0,534258:0:0:0:0:
64,192,534210,1,0,0:0:0:0:
192,192,534303,1,0,0:0:0:0:
64,192,534440,1,0,0:0:0:0:
192,192,534440,1,0,0:0:0:0:
320,192,534531,1,0,0:0:0:0:
448,192,534531,1,0,0:0:0:0:
64,192,534622,1,0,0:0:0:0:
192,192,534622,1,0,0:0:0:0:
448,192,534666,1,0,0:0:0:0:
320,192,534710,1,0,0:0:0:0:
192,192,534754,1,0,0:0:0:0:
448,192,534798,1,0,0:0:0:0:
320,192,534843,1,0,0:0:0:0:
64,192,534887,1,0,0:0:0:0:
192,192,534931,1,0,0:0:0:0:
320,192,534976,1,0,0:0:0:0:
448,192,535022,1,0,0:0:0:0:
64,192,535068,1,0,0:0:0:0:
320,192,535115,1,0,0:0:0:0:
192,192,535161,1,0,0:0:0:0:
64,192,535208,1,0,0:0:0:0:
448,192,535254,1,0,0:0:0:0:
192,192,535300,1,0,0:0:0:0:
320,192,535347,1,0,0:0:0:0:
448,192,535405,1,0,0:0:0:0:
64,192,535464,1,0,0:0:0:0:
320,192,535523,1,0,0:0:0:0:
64,192,535582,1,0,0:0:0:0:
192,192,535640,1,0,0:0:0:0:
448,192,535699,1,0,0:0:0:0:
320,192,535758,1,0,0:0:0:0:
448,192,535817,1,0,0:0:0:0:
64,192,535866,1,0,0:0:0:0:
192,192,535915,1,0,0:0:0:0:
320,192,535964,1,0,0:0:0:0:
448,192,536013,1,0,0:0:0:0:
64,192,536062,1,0,0:0:0:0:
320,192,536111,1,0,0:0:0:0:
64,192,536160,1,0,0:0:0:0:
448,192,536211,1,0,0:0:0:0:
192,192,536239,1,0,0:0:0:0:
320,192,536295,1,0,0:0:0:0:
64,192,536324,1,0,0:0:0:0:
448,192,536361,1,0,0:0:0:0:
320,192,536408,1,0,0:0:0:0:
192,192,536465,1,0,0:0:0:0:
64,192,536512,1,0,0:0:0:0:
448,192,536562,1,0,0:0:0:0:
192,192,536613,1,0,0:0:0:0:
320,192,536663,1,0,0:0:0:0:
448,192,536711,1,0,0:0:0:0:
64,192,536759,1,0,0:0:0:0:
320,192,536807,1,0,0:0:0:0:
192,192,536855,1,0,0:0:0:0:
64,192,536903,1,0,0:0:0:0:
192,192,536951,1,0,0:0:0:0:
320,192,536999,1,0,0:0:0:0:
448,192,537047,1,0,0:0:0:0:
64,192,537096,1,0,0:0:0:0:
192,192,537143,1,0,0:0:0:0:
320,192,537191,1,0,0:0:0:0:
448,192,537239,1,0,0:0:0:0:
64,192,537287,1,0,0:0:0:0:
192,192,537335,1,0,0:0:0:0:
320,192,537383,1,0,0:0:0:0:
448,192,537431,1,0,0:0:0:0:
64,192,537479,1,0,0:0:0:0:
320,192,537514,1,0,0:0:0:0:
192,192,537549,1,0,0:0:0:0:
64,192,537584,1,0,0:0:0:0:
448,192,537620,1,0,0:0:0:0:
192,192,537690,1,0,0:0:0:0:
320,192,537717,1,0,0:0:0:0:
64,192,537761,1,0,0:0:0:0:
448,192,537808,1,0,0:0:0:0:
320,192,537855,1,0,0:0:0:0:
64,192,537903,1,0,0:0:0:0:
192,192,537903,1,0,0:0:0:0:
448,192,537966,1,0,0:0:0:0:
192,192,538029,1,0,0:0:0:0:
320,192,538068,1,0,0:0:0:0:
64,192,538124,1,0,0:0:0:0:
448,192,538179,1,0,0:0:0:0:
320,192,538234,1,0,0:0:0:0:
64,192,538290,1,0,0:0:0:0:
320,192,538345,1,0,0:0:0:0:
192,192,538403,1,0,0:0:0:0:
64,192,538462,1,0,0:0:0:0:
448,192,538521,1,0,0:0:0:0:
192,192,538580,1,0,0:0:0:0:
320,192,538638,1,0,0:0:0:0:
448,192,538697,1,0,0:0:0:0:
64,192,538756,1,0,0:0:0:0:
192,192,538815,1,0,0:0:0:0:
320,192,538815,1,0,0:0:0:0:
448,192,538869,1,0,0:0:0:0:
64,192,538923,1,0,0:0:0:0:
192,192,538977,1,0,0:0:0:0:
320,192,538977,1,0,0:0:0:0:
448,192,539031,1,0,0:0:0:0:
64,192,539085,1,0,0:0:0:0:
192,192,539139,1,0,0:0:0:0:
320,192,539193,1,0,0:0:0:0:
448,192,539193,1,0,0:0:0:0:
64,192,539248,1,0,0:0:0:0:
320,192,539300,1,0,0:0:0:0:
448,192,539353,1,0,0:0:0:0:
64,192,539406,1,0,0:0:0:0:
192,192,539406,1,0,0:0:0:0:
320,192,539459,1,0,0:0:0:0:
448,192,539512,1,0,0:0:0:0:
64,192,539565,1,0,0:0:0:0:
192,192,539618,1,0,0:0:0:0:
320,192,539618,1,0,0:0:0:0:
448,192,539671,1,0,0:0:0:0:
64,192,539749,1,0,0:0:0:0:
192,192,539764,1,0,0:0:0:0:
320,192,539828,1,0,0:0:0:0:
64,192,539881,1,0,0:0:0:0:
448,192,539881,1,0,0:0:0:0:
192,192,539933,1,0,0:0:0:0:
320,192,539986,1,0,0:0:0:0:
448,192,540039,1,0,0:0:0:0:
192,192,540092,1,0,0:0:0:0:
320,192,540092,1,0,0:0:0:0:
64,192,540165,1,0,0:0:0:0:
192,192,540238,1,0,0:0:0:0:
320,192,540311,1,0,0:0:0:0:
448,192,540311,1,0,0:0:0:0:
64,192,540384,1,0,0:0:0:0:
192,192,540457,1,0,0:0:0:0:
320,192,540531,1,0,0:0:0:0:
448,192,540531,1,0,0:0:0:0:
64,192,540608,1,0,0:0:0:0:
192,192,540685,1,0,0:0:0:0:
320,192,540762,1,0,0:0:0:0:
448,192,540762,1,0,0:0:0:0:
64,192,540839,1,0,0:0:0:0:
192,192,540916,1,0,0:0:0:0:
448,192,541022,1,0,0:0:0:0:
192,192,541080,1,0,0:0:0:0:
320,192,541080,1,0,0:0:0:0:
64,192,541109,1,0,0:0:0:0:
64,192,541456,1,0,0:0:0:0:
192,192,541456,1,0,0:0:0:0:
320,192,541514,1,0,0:0:0:0:
320,192,541774,1,0,0:0:0:0:
448,192,541774,1,0,0:0:0:0:
320,192,541861,1,0,0:0:0:0:
448,192,541861,1,0,0:0:0:0:
192,192,541890,1,0,0:0:0:0:
64,192,541919,128,0,542035:0:0:0:0:
320,192,542035,128,0,542151:0:0:0:0:
192,192,542151,128,0,542266:0:0:0:0:
448,192,542266,128,0,542383:0:0:0:0:
192,192,542383,128,0,542468:0:0:0:0:
64,192,542468,128,0,542553:0:0:0:0:
192,192,542553,128,0,542638:0:0:0:0:
64,192,542638,128,0,542724:0:0:0:0:
192,192,542724,128,0,542809:0:0:0:0:
64,192,542809,128,0,542894:0:0:0:0:
192,192,542894,128,0,542980:0:0:0:0:
320,192,542916,1,0,0:0:0:0:
448,192,542916,1,0,0:0:0:0:
64,192,542980,128,0,543065:0:0:0:0:
320,192,543022,128,0,543236:0:0:0:0:
448,192,543022,128,0,543182:0:0:0:0:
192,192,543065,128,0,543236:0:0:0:0:
64,192,543150,128,0,544089:0:0:0:0:
448,192,543236,128,0,543662:0:0:0:0:
192,192,543662,128,0,544089:0:0:0:0:
448,192,544089,1,0,0:0:0:0:
