osu file format v14

[General]
AudioFilename: audio.mp3
AudioLeadIn: 0
PreviewTime: 62456
Countdown: 1
SampleSet: None
StackLeniency: 0.7
Mode: 0
LetterboxInBreaks: 0
WidescreenStoryboard: 1

[Editor]
DistanceSpacing: 1.2
BeatDivisor: 4
GridSize: 8
TimelineZoom: 1

[Metadata]
Title:Tachiagariyo (Tv Size)
TitleUnicode:Tachiagariyo (Tv Size)
Artist:T-Pistonz+KMC
ArtistUnicode:T-Pistonz+KMC
Creator:victorfernando
Version:Insane
Source:イナズマイレブン
Tags:Inazuma Eleven op 1 (Tv Size)
BeatmapID:1249228
BeatmapSetID:586026

[Difficulty]
HPDrainRate:7
CircleSize:4
OverallDifficulty:8
ApproachRate:9
SliderMultiplier:1.3
SliderTickRate:2

[Events]
//Background and Video events
Video,0,"Tachiagariyo.wmv"
0,0,"2724_Inazuma.Eleven.full.1168002.jpg",0,0
//Break Periods
2,35013,61856
//Storyboard Layer 0 (Background)
//Storyboard Layer 1 (Fail)
//Storyboard Layer 2 (Pass)
//Storyboard Layer 3 (Foreground)
//Storyboard Sound Samples

[TimingPoints]
735,428.571428571429,4,2,0,45,1,0
735,-133.333333333333,4,2,0,45,0,0
1163,-100,4,2,0,45,0,0
2449,-133.333333333333,4,2,0,45,0,0
3092,-100,4,2,0,45,0,0
7592,-66.6666666666667,4,2,0,45,0,0
11020,-66.6666666666667,4,2,1,45,0,0
13806,-66.6666666666667,4,2,1,34,0,0
14235,-66.6666666666667,4,2,1,45,0,0
17885,428.571428571429,4,2,88,40,1,0
17885,-83.3333333333333,4,2,88,40,0,0
33313,-66.6666666666667,4,2,88,40,0,0
62456,-66.6666666666667,4,2,88,40,0,1
70599,-83.3333333333333,4,2,1,40,0,1
72313,-83.3333333333333,4,2,88,40,0,1
86327,428.571428571429,4,2,88,45,1,0

[Colours]
Combo1 : 91,0,0
Combo2 : 249,124,0
Combo3 : 0,174,239
Combo4 : 242,242,0
Combo5 : 128,0,255
Combo6 : 0,255,128
Combo7 : 128,0,128
Combo8 : 230,0,0

[HitObjects]
80,48,735,6,0,B|64:96|64:96|80:160,1,97.50000371933,0|2,0:0|0:0,0:0:0:0:
160,208,1377,1,0,0:0:0:0:
256,160,1592,1,2,0:0:0:0:
304,256,1806,5,0,0:0:0:0:
304,256,1913,1,0,0:0:0:0:
304,256,2020,2,0,P|288:304|304:336,1,65,2|0,0:0|0:0,0:0:0:0:
448,56,2449,2,0,B|448:96|448:96|416:144,1,97.50000371933,2|2,0:0|0:0,0:0:0:0:
416,304,3092,2,0,L|416:239,1,65,0|2,0:0|0:0,0:0:0:0:
304,192,3520,2,0,B|240:208|240:208|160:208,1,130
112,144,4163,5,2,0:0:0:0:
224,64,4377,1,0,0:0:0:0:
224,64,4485,1,0,0:0:0:0:
224,64,4592,2,0,P|256:64|304:80,1,65,8|0,0:0|0:0,0:0:0:0:
336,160,5020,5,8,0:0:0:0:
224,240,5235,1,0,0:0:0:0:
224,240,5342,1,0,0:0:0:0:
224,240,5449,1,8,0:0:0:0:
64,176,5663,6,0,P|64:144|80:96,1,65,0|8,0:0|0:0,0:0:0:0:
176,32,6092,1,0,0:0:0:0:
272,96,6306,1,8,0:0:0:0:
272,96,6413,1,0,0:0:0:0:
272,96,6520,2,0,P|304:104|352:88,1,65
440,216,6949,1,0,0:0:0:0:
120,320,7592,6,0,B|136:272|136:272|136:192,1,97.50000371933
230,209,8020,2,0,B|182:225|182:225|102:225,1,97.50000371933
80,152,8449,2,0,B|128:120|128:120|192:128|192:128|256:88,1,195.00000743866
440,216,9092,5,0,0:0:0:0:
176,328,9306,1,8,0:0:0:0:
272,72,9735,2,0,B|304:72|304:72|352:72,3,48.750001859665,0|0|8|0,0:0|0:0|0:0|0:0,0:0:0:0:
104,320,10592,1,4,0:0:0:0:
352,256,11020,5,0,0:0:0:0:
416,144,11235,2,0,P|432:88|432:48,1,97.50000371933,0|8,0:0|0:0,0:0:0:0:
352,96,11556,1,0,0:0:0:0:
352,96,11663,2,0,P|296:104|248:96,1,97.50000371933
72,128,12092,6,0,P|56:184|64:232,1,97.50000371933,0|8,0:0|0:0,0:0:0:0:
88,296,12520,2,0,B|136:304|136:304|208:296,1,97.50000371933
224,232,12842,1,0,0:0:0:0:
224,232,12949,2,0,L|240:168,2,48.750001859665,0|0|8,0:0|0:0|0:0,0:0:0:0:
304,280,13377,6,0,P|352:288|400:272,1,97.50000371933
336,120,13806,2,0,P|352:168|344:232,1,97.50000371933,0|8,0:0|0:0,0:0:0:0:
88,320,14449,2,0,B|88:264|88:264|104:208,1,97.50000371933
184,104,14877,5,8,0:0:0:0:
184,104,14985,1,0,0:0:0:0:
184,104,15092,2,0,P|160:64|168:16,2,97.50000371933
304,208,15735,1,8,0:0:0:0:
304,208,15949,2,0,B|288:256|288:256|288:320,1,97.50000371933
416,336,16377,6,0,P|432:272|416:128,1,195.00000743866
352,88,17020,2,0,B|324:92|324:92|310:105|310:105|296:104|296:104|282:101|282:101|266:111|266:111|246:106|246:106|244:83|244:83|224:80|224:80|152:96,1,195.00000743866
72,136,17885,2,0,P|64:184|80:232,1,77.999997619629
123,269,18206,1,0,0:0:0:0:
123,269,18313,2,0,P|176:276|221:260,1,77.999997619629,8|0,0:0|0:0,0:0:0:0:
246,264,18635,5,0,0:0:0:0:
292,266,18742,1,0,0:0:0:0:
403,202,18956,2,0,P|412:152|406:109,1,77.999997619629,0|8,0:0|0:0,0:0:0:0:
334,153,19277,1,0,0:0:0:0:
403,202,19385,2,0,P|452:220|485:214,2,77.999997619629
321,238,20027,6,0,P|317:287|327:327,1,77.999997619629,8|0,0:0|0:0,0:0:0:0:
394,281,20349,1,0,0:0:0:0:
394,281,20456,1,0,0:0:0:0:
292,155,20670,2,0,B|298:107|298:107|292:66,1,77.999997619629,0|8,0:0|0:0,0:0:0:0:
105,165,21313,1,0,0:0:0:0:
105,165,21420,1,0,0:0:0:0:
105,165,21527,2,0,P|93:219|101:253,1,77.999997619629,0|8,0:0|0:0,0:0:0:0:
149,297,21849,5,0,0:0:0:0:
149,297,21956,2,0,P|209:297|252:284,1,77.999997619629
356,200,22385,1,0,0:0:0:0:
462,322,22599,1,8,0:0:0:0:
416,143,22813,1,0,0:0:0:0:
376,341,23027,1,0,0:0:0:0:
490,173,23242,5,0,0:0:0:0:
490,173,23349,1,0,0:0:0:0:
490,173,23456,2,0,L|485:258,1,77.999997619629,8|0,0:0|0:0,0:0:0:0:
322,251,23885,2,0,P|270:241|227:252,1,77.999997619629
154,309,24313,1,8,0:0:0:0:
58,102,24527,1,0,0:0:0:0:
413,69,25170,5,8,0:0:0:0:
343,261,25385,1,0,0:0:0:0:
490,111,25599,1,8,0:0:0:0:
274,207,25813,1,0,0:0:0:0:
145,80,26027,1,8,0:0:0:0:
174,294,26242,1,0,0:0:0:0:
259,88,26456,1,8,0:0:0:0:
88,208,26670,1,0,0:0:0:0:
259,88,26885,6,0,P|316:83|346:93,1,77.999997619629,8|0,0:0|0:0,0:0:0:0:
172,295,27313,2,0,P|222:306|270:291,1,77.999997619629,0|8,0:0|0:0,0:0:0:0:
333,275,27742,2,0,L|339:177,1,77.999997619629,8|0,0:0|0:0,0:0:0:0:
335,88,28170,5,8,0:0:0:0:
139,86,28385,1,0,0:0:0:0:
230,194,28599,1,8,0:0:0:0:
241,37,28813,1,0,0:0:0:0:
129,215,29027,1,8,0:0:0:0:
327,261,29242,1,0,0:0:0:0:
218,115,29456,1,8,0:0:0:0:
154,320,29670,1,0,0:0:0:0:
218,115,29885,6,0,P|271:106|304:126,1,77.999997619629,8|0,0:0|0:0,0:0:0:0:
386,175,30313,2,0,L|381:246,4,38.9999988098145,8|0|0|0|8,0:0|0:0|0:0|0:0|0:0,0:0:0:0:
225,326,31599,2,0,P|168:334|136:325,1,77.999997619629
103,271,31920,1,0,0:0:0:0:
103,271,32027,2,0,P|98:228|102:175,1,77.999997619629,8|0,0:0|0:0,0:0:0:0:
155,108,32456,5,8,0:0:0:0:
270,171,32670,1,0,0:0:0:0:
130,34,32885,1,8,0:0:0:0:
235,241,33099,1,0,0:0:0:0:
130,34,33313,6,0,P|207:25|259:49,1,97.50000371933
286,75,33635,1,0,0:0:0:0:
286,75,33742,2,0,P|290:135|285:177,1,97.50000371933,8|0,0:0|0:0,0:0:0:0:
215,273,34170,1,0,0:0:0:0:
77,157,34385,1,0,0:0:0:0:
215,273,34599,2,0,P|274:283|330:268,1,97.50000371933,8|0,0:0|0:0,0:0:0:0:
181,98,62456,6,0,P|171:165|185:197,1,97.50000371933,8|0,0:0|0:0,0:0:0:0:
298,285,62885,2,0,P|303:226|283:189,1,97.50000371933,8|0,0:0|0:0,0:0:0:0:
180,191,63313,2,0,P|166:261|194:308,1,97.50000371933,8|0,0:0|0:0,0:0:0:0:
296,284,63742,2,0,P|350:289|406:270,1,97.50000371933,8|0,0:0|0:0,0:0:0:0:
