osu file format v14

[General]
AudioFilename: audio.mp3
AudioLeadIn: 0
PreviewTime: 55906
Countdown: 0
SampleSet: Soft
StackLeniency: 0.7
Mode: 0
LetterboxInBreaks: 0
WidescreenStoryboard: 0

[Editor]
DistanceSpacing: 2.7
BeatDivisor: 4
GridSize: 32
TimelineZoom: 1.7

[Metadata]
Title:Apple Is A
TitleUnicode:Apple Is A
Artist:T-ara
ArtistUnicode:티아라
Creator:wajinshu
Version:So sweet ~
Source:
Tags:1집 1jib ABSOLUTE FIRST ALBUM Tiara K-Pop kpop Girl band Girlband 전보람 이큐리 박소연 함은정 박효민 박지연 Core Contents Media Komore
BeatmapID:1426677
BeatmapSetID:674229

[Difficulty]
HPDrainRate:6
CircleSize:3.5
OverallDifficulty:7
ApproachRate:8
SliderMultiplier:1.5
SliderTickRate:1

[Events]
//Background and Video events
0,0,"wpek.jpg",0,0
//Break Periods
2,86106,90450
2,100224,106333
//Storyboard Layer 0 (Background)
//Storyboard Layer 1 (Fail)
//Storyboard Layer 2 (Pass)
//Storyboard Layer 3 (Foreground)
//Storyboard Sound Samples

[TimingPoints]
319,441.176470588235,4,2,1,50,1,0
1201,441.176470588235,4,2,1,50,1,0
1201,-133.333333333333,4,2,1,50,0,0
6936,-117.647058823529,4,2,1,50,0,0
7377,-105.263157894737,4,2,1,50,0,0
8259,-111.111111111111,4,2,1,50,0,0
15318,-100,4,2,1,50,0,1
29436,-111.111111111111,4,2,1,50,0,0
42230,-100,4,2,1,50,0,0
42671,-90.9090909090909,4,2,1,50,0,0
43112,-83.3333333333333,4,2,1,50,0,0
43553,-100,4,2,1,50,0,0
56789,-90.9090909090909,4,2,1,50,0,0
57671,-100,4,2,1,50,0,1
71789,-100,4,2,1,50,0,1
73553,-90.9090909090909,4,2,1,50,0,1
84142,-100,4,2,1,50,0,1
85906,-111.111111111111,4,2,1,50,0,0
91200,-133.333333333333,4,2,1,50,0,0
91642,-117.647058823529,4,2,1,50,0,0
92083,-105.263157894737,4,2,1,50,0,0
92524,-100,4,2,1,50,0,0
92965,-90.9090909090909,4,2,1,50,0,1
100024,-133.333333333333,4,2,1,50,0,0
107083,-83.3333333333333,4,2,1,50,0,0
112377,-125,4,2,1,50,0,0

[Colours]
Combo1 : 140,236,255
Combo2 : 255,140,179
Combo3 : 145,229,103
Combo4 : 187,103,229

[HitObjects]
220,93,319,5,0,0:0:0:0:
187,110,539,1,0,0:0:0:0:
154,129,760,1,0,0:0:0:0:
121,147,980,1,0,0:0:0:0:
98,163,1201,6,0,P|110:233|115:301,1,112.500004291535,4|0,3:0|0:0,0:0:0:0:
292,93,2083,5,4,3:0:0:0:
325,110,2303,1,0,0:0:0:0:
358,129,2524,1,0,0:0:0:0:
391,147,2744,1,0,0:0:0:0:
414,163,2965,6,0,P|402:233|397:301,1,112.500004291535,4|0,3:0|0:0,0:0:0:0:
259,10,3848,5,4,3:0:0:0:
256,38,4067,1,0,0:0:0:0:
256,66,4288,1,0,0:0:0:0:
254,94,4508,1,0,0:0:0:0:
255,122,4730,6,0,P|217:114|132:106,1,112.500004291535,4|0,3:0|0:0,0:0:0:0:
15,277,5612,2,0,P|53:269|138:261,1,112.500004291535,4|0,3:0|0:0,0:0:0:0:
284,257,6495,6,0,L|271:217,3,28.1250010728836,2|0|0|0,0:0|0:0|0:0|0:0,0:0:0:0:
192,204,6936,2,0,L|179:164,3,31.8750006079674,2|0|0|0,0:0|0:0|0:0|0:0,0:0:0:0:
131,91,7377,2,0,L|118:51,7,35.6249990487099,2|0|0|0|0|0|0|0,0:0|0:0|0:0|0:0|0:0|0:0|0:0|0:0,0:0:0:0:
198,14,8259,6,0,P|217:54|234:101,1,67.4999979400635,6|0,0:0|0:0,0:0:0:0:
339,222,8700,2,0,P|353:184|370:147,1,67.4999979400635,2|0,0:0|0:0,0:0:0:0:
199,269,9142,2,0,P|218:309|235:356,1,67.4999979400635,2|0,0:0|0:0,0:0:0:0:
155,159,9583,1,2,0:0:0:0:
339,222,9803,2,0,P|349:190|364:159,1,67.4999979400635,2|0,0:0|0:0,0:0:0:0:
483,24,10244,5,0,0:0:0:0:
311,88,10465,1,2,0:0:0:0:
458,203,10686,1,0,0:0:0:0:
356,327,10906,2,0,B|301:312|301:312|219:334,1,134.999995880127,2|2,0:0|0:0,0:0:0:0:
97,228,11568,1,0,0:0:0:0:
239,121,11789,6,0,L|312:115,1,67.4999979400635,2|0,0:0|0:0,0:0:0:0:
164,233,12230,2,0,L|96:227,1,67.4999979400635,2|0,0:0|0:0,0:0:0:0:
234,43,12671,2,0,L|307:37,1,67.4999979400635,2|0,0:0|0:0,0:0:0:0:
479,174,13112,1,2,0:0:0:0:
455,33,13333,1,0,0:0:0:0:
302,159,13553,5,4,0:0:0:0:
231,228,14436,5,0,0:0:0:0:
284,336,14656,1,0,0:0:0:0:
349,242,14877,1,0,0:0:0:0:
178,322,15097,1,0,0:0:0:0:
302,159,15318,6,0,P|361:146|427:128,1,112.5,6|0,0:0|0:0,0:0:0:0:
484,115,15759,2,0,L|494:192,1,75,8|0,0:0|0:0,0:0:0:0:
385,48,16200,1,2,0:0:0:0:
370,255,16421,1,0,0:0:0:0:
296,76,16642,1,8,0:0:0:0:
269,272,16863,1,0,0:0:0:0:
128,164,17083,6,0,P|135:113|141:50,1,112.5,2|0,0:0|0:0,0:0:0:0:
201,7,17524,2,0,L|280:-1,1,75,8|0,0:0|0:0,0:0:0:0:
421,156,17965,1,2,0:0:0:0:
385,20,18186,1,0,0:0:0:0:
267,251,18406,1,8,0:0:0:0:
323,116,18627,1,0,0:0:0:0:
378,302,18848,6,0,P|435:286|519:266,1,112.5,2|0,0:0|0:0,0:0:0:0:
497,187,19289,2,0,P|442:173|388:158,1,112.5,8|0,0:0|0:0,0:0:0:0:
310,127,19730,6,0,P|298:71|293:16,1,112.5,2|0,0:0|0:0,0:0:0:0:
217,17,20171,2,0,P|210:72|200:128,1,112.5,8|0,0:0|0:0,0:0:0:0:
163,215,20612,6,0,P|117:175|115:88,1,150,2|8,0:0|0:0,0:0:0:0:
201,128,21274,1,0,0:0:0:0:
309,311,21495,5,2,0:0:0:0:
163,215,21715,1,0,0:0:0:0:
305,132,21936,5,8,0:0:0:0:
206,303,22156,1,0,0:0:0:0:
401,195,22377,6,0,P|390:127|382:55,1,112.5,6|0,0:0|0:0,0:0:0:0:
374,8,22818,2,0,L|299:19,1,75,8|0,0:0|0:0,0:0:0:0:
142,59,23259,2,0,L|165:197,1,112.5,2|0,0:0|0:0,0:0:0:0:
149,244,23700,2,0,P|108:236|63:228,1,75,8|0,0:0|0:0,0:0:0:0:
261,169,24142,5,2,0:0:0:0:
229,312,24362,1,0,0:0:0:0:
84,376,24583,2,0,P|90:306|96:238,1,112.5,8|0,0:0|0:0,0:0:0:0:
68,192,25024,2,0,P|62:122|54:36,1,150,2|8,0:0|0:0,0:0:0:0:
187,77,25686,1,0,0:0:0:0:
256,213,25906,6,0,P|182:200|138:194,1,112.5,2|0,0:0|0:0,0:0:0:0:
68,185,26348,1,8,0:0:0:0:
264,119,26568,1,0,0:0:0:0:
138,283,26789,1,2,0:0:0:0:
187,77,27009,1,0,0:0:0:0:
263,290,27230,1,8,0:0:0:0:
68,185,27450,1,0,0:0:0:0:
260,25,27671,6,0,P|330:18|354:13,1,75,2|0,0:0|0:0,0:0:0:0:
464,184,28112,2,0,P|426:178|389:176,1,75,8|0,0:0|0:0,0:0:0:0:
245,273,28553,2,0,P|259:327|261:363,1,75,2|0,0:0|0:0,0:0:0:0:
55,204,28995,2,0,P|59:166|70:131,1,75,8|0,0:0|0:0,0:0:0:0:
205,17,29436,1,0,0:0:0:0:
170,244,29877,5,2,0:0:0:0:
341,255,30098,1,0,0:0:0:0:
341,255,30208,1,0,0:0:0:0:
341,255,30318,1,2,0:0:0:0:
262,105,30539,1,0,0:0:0:0:
241,293,30759,1,2,0:0:0:0:
354,145,30980,1,0,0:0:0:0:
183,174,31200,6,0,P|116:154|19:141,1,134.999995880127,2|2,0:0|0:0,0:0:0:0:
262,105,31862,1,0,0:0:0:0:
341,255,32083,1,2,0:0:0:0:
283,92,32303,1,0,0:0:0:0:
365,240,32524,1,2,0:0:0:0:
306,80,32745,1,0,0:0:0:0:
385,233,32965,5,2,0:0:0:0:
183,174,33186,1,0,0:0:0:0:
183,174,33296,1,0,0:0:0:0:
183,174,33406,1,2,0:0:0:0:
294,283,33627,1,0,0:0:0:0:
294,283,33737,1,0,0:0:0:0:
294,283,33847,1,2,0:0:0:0:
292,125,34068,5,0,0:0:0:0:
402,4,34289,1,2,0:0:0:0:
301,202,34509,1,0,0:0:0:0:
234,0,34730,5,2,0:0:0:0:
163,146,34950,2,0,P|113:138|72:130,1,67.4999979400635,0|2,0:0|0:0,0:0:0:0:
6,231,35392,1,0,0:0:0:0:
189,63,35612,1,2,0:0:0:0:
216,267,35833,1,0,0:0:0:0:
216,267,35943,1,0,0:0:0:0:
216,267,36053,1,2,0:0:0:0:
333,131,36274,1,0,0:0:0:0:
340,327,36495,6,0,P|390:318|416:313,1,67.4999979400635,4|0,0:0|0:0,0:0:0:0:
216,267,36936,2,0,P|207:317|202:343,1,67.4999979400635,8|0,0:0|0:0,0:0:0:0:
331,199,37377,1,2,0:0:0:0:
172,173,37598,1,0,0:0:0:0:
309,42,37818,1,8,0:0:0:0:
266,137,38039,1,0,0:0:0:0:
116,70,38259,6,0,P|108:31|99:0,1,67.4999979400635,2|0,0:0|0:0,0:0:0:0:
164,182,38700,1,8,0:0:0:0:
14,68,38921,1,0,0:0:0:0:
245,104,39142,1,2,0:0:0:0:
57,149,39363,1,0,0:0:0:0:
217,15,39583,1,8,0:0:0:0:
164,182,39803,1,0,0:0:0:0:
326,38,40024,6,0,P|340:99|352:180,1,134.999995880127,2|8,0:0|0:0,0:0:0:0:
425,281,40686,2,0,L|450:218,1,67.4999979400635,0|2,0:0|0:0,0:0:0:0:
492,93,41127,1,0,0:0:0:0:
326,38,41348,1,8,0:0:0:0:
367,192,41568,1,0,0:0:0:0:
247,301,41789,6,0,L|157:279,1,67.4999979400635,6|0,0:0|0:0,0:0:0:0:
366,191,42230,2,0,L|294:209,1,75,10|0,0:0|0:0,0:0:0:0:
492,93,42671,6,0,L|402:71,1,82.5000025177003,2|0,0:0|0:0,0:0:0:0:
309,294,43112,2,0,L|397:272,1,89.9999972534181,10|0,0:0|0:0,0:0:0:0:
210,154,43553,6,0,P|203:204|198:283,1,112.5,6|0,0:0|0:0,0:0:0:0:
199,344,43995,2,0,P|138:335|113:331,1,75,8|0,0:0|0:0,0:0:0:0:
12,245,44436,1,2,0:0:0:0:
133,172,44656,1,0,0:0:0:0:
18,86,44877,1,8,0:0:0:0:
143,18,45098,1,0,0:0:0:0:
244,117,45318,6,0,P|263:169|274:224,1,112.5,2|0,0:0|0:0,0:0:0:0:
285,302,45759,2,0,L|365:297,1,75,8|0,0:0|0:0,0:0:0:0:
440,179,46200,2,0,P|453:137|458:102,1,75,2|0,0:0|0:0,0:0:0:0:
267,229,46642,2,0,P|273:265|284:301,1,75,8|0,0:0|0:0,0:0:0:0:
365,133,47083,6,0,P|280:127|236:119,1,112.5,2|0,0:0|0:0,0:0:0:0:
174,117,47524,2,0,P|183:155|191:194,1,75,8|0,0:0|0:0,0:0:0:0:
28,344,47965,1,2,0:0:0:0:
94,208,48186,1,0,0:0:0:0:
256,326,48406,1,8,0:0:0:0:
190,190,48627,1,0,0:0:0:0:
71,348,48848,6,0,P|65:290|48:215,1,112.5,2|0,0:0|0:0,0:0:0:0:
14,171,49289,2,0,P|17:129|17:88,1,75,8|0,0:0|0:0,0:0:0:0:
125,16,49730,1,2,0:0:0:0:
212,131,49950,2,0,P|220:167|226:204,1,75,0|8,0:0|0:0,0:0:0:0:
204,331,50392,1,0,0:0:0:0:
339,231,50612,6,0,P|384:222|430:220,1,75,6|0,0:0|0:0,0:0:0:0:
212,130,51053,2,0,P|220:167|226:204,1,75,8|0,0:0|0:0,0:0:0:0:
170,8,51494,1,2,0:0:0:0:
100,231,51715,2,0,P|64:223|27:218,1,75,0|8,0:0|0:0,0:0:0:0:
123,117,52156,1,0,0:0:0:0:
152,307,52377,6,0,P|204:296|237:293,1,75,6|0,0:0|0:0,0:0:0:0:
368,318,52818,1,8,0:0:0:0:
337,160,53039,2,0,P|341:116|347:84,1,75,0|2,0:0|0:0,0:0:0:0:
465,175,53480,1,0,0:0:0:0:
254,217,53700,1,8,0:0:0:0:
402,336,53921,1,0,0:0:0:0:
346,85,54142,5,6,0:0:0:0:
256,192,54252,12,4,55906,0:0:0:0:
299,197,56789,5,0,0:0:0:0:
258,299,57009,1,0,0:0:0:0:
375,374,57230,1,0,0:0:0:0:
334,272,57450,1,0,0:0:0:0:
210,159,57671,6,0,P|154:141|85:128,1,112.5,6|0,0:0|0:0,0:0:0:0:
21,116,58112,2,0,P|27:73|37:29,1,75,8|0,0:0|0:0,0:0:0:0:
48,204,58553,1,2,0:0:0:0:
166,353,58774,1,0,0:0:0:0:
101,130,58995,1,8,0:0:0:0:
225,285,59216,1,0,0:0:0:0:
337,160,59436,6,0,L|466:137,1,112.5,2|0,0:0|0:0,0:0:0:0:
490,209,59877,2,0,L|506:289,1,75,8|0,0:0|0:0,0:0:0:0:
348,350,60318,1,2,0:0:0:0:
189,178,60539,1,0,0:0:0:0:
327,331,60759,1,8,0:0:0:0:
210,159,60980,1,0,0:0:0:0:
390,34,61200,6,0,P|406:94|415:163,1,112.5,2|0,0:0|0:0,0:0:0:0:
296,219,61642,2,0,P|304:163|319:109,1,112.5,8|0,0:0|0:0,0:0:0:0:
196,42,62083,6,0,P|212:102|221:171,1,112.5,2|0,0:0|0:0,0:0:0:0:
99,226,62524,2,0,P|107:171|123:117,1,112.5,8|0,0:0|0:0,0:0:0:0:
196,241,62965,6,0,P|255:235|312:160,1,150,2|8,0:0|0:0,0:0:0:0:
219,151,63627,1,0,0:0:0:0:
215,330,63848,5,2,0:0:0:0:
366,237,64068,1,0,0:0:0:0:
219,151,64289,5,8,0:0:0:0:
318,322,64509,1,0,0:0:0:0:
384,138,64730,6,0,L|418:31,1,112.5,6|0,0:0|0:0,0:0:0:0:
328,17,65171,2,0,P|278:20|238:23,1,75,8|0,0:0|0:0,0:0:0:0:
139,121,65612,2,0,L|162:259,1,112.5,2|0,0:0|0:0,0:0:0:0:
146,311,66053,2,0,P|101:298|57:286,1,75,8|0,0:0|0:0,0:0:0:0:
244,266,66495,5,2,0:0:0:0:
338,369,66716,1,0,0:0:0:0:
414,227,66936,2,0,P|441:151|465:106,1,112.5,8|0,0:0|0:0,0:0:0:0:
397,69,67377,2,0,P|335:62|242:42,1,150,2|8,0:0|0:0,0:0:0:0:
109,9,68039,1,0,0:0:0:0:
102,215,68259,6,0,P|176:202|220:196,1,112.5,2|0,0:0|0:0,0:0:0:0:
298,193,68701,1,8,0:0:0:0:
102,127,68921,1,0,0:0:0:0:
228,291,69142,5,2,0:0:0:0:
179,85,69362,1,0,0:0:0:0:
103,298,69583,5,8,0:0:0:0:
298,193,69803,1,0,0:0:0:0:
78,195,70024,6,0,P|90:121|106:47,1,150,2|8,0:0|0:0,0:0:0:0:
232,6,70686,1,0,0:0:0:0:
364,212,70906,5,2,0:0:0:0:
512,10,71127,1,0,0:0:0:0:
252,138,71348,5,8,0:0:0:0:
499,236,71568,1,0,0:0:0:0:
330,349,71789,6,0,B|247:303|183:283,1,150,6|8,0:0|0:0,0:0:0:0:
499,236,72450,1,0,0:0:0:0:
335,38,72671,5,2,0:0:0:0:
157,176,72892,1,0,0:0:0:0:
399,275,73112,5,8,0:0:0:0:
206,61,73333,1,0,0:0:0:0:
41,280,73553,6,0,B|90:252|90:252|201:289,1,165.000005035401
386,372,74215,1,0,0:0:0:0:
322,187,74436,1,2,0:0:0:0:
285,293,74656,1,0,0:0:0:0:
233,91,74877,1,8,0:0:0:0:
196,197,75097,1,0,0:0:0:0:
364,282,75318,6,0,P|373:221|354:164,1,123.75000377655,2|0,0:0|0:0,0:0:0:0:
452,160,75759,2,0,P|424:106|374:71,1,123.75000377655,8|0,0:0|0:0,0:0:0:0:
289,67,76200,6,0,P|247:112|231:171,1,123.75000377655,2|0,0:0|0:0,0:0:0:0:
148,119,76642,2,0,P|140:179|162:237,1,123.75000377655,8|0,0:0|0:0,0:0:0:0:
229,326,77083,6,0,B|252:329|268:351|268:351|210:375|130:351,1,165.000005035401,2|8,0:0|0:0,0:0:0:0:
63,265,77745,1,0,0:0:0:0:
245,131,77965,5,2,0:0:0:0:
32,49,78186,1,0,0:0:0:0:
149,186,78406,5,8,0:0:0:0:
106,0,78627,1,0,0:0:0:0:
48,186,78848,6,0,P|61:243|69:320,1,123.75000377655,6|0,0:0|0:0,0:0:0:0:
125,359,79289,2,0,P|177:347|209:342,1,82.5000025177003,8|0,0:0|0:0,0:0:0:0:
362,310,79730,2,0,P|368:248|382:188,1,123.75000377655,2|0,0:0|0:0,0:0:0:0:
416,118,80171,1,8,0:0:0:0:
341,14,80392,1,0,0:0:0:0:
276,158,80612,6,0,P|226:142|185:121,1,82.5000025177003,2|0,0:0|0:0,0:0:0:0:
65,233,81053,2,0,P|115:217|156:196,1,82.5000025177003,8|0,0:0|0:0,0:0:0:0:
317,335,81495,2,0,P|270:319|156:302,1,165.000005035401,2|8,0:0|0:0,0:0:0:0:
6,340,82156,1,0,0:0:0:0:
33,113,82377,6,0,P|53:178|67:245,1,123.75000377655,2|0,0:0|0:0,0:0:0:0:
82,311,82818,1,8,0:0:0:0:
208,200,83039,1,0,0:0:0:0:
33,113,83259,5,2,0:0:0:0:
156,302,83480,1,0,0:0:0:0:
143,80,83700,5,8,0:0:0:0:
64,232,83921,1,0,0:0:0:0:
234,126,84142,6,0,P|341:106|406:91,1,150,2|8,0:0|0:0,0:0:0:0:
502,30,84803,1,0,0:0:0:0:
475,234,85024,2,0,P|460:199|449:163,1,75,2|0,0:0|0:0,0:0:0:0:
293,285,85465,2,0,P|305:249|321:215,1,75,8|0,0:0|0:0,0:0:0:0:
381,96,85906,5,2,0:0:0:0:
381,353,91200,6,0,L|347:314,3,28.1250010728836,2|0|0|0,0:0|0:0|0:0|0:0,0:0:0:0:
269,344,91642,2,0,L|239:305,3,31.8750006079674,2|0|0|0,0:0|0:0|0:0|0:0,0:0:0:0:
154,302,92083,2,0,L|141:252,3,35.6249990487099,2|0|0|0,0:0|0:0|0:0|0:0,0:0:0:0:
69,210,92524,2,0,L|60:160,3,37.5,2|0|0|0,0:0|0:0|0:0|0:0,0:0:0:0:
129,113,92965,6,0,P|172:104|235:101,1,82.5000025177003,6|0,0:0|0:0,0:0:0:0:
156,311,93406,2,0,P|114:307|74:298,1,82.5000025177003,8|0,0:0|0:0,0:0:0:0:
300,131,93848,2,0,P|321:174|333:223,1,82.5000025177003,2|0,0:0|0:0,0:0:0:0:
339,377,94288,1,8,0:0:0:0:
156,311,94509,6,0,L|166:226,1,82.5000025177003,0|2,0:0|0:0,0:0:0:0:
199,75,94950,1,0,0:0:0:0:
43,157,95171,2,0,L|52:238,1,82.5000025177003,8|0,0:0|0:0,0:0:0:0:
327,126,95612,2,0,B|275:91|218:120|218:120|210:89|183:55,1,165.000005035401,2|8,0:0|0:0,0:0:0:0:
165,229,96273,1,0,0:0:0:0:
229,345,96495,6,0,P|288:332|361:316,1,123.75000377655,2|0,0:0|0:0,0:0:0:0:
430,319,96936,1,8,0:0:0:0:
294,196,97156,1,0,0:0:0:0:
505,260,97377,5,2,0:0:0:0:
349,318,97598,1,0,0:0:0:0:
406,112,97818,5,8,0:0:0:0:
430,319,98039,1,0,0:0:0:0:
215,257,98259,6,0,P|200:181|179:90,2,165.000005035401,2|8|2,0:0|0:0|0:0,0:0:0:0:
91,140,99362,1,0,0:0:0:0:
253,27,99583,1,10,0:0:0:0:
55,42,99803,1,0,0:0:0:0:
228,135,100024,5,2,0:0:0:0:
78,162,107083,6,0,P|111:201|139:249,1,89.9999972534181,6|0,0:0|0:0,0:0:0:0:
189,297,107414,2,0,P|213:259|242:225,1,89.9999972534181,2|0,0:0|0:0,0:0:0:0:
313,176,107745,1,2,0:0:0:0:
417,303,107965,1,2,0:0:0:0:
487,173,108186,1,0,0:0:0:0:
487,173,108296,1,0,0:0:0:0:
487,173,108406,2,0,P|493:118|499:80,1,89.9999972534181,8|0,0:0|0:0,0:0:0:0:
331,238,108848,6,0,P|283:231|242:224,1,89.9999972534181,2|0,0:0|0:0,0:0:0:0:
177,279,109178,2,0,P|129:286|88:293,1,89.9999972534181,2|0,0:0|0:0,0:0:0:0:
24,243,109509,1,2,0:0:0:0:
153,201,109730,1,2,0:0:0:0:
227,74,109950,6,0,P|245:103|261:131,1,44.999998626709,2|0,0:0|0:0,0:0:0:0:
314,56,110171,2,0,P|332:85|345:114,1,44.999998626709,10|0,0:0|0:0,0:0:0:0:
405,42,110392,2,0,P|423:71|437:94,1,44.999998626709,2|0,0:0|0:0,0:0:0:0:
444,171,110612,6,0,P|416:224|408:264,1,89.9999972534181,2|0,0:0|0:0,0:0:0:0:
359,323,110943,2,0,L|266:301,1,89.9999972534181,2|0,0:0|0:0,0:0:0:0:
187,281,111274,1,2,0:0:0:0:
294,92,111495,6,0,P|305:145|313:187,1,89.9999972534181,2|0,0:0|0:0,0:0:0:0:
187,281,111936,1,10,0:0:0:0:
195,125,112156,1,0,0:0:0:0:
389,17,112377,6,0,P|403:113|409:151,1,120,6|0,0:0|0:0,0:0:0:0:
468,201,113039,2,0,P|482:297|488:335,1,120
