osu file format v14

[General]
AudioFilename: audio.mp3
AudioLeadIn: 0
PreviewTime: 55906
Countdown: 0
SampleSet: Soft
StackLeniency: 0.7
Mode: 0
LetterboxInBreaks: 0
WidescreenStoryboard: 0

[Editor]
Bookmarks: 100024
DistanceSpacing: 1.3
BeatDivisor: 4
GridSize: 32
TimelineZoom: 2.1

[Metadata]
Title:Apple Is A
TitleUnicode:Apple Is A
Artist:T-ara
ArtistUnicode:티아라
Creator:wajinshu
Version:Normal
Source:
Tags:1집 1jib ABSOLUTE FIRST ALBUM Tiara K-Pop kpop Girl band Girlband 전보람 이큐리 박소연 함은정 박효민 박지연 Core Contents Media Komore
BeatmapID:1432094
BeatmapSetID:674229

[Difficulty]
HPDrainRate:4
CircleSize:3.5
OverallDifficulty:4
ApproachRate:4
SliderMultiplier:1.2
SliderTickRate:1

[Events]
//Background and Video events
0,0,"wpek.jpg",0,0
//Break Periods
2,86106,89880
2,100224,105763
//Storyboard Layer 0 (Background)
//Storyboard Layer 1 (Fail)
//Storyboard Layer 2 (Pass)
//Storyboard Layer 3 (Foreground)
//Storyboard Sound Samples

[TimingPoints]
319,441.176470588235,4,2,1,50,1,0
1201,441.176470588235,4,2,1,50,1,0
15318,-100,4,2,1,50,0,1
29436,-100,4,2,1,50,0,0
57671,-100,4,2,1,50,0,1
85906,-100,4,2,1,50,0,0
92965,-100,4,2,1,50,0,1
100024,-100,4,2,1,50,0,0
107083,-100,4,2,1,50,0,0

[Colours]
Combo1 : 140,236,255
Combo2 : 255,140,179
Combo3 : 145,229,103
Combo4 : 187,103,229

[HitObjects]
137,114,319,6,0,P|100:87|75:66,2,60,0|0|0,0:0|0:0|0:0,0:0:0:0:
209,143,980,1,0,0:0:0:0:
277,104,1201,6,0,P|341:94|423:83,1,120,4|0,3:0|0:0,0:0:0:0:
491,209,2083,2,0,P|487:179|478:150,2,60,4|0|0,3:0|0:0|0:0,0:0:0:0:
457,279,2745,1,0,0:0:0:0:
380,266,2965,2,0,P|367:326|358:403,1,120,4|0,3:0|0:0,0:0:0:0:
261,262,3848,6,0,P|217:254|190:249,1,60,4|0,3:0|0:0,0:0:0:0:
144,303,4289,2,0,P|114:308|84:313,1,60,0|0,0:0|0:0,0:0:0:0:
6,315,4730,2,0,P|16:228|20:175,1,120,4|0,3:0|0:0,0:0:0:0:
172,168,5612,2,0,P|179:108|184:48,1,120,4|0,3:0|0:0,0:0:0:0:
256,192,6495,12,6,8259,0:0:0:0:
254,381,9142,5,2,0:0:0:0:
402,325,9583,2,0,P|382:292|371:267,1,60,2|0,0:0|0:0,0:0:0:0:
356,196,10024,5,2,0:0:0:0:
219,128,10465,1,2,0:0:0:0:
100,234,10906,2,0,P|166:241|242:258,1,120,2|2,0:0|0:0,0:0:0:0:
364,309,11789,5,2,0:0:0:0:
497,222,12230,2,0,P|490:156|473:80,1,120,2|2,0:0|0:0,0:0:0:0:
346,21,13112,2,0,P|340:74|340:96,1,60,2|0,0:0|0:0,0:0:0:0:
366,154,13553,1,6,0:0:0:0:
112,334,14436,6,0,P|106:304|98:275,1,60,0|0,0:0|0:0,0:0:0:0:
51,213,14877,2,0,P|49:183|48:153,1,60,0|0,0:0|0:0,0:0:0:0:
125,133,15318,6,0,L|245:120,1,120,6|8,0:0|0:0,0:0:0:0:
372,208,16200,2,0,P|383:170|386:142,1,60,2|0,0:0|0:0,0:0:0:0:
464,148,16642,2,0,P|468:177|477:206,1,60,8|0,0:0|0:0,0:0:0:0:
504,279,17083,6,0,P|464:284|375:298,1,120,2|8,0:0|0:0,0:0:0:0:
232,265,17965,2,0,P|188:256|165:249,1,60,2|0,0:0|0:0,0:0:0:0:
95,257,18406,2,0,P|51:248|28:241,1,60,8|0,0:0|0:0,0:0:0:0:
30,165,18848,6,0,P|45:103|55:42,1,120,2|8,0:0|0:0,0:0:0:0:
210,46,19730,2,0,P|220:105|234:163,1,120,2|8,0:0|0:0,0:0:0:0:
295,306,20612,5,2,0:0:0:0:
151,244,21053,1,8,0:0:0:0:
302,206,21495,2,0,L|374:168,1,60,2|0,0:0|0:0,0:0:0:0:
429,153,21936,2,0,L|449:95,1,60,8|0,0:0|0:0,0:0:0:0:
407,29,22377,6,0,L|279:36,1,120,6|8,0:0|0:0,0:0:0:0:
170,138,23259,2,0,L|42:145,1,120,2|8,0:0|0:0,0:0:0:0:
141,271,24142,6,0,L|269:278,1,120,2|8,0:0|0:0,0:0:0:0:
372,168,25024,2,0,P|389:123|281:152,1,240,2|2,0:0|0:0,0:0:0:0:
262,298,26348,6,0,L|322:290,2,60,8|0|2,0:0|0:0|0:0,0:0:0:0:
185,311,27009,1,0,0:0:0:0:
130,254,27230,2,0,P|103:213|89:197,1,60,8|0,0:0|0:0,0:0:0:0:
52,139,27671,6,0,P|29:54|126:95,1,240,2|2,0:0|0:0,0:0:0:0:
177,244,28995,1,8,0:0:0:0:
298,145,29436,6,0,P|276:88|250:34,1,120,0|2,0:0|0:0,0:0:0:0:
130,134,30318,2,0,P|159:195|180:253,1,120,2|2,0:0|0:0,0:0:0:0:
304,334,31200,6,0,P|325:277|351:223,1,120,2|2,0:0|0:0,0:0:0:0:
386,154,31862,2,0,P|420:159|451:164,2,60,0|2|0,0:0|0:0|0:0,0:0:0:0:
334,95,32524,2,0,L|261:100,2,60,2|0|2,0:0|0:0|0:0,0:0:0:0:
192,30,33406,6,0,L|56:34,1,120,2|2,0:0|0:0,0:0:0:0:
2,173,34288,1,2,0:0:0:0:
154,140,34730,6,0,P|167:203|175:272,1,120,2|2,0:0|0:0,0:0:0:0:
219,321,35392,2,0,L|279:313,2,60,0|2|0,0:0|0:0|0:0,0:0:0:0:
149,355,36053,2,0,P|108:344|75:335,1,60,2|0,0:0|0:0,0:0:0:0:
19,307,36495,6,0,L|23:166,1,120,6|8,0:0|0:0,0:0:0:0:
146,92,37377,2,0,P|228:80|284:82,1,120,2|8,0:0|0:0,0:0:0:0:
419,97,38259,5,2,0:0:0:0:
327,223,38700,1,8,0:0:0:0:
192,302,39142,2,0,P|124:290|68:285,1,120,2|8,0:0|0:0,0:0:0:0:
144,146,40024,6,0,P|200:141|270:138,1,120,2|8,0:0|0:0,0:0:0:0:
331,177,40686,2,0,P|387:172|457:169,1,120,0|0,0:0|0:0,0:0:0:0:
505,225,41348,1,8,0:0:0:0:
367,297,41789,6,0,P|354:338|350:364,1,60,6|0,0:0|0:0,0:0:0:0:
272,354,42230,2,0,P|265:324|256:296,1,60,10|0,0:0|0:0,0:0:0:0:
177,293,42671,2,0,P|164:334|160:360,1,60,2|0,0:0|0:0,0:0:0:0:
82,350,43112,2,0,P|75:320|66:292,1,60,10|0,0:0|0:0,0:0:0:0:
48,216,43553,6,0,P|48:134|45:90,1,120,6|8,0:0|0:0,0:0:0:0:
199,69,44436,2,0,L|284:65,1,60,2|0,0:0|0:0,0:0:0:0:
328,101,44877,2,0,L|413:97,1,60,8|0,0:0|0:0,0:0:0:0:
437,158,45318,6,0,P|423:244|419:279,1,120,2|8,0:0|0:0,0:0:0:0:
265,301,46200,2,0,P|221:287|197:282,1,60,2|0,0:0|0:0,0:0:0:0:
144,236,46642,2,0,P|100:222|76:217,1,60,8|0,0:0|0:0,0:0:0:0:
23,264,47083,6,0,P|35:339|42:390,1,120,2|8,0:0|0:0,0:0:0:0:
190,338,47965,2,0,P|221:296|230:286,1,60,2|0,0:0|0:0,0:0:0:0:
264,222,48406,2,0,P|233:180|224:170,1,60,8|0,0:0|0:0,0:0:0:0:
184,108,48848,6,0,P|95:91|50:84,1,120,2|8,0:0|0:0,0:0:0:0:
209,24,49730,1,2,0:0:0:0:
333,117,50171,1,8,0:0:0:0:
328,272,50612,6,0,P|284:259|189:244,1,120,6|8,0:0|0:0,0:0:0:0:
112,124,51495,2,0,P|171:133|228:150,1,120,2|8,0:0|0:0,0:0:0:0:
379,108,52377,5,6,0:0:0:0:
239,33,52818,1,8,0:0:0:0:
112,124,53259,2,0,P|92:195|81:250,1,120,2|8,0:0|0:0,0:0:0:0:
218,317,54142,1,6,0:0:0:0:
256,192,54252,12,4,55906,0:0:0:0:
157,220,56789,6,0,P|183:202|210:176,1,60
193,105,57230,2,0,P|219:87|246:61,1,60
299,17,57671,6,0,L|432:12,1,120,6|8,0:0|0:0,0:0:0:0:
479,156,58553,2,0,P|491:188|498:222,1,60,2|0,0:0|0:0,0:0:0:0:
432,257,58995,2,0,P|420:289|413:323,1,60,8|0,0:0|0:0,0:0:0:0:
338,334,59436,6,0,P|254:316|206:311,1,120,2|8,0:0|0:0,0:0:0:0:
70,268,60318,2,0,P|62:213|56:183,1,60,2|0,0:0|0:0,0:0:0:0:
107,145,60759,2,0,P|99:90|93:60,1,60,8|0,0:0|0:0,0:0:0:0:
161,40,61200,6,0,L|287:38,1,120,2|8,0:0|0:0,0:0:0:0:
390,149,62083,2,0,L|264:147,1,120,2|8,0:0|0:0,0:0:0:0:
142,236,62965,5,2,0:0:0:0:
259,338,63406,1,8,0:0:0:0:
327,197,63848,2,0,P|337:147|343:118,1,60,2|0,0:0|0:0,0:0:0:0:
416,131,64289,2,0,P|421:160|427:189,1,60,8|0,0:0|0:0,0:0:0:0:
384,254,64730,6,0,P|378:330|376:381,1,120,6|8,0:0|0:0,0:0:0:0:
220,373,65612,2,0,P|217:313|212:253,1,120,2|8,0:0|0:0,0:0:0:0:
79,170,66495,6,0,P|73:229|71:289,1,120,2|8,0:0|0:0,0:0:0:0:
174,172,67377,2,0,P|154:111|4:116,1,240,2|2,0:0|0:0,0:0:0:0:
6,271,68700,6,0,L|0:330,2,60,8|0|2,0:0|0:0|0:0,0:0:0:0:
73,231,69362,1,0,0:0:0:0:
151,231,69583,2,0,L|216:239,1,60,8|0,0:0|0:0,0:0:0:0:
288,238,70024,6,0,P|283:154|278:94,1,120,2|8,0:0|0:0,0:0:0:0:
171,6,70906,2,0,L|94:-3,1,60,2|0,0:0|0:0,0:0:0:0:
80,71,71348,2,0,L|2:77,1,60,8|0,0:0|0:0,0:0:0:0:
13,153,71789,6,0,L|13:273,1,120,6|8,0:0|0:0,0:0:0:0:
148,349,72671,2,0,L|139:272,1,60,2|0,0:0|0:0,0:0:0:0:
213,258,73113,2,0,L|219:180,1,60,8|0,0:0|0:0,0:0:0:0:
269,139,73554,6,0,L|389:139,1,120,6|8,0:0|0:0,0:0:0:0:
453,281,74436,2,0,P|469:252|484:227,2,60,2|0|8,0:0|0:0|0:0,0:0:0:0:
388,324,75098,1,0,0:0:0:0:
315,353,75318,6,0,P|234:344|172:336,1,120,2|8,0:0|0:0,0:0:0:0:
84,230,76200,2,0,P|93:149|101:87,1,120,2|8,0:0|0:0,0:0:0:0:
233,32,77083,5,2,0:0:0:0:
378,89,77524,1,8,0:0:0:0:
273,204,77965,2,0,L|252:260,1,60,2|0,0:0|0:0,0:0:0:0:
198,317,78406,2,0,P|158:288|136:271,1,60,8|0,0:0|0:0,0:0:0:0:
73,261,78848,6,0,P|60:317|50:388,1,120,6|8,0:0|0:0,0:0:0:0:
198,317,79730,2,0,P|189:257|175:199,1,120,2|8,0:0|0:0,0:0:0:0:
128,50,80612,6,0,P|212:41|257:42,1,120,2|8,0:0|0:0,0:0:0:0:
390,103,81495,2,0,B|359:159|393:233|393:233|352:203|282:211,1,240,2|2,0:0|0:0,0:0:0:0:
141,173,82818,6,0,P|136:143|131:113,2,60,8|0|2,0:0|0:0|0:0,0:0:0:0:
134,250,83480,1,0,0:0:0:0:
195,297,83700,2,0,P|249:294|281:293,1,60,8|0,0:0|0:0,0:0:0:0:
323,331,84142,6,0,P|332:273|298:226,1,120,2|8,0:0|0:0,0:0:0:0:
190,112,85024,2,0,P|176:63|167:41,2,60,2|0|8,0:0|0:0|0:0,0:0:0:0:
163,185,85686,1,0,0:0:0:0:
86,171,85906,5,2,0:0:0:0:
256,192,91200,12,6,92965,0:0:0:0:
258,212,93848,6,0,P|266:160|268:92,1,120,2|8,0:0|0:0,0:0:0:0:
128,161,94730,2,0,P|129:220|138:280,1,120,2|8,0:0|0:0,0:0:0:0:
281,341,95612,2,0,B|334:295|395:314|395:314|396:246|469:199,1,240,2|2,0:0|0:0,0:0:0:0:
376,75,96936,6,0,P|359:46|344:20,2,60,8|0|2,0:0|0:0|0:0,0:0:0:0:
327,135,97597,1,0,0:0:0:0:
256,168,97818,2,0,P|194:158|175:157,1,60,8|0,0:0|0:0,0:0:0:0:
119,167,98259,6,0,P|132:235|142:300,1,120,2|8,0:0|0:0,0:0:0:0:
288,333,99142,2,0,P|320:326|353:320,1,60,2|0,0:0|0:0,0:0:0:0:
390,256,99583,2,0,P|422:249|455:243,1,60,10|0,0:0|0:0,0:0:0:0:
491,178,100024,1,6,0:0:0:0:
157,112,107083,6,0,P|181:167|192:206,2,90,6|2|2,0:0|0:0|0:0,0:0:0:0:
139,35,107965,2,0,P|243:28|283:27,1,120,2|8,0:0|0:0,0:0:0:0:
387,115,108848,2,0,P|447:110|498:106,2,90,2|2|2,0:0|0:0|0:0,0:0:0:0:
311,136,109730,2,0,P|328:198|344:262,1,120,2|10,0:0|0:0,0:0:0:0:
191,295,110612,6,0,P|195:243|203:177,2,90,2|2|2,0:0|0:0|0:0,0:0:0:0:
132,347,111495,1,2,0:0:0:0:
55,211,111936,1,10,0:0:0:0:
163,99,112377,6,0,B|215:109|293:92,1,120,6|0,0:0|0:0,0:0:0:0:
359,85,113039,2,0,P|366:135|380:213,1,120
