osu file format v14

[General]
AudioFilename: audio.mp3
AudioLeadIn: 0
PreviewTime: 55906
Countdown: 0
SampleSet: Soft
StackLeniency: 0.4
Mode: 0
LetterboxInBreaks: 0
WidescreenStoryboard: 0

[Editor]
Bookmarks: 43553,57671,85906
DistanceSpacing: 1.3
BeatDivisor: 4
GridSize: 32
TimelineZoom: 2.299999

[Metadata]
Title:Apple Is A
TitleUnicode:Apple Is A
Artist:T-ara
ArtistUnicode:티아라
Creator:wajinshu
Version:Collab Hard
Source:
Tags:1집 1jib ABSOLUTE FIRST ALBUM Tiara K-Pop kpop Girl band Girlband 전보람 이큐리 박소연 함은정 박효민 박지연 Core Contents Media Komore
BeatmapID:1432365
BeatmapSetID:674229

[Difficulty]
HPDrainRate:5
CircleSize:4
OverallDifficulty:6
ApproachRate:7
SliderMultiplier:1.4
SliderTickRate:1

[Events]
//Background and Video events
0,0,"wpek.jpg",0,0
//Break Periods
2,86106,90300
2,100224,106183
//Storyboard Layer 0 (Background)
//Storyboard Layer 1 (Fail)
//Storyboard Layer 2 (Pass)
//Storyboard Layer 3 (Foreground)
//Storyboard Sound Samples

[TimingPoints]
319,441.176470588235,4,2,1,50,1,0
1201,441.176470588235,4,2,1,50,1,0
15318,-100,4,2,1,50,0,1
29436,-133.333333333333,4,2,1,50,0,0
36715,-111.111111111111,4,2,1,50,0,0
56789,-100,4,2,1,50,0,0
57671,-100,4,2,1,50,0,1
85906,-100,4,2,1,50,0,0
92965,-100,4,2,1,50,0,1
100024,-100,4,2,1,50,0,0
107083,-100,4,2,1,50,0,0
112377,-100,4,2,1,50,0,0

[Colours]
Combo1 : 140,236,255
Combo2 : 255,140,179
Combo3 : 145,229,103
Combo4 : 187,103,229

[HitObjects]
65,91,319,6,0,P|79:124|85:158,1,70,0|0,0:0|0:0,0:0:0:0:
149,223,760,2,0,P|143:257|126:287,1,70,0|0,0:0|0:0,0:0:0:0:
64,355,1201,2,0,P|143:293|239:327,1,210,4|0,3:0|0:0,0:0:0:0:
324,358,2083,6,0,P|358:352|393:346,1,70,4|0,3:0|0:0,0:0:0:0:
480,373,2524,2,0,P|486:319|476:290,1,70,0|0,0:0|0:0,0:0:0:0:
423,231,2965,2,0,B|300:211|333:279|220:259,1,210,4|0,3:0|0:0,0:0:0:0:
149,201,3848,6,0,P|150:166|156:131,1,70,4|0,3:0|0:0,0:0:0:0:
61,79,4289,2,0,P|66:113|68:148,1,70,0|0,0:0|0:0,0:0:0:0:
149,201,4730,2,0,P|210:163|285:192,1,140,4|0,3:0|0:0,0:0:0:0:
306,336,5612,2,0,P|245:374|170:345,1,140,4|0,3:0|0:0,0:0:0:0:
432,208,6495,6,0,L|420:155,3,35,2|0|0|0,0:0|0:0|0:0|0:0,0:0:0:0:
452,137,6936,2,0,L|439:82,3,35,2|0|0|0,0:0|0:0|0:0|0:0,0:0:0:0:
407,75,7377,2,0,L|346:94,7,35,2|0|0|0|2|0|0|0,0:0|0:0|0:0|0:0|0:0|0:0|0:0|0:0,0:0:0:0:
331,101,8259,6,0,P|253:110|210:68,1,140,6|2,0:0|0:0,0:0:0:0:
130,28,8921,1,0,0:0:0:0:
85,107,9142,2,0,P|95:173|101:202,1,70,2|0,0:0|0:0,0:0:0:0:
43,250,9583,1,2,0:0:0:0:
111,309,9803,6,0,P|152:293|183:295,1,70,0|2,0:0|0:0,0:0:0:0:
251,347,10245,1,0,0:0:0:0:
324,293,10465,2,0,B|331:257|331:257|318:218,1,70,2|0,0:0|0:0,0:0:0:0:
269,149,10906,2,0,B|321:130|359:147|359:147|386:130|383:90,1,140,2|2,0:0|0:0,0:0:0:0:
332,31,11568,1,0,0:0:0:0:
248,68,11789,6,0,P|178:61|108:54,1,140,2|2,0:0|0:0,0:0:0:0:
43,117,12450,1,0,0:0:0:0:
91,194,12671,2,0,P|146:187|169:163,1,70,2|0,0:0|0:0,0:0:0:0:
230,127,13112,1,2,0:0:0:0:
295,190,13333,6,0,B|308:223|308:223|301:264,1,70,0|6,0:0|0:0,0:0:0:0:
235,318,13774,1,0,0:0:0:0:
309,370,13995,1,0,0:0:0:0:
482,315,14436,6,0,P|470:279|465:240,1,70
411,173,14877,2,0,P|418:116|430:91,1,70
502,60,15318,6,0,B|466:50|435:67|435:67|411:39|372:42,1,140,6|8,0:0|0:0,0:0:0:0:
283,14,15980,1,0,0:0:0:0:
224,82,16200,2,0,P|213:118|218:155,1,70,2|0,0:0|0:0,0:0:0:0:
318,253,16642,2,0,P|328:219|325:185,1,70,8|0,0:0|0:0,0:0:0:0:
250,313,17083,6,0,P|294:342|391:308,1,140,2|8,0:0|0:0,0:0:0:0:
432,253,17745,1,0,0:0:0:0:
374,183,17965,2,0,L|298:194,1,70,2|0,0:0|0:0,0:0:0:0:
224,150,18406,2,0,L|154:158,1,70,8|0,0:0|0:0,0:0:0:0:
70,123,18848,6,0,B|83:215|83:215|40:258,1,140,2|8,0:0|0:0,0:0:0:0:
188,365,19730,2,0,P|254:303|307:327,1,140,2|8,0:0|0:0,0:0:0:0:
365,369,20392,1,0,0:0:0:0:
439,316,20612,6,0,P|428:246|417:177,1,140,2|8,0:0|0:0,0:0:0:0:
350,115,21274,1,0,0:0:0:0:
414,51,21495,2,0,P|448:40|482:46,1,70,2|0,0:0|0:0,0:0:0:0:
350,115,21936,2,0,P|315:120|282:110,1,70,8|0,0:0|0:0,0:0:0:0:
194,86,22377,6,0,B|102:109|102:109|73:94|83:51,1,140,6|8,0:0|0:0,0:0:0:0:
80,71,23039,1,0,0:0:0:0:
25,143,23259,2,0,P|15:187|21:219,1,70,2|0,0:0|0:0,0:0:0:0:
76,281,23700,1,8,0:0:0:0:
152,331,23921,6,0,B|233:343|211:303|287:313,1,140,0|0,0:0|0:0,0:0:0:0:
368,357,24583,2,0,L|440:351,1,70,8|0,0:0|0:0,0:0:0:0:
498,283,25024,2,0,B|491:182|491:182|441:146,1,140,2|8,0:0|0:0,0:0:0:0:
289,94,25906,5,2,0:0:0:0:
289,94,26348,2,0,L|204:83,1,70,8|0,0:0|0:0,0:0:0:0:
149,141,26789,1,2,0:0:0:0:
91,71,27009,2,0,P|96:36|112:0,1,70,0|8,0:0|0:0,0:0:0:0:
149,141,27450,6,0,P|94:165|15:115,1,140,0|0,0:0|0:0,0:0:0:0:
25,132,28112,2,0,P|32:167|38:201,1,70,8|0,0:0|0:0,0:0:0:0:
95,272,28553,2,0,P|128:257|167:262,1,70,2|0,0:0|0:0,0:0:0:0:
231,318,28995,2,0,P|281:330|305:320,1,70,8|0,0:0|0:0,0:0:0:0:
370,270,29436,5,2,0:0:0:0:
370,270,30539,6,0,P|375:229|382:197,2,52.5000020027161,0|2|0,0:0|0:0|0:0,0:0:0:0:
426,327,31200,1,2,0:0:0:0:
359,371,31421,2,0,L|294:357,1,52.5000020027161,0|2,0:0|0:0,0:0:0:0:
240,306,31862,6,0,P|192:293|151:323,1,105.000004005432,0|0,0:0|0:0,0:0:0:0:
85,369,32524,1,2,0:0:0:0:
25,316,32745,2,0,P|15:285|16:261,1,52.5000020027161,0|2,0:0|0:0,0:0:0:0:
198,89,34068,6,0,L|191:147,2,52.5000020027161,0|2|0,0:0|0:0|0:0,0:0:0:0:
137,37,34730,1,2,0:0:0:0:
75,88,34950,2,0,P|29:81|21:75,1,52.5000020027161,0|2,0:0|0:0,0:0:0:0:
0,192,35392,6,0,P|51:181|103:173,1,105.000004005432,0|0,0:0|0:0,0:0:0:0:
171,217,36053,2,0,P|176:246|173:273,1,52.5000020027161,2|0,0:0|0:0,0:0:0:0:
117,329,36495,5,6,0:0:0:0:
183,376,36715,2,0,B|241:350|241:350|300:368,1,125.999996154785,0|0,0:0|0:0,0:0:0:0:
368,322,37377,1,2,0:0:0:0:
316,258,37598,2,0,P|322:207|329:188,1,62.9999980773926,0|8,0:0|0:0,0:0:0:0:
377,132,38039,1,0,0:0:0:0:
305,92,38259,6,0,P|243:106|219:115,1,62.9999980773926,2|0,0:0|0:0,0:0:0:0:
165,131,38700,1,8,0:0:0:0:
88,54,38921,2,0,B|113:130|113:130|84:172,1,125.999996154785,0|0,0:0|0:0,0:0:0:0:
35,232,39583,1,8,0:0:0:0:
94,287,39803,6,0,P|151:292|203:252,1,125.999996154785,0|0,0:0|0:0,0:0:0:0:
244,180,40465,1,8,0:0:0:0:
306,233,40686,2,0,P|318:270|315:303,1,62.9999980773926,0|2,0:0|0:0,0:0:0:0:
244,180,41127,2,0,P|244:148|255:119,1,62.9999980773926,0|8,0:0|0:0,0:0:0:0:
317,66,41568,1,0,0:0:0:0:
257,9,41789,5,6,0:0:0:0:
365,245,42230,1,10,0:0:0:0:
365,245,42671,5,2,0:0:0:0:
346,165,42892,1,0,0:0:0:0:
426,146,43112,1,10,0:0:0:0:
444,226,43333,1,0,0:0:0:0:
346,165,43553,6,0,P|267:150|215:146,1,125.999996154785,6|8,0:0|0:0,0:0:0:0:
57,152,44436,1,2,0:0:0:0:
105,217,44656,1,0,0:0:0:0:
185,79,44877,1,8,0:0:0:0:
137,144,45097,1,0,0:0:0:0:
186,209,45318,6,0,P|198:256|207:339,1,125.999996154785,2|8,0:0|0:0,0:0:0:0:
367,362,46200,1,2,0:0:0:0:
318,296,46421,1,0,0:0:0:0:
369,232,46642,2,0,P|375:177|377:155,1,62.9999980773926,8|0,0:0|0:0,0:0:0:0:
323,106,47083,2,0,B|281:126|281:126|183:100,1,125.999996154785,2|8,0:0|0:0,0:0:0:0:
48,54,47965,5,2,0:0:0:0:
83,128,48186,1,0,0:0:0:0:
61,206,48406,2,0,L|-4:198,1,62.9999980773926,8|0,0:0|0:0,0:0:0:0:
74,288,48848,2,0,B|116:268|116:268|214:294,1,125.999996154785,2|8,0:0|0:0,0:0:0:0:
350,330,49730,1,2,0:0:0:0:
293,271,49950,2,0,L|285:208,1,62.9999980773926,0|8,0:0|0:0,0:0:0:0:
311,130,50392,1,0,0:0:0:0:
197,75,50612,6,0,B|118:93|118:93|68:71,2,125.999996154785,6|8|2,0:0|0:0|0:0,0:0:0:0:
277,59,51715,1,0,0:0:0:0:
205,181,51936,2,0,L|126:173,1,62.9999980773926,8|0,0:0|0:0,0:0:0:0:
211,280,52377,6,0,B|252:261|252:261|331:279,2,125.999996154785,6|8|2,0:0|0:0|0:0,0:0:0:0:
138,317,53480,1,0,0:0:0:0:
142,187,53700,2,0,L|204:180,1,62.9999980773926,8|0,0:0|0:0,0:0:0:0:
277,141,54142,5,4,0:0:0:0:
256,192,54252,12,4,55906,0:0:0:0:
189,381,56789,6,0,P|172:346|149:313,1,70
143,227,57230,2,0,P|98:189|72:179,1,70,0|0,0:0|0:0,0:0:0:0:
27,125,57671,6,0,B|115:102|89:161|170:140,1,140,6|8,0:0|0:0,0:0:0:0:
233,87,58333,1,0,0:0:0:0:
301,147,58553,2,0,P|310:180|307:215,1,70,2|0,0:0|0:0,0:0:0:0:
186,316,58995,2,0,P|176:282|179:247,1,70,8|0,0:0|0:0,0:0:0:0:
283,366,59436,6,0,P|355:338|429:361,1,140,2|8,0:0|0:0,0:0:0:0:
500,380,60098,1,0,0:0:0:0:
510,289,60318,2,0,P|512:254|503:220,1,70,2|0,0:0|0:0,0:0:0:0:
441,87,60759,2,0,P|433:120|435:155,1,70,8|0,0:0|0:0,0:0:0:0:
498,15,61200,6,0,B|449:42|449:42|354:22,1,140,2|8,0:0|0:0,0:0:0:0:
236,151,62083,2,0,P|304:137|374:132,1,140,2|8,0:0|0:0,0:0:0:0:
452,178,62745,1,0,0:0:0:0:
421,263,62965,6,0,B|393:356|393:356|387:328|364:292,1,140,2|8,0:0|0:0,0:0:0:0:
299,270,63627,1,0,0:0:0:0:
218,312,63848,2,0,B|182:319|182:319|150:309,1,70,2|0,0:0|0:0,0:0:0:0:
78,201,64289,2,0,B|114:194|114:194|145:203,1,70,8|0,0:0|0:0,0:0:0:0:
33,383,64730,6,0,P|24:314|15:245,1,140,6|8,0:0|0:0,0:0:0:0:
2,153,65392,1,0,0:0:0:0:
78,201,65612,2,0,P|115:191|149:200,1,70,2|0,0:0|0:0,0:0:0:0:
221,247,66053,1,8,0:0:0:0:
275,174,66274,6,0,B|312:137|312:137|287:27,1,140,0|0,0:0|0:0,0:0:0:0:
377,19,66936,2,0,L|462:36,1,70,8|0,0:0|0:0,0:0:0:0:
497,107,67377,2,0,P|476:146|385:154,1,140,2|8,0:0|0:0,0:0:0:0:
232,61,68259,5,2,0:0:0:0:
232,61,68700,2,0,L|241:136,1,70,8|0,0:0|0:0,0:0:0:0:
327,77,69142,1,2,0:0:0:0:
147,15,69362,2,0,L|143:92,1,70,0|8,0:0|0:0,0:0:0:0:
74,144,69803,6,0,P|46:174|69:267,1,140,0|0,0:0|0:0,0:0:0:0:
143,309,70465,2,0,P|195:300|226:303,1,70,8|0,0:0|0:0,0:0:0:0:
322,349,70906,5,2,0:0:0:0:
408,378,71127,1,0,0:0:0:0:
477,318,71348,1,8,0:0:0:0:
483,227,71568,1,0,0:0:0:0:
379,169,71789,2,0,P|309:178|240:187,1,140,6|8,0:0|0:0,0:0:0:0:
240,186,72671,5,2,0:0:0:0:
186,112,72892,1,0,0:0:0:0:
229,32,73112,1,8,0:0:0:0:
275,110,73333,1,0,0:0:0:0:
335,42,73553,2,0,P|410:44|441:122,1,140,6|8,0:0|0:0,0:0:0:0:
442,93,74436,2,0,L|431:166,1,70,2|0,0:0|0:0,0:0:0:0:
477,241,74877,2,0,L|466:314,1,70,8|0,0:0|0:0,0:0:0:0:
397,369,75318,6,0,B|352:348|308:368|308:368|285:353|304:319,1,140,2|8,0:0|0:0,0:0:0:0:
353,251,75980,1,0,0:0:0:0:
280,196,76200,2,0,P|223:206|140:220,1,140,2|8,0:0|0:0,0:0:0:0:
56,187,76862,1,0,0:0:0:0:
106,111,77083,6,0,P|170:84|231:128,1,140,2|8,0:0|0:0,0:0:0:0:
427,23,77965,2,0,P|394:26|357:31,1,70,2|0,0:0|0:0,0:0:0:0:
301,103,78406,1,8,0:0:0:0:
351,185,78627,1,0,0:0:0:0:
296,256,78848,6,0,P|241:269|179:213,2,140,6|8|2,0:0|0:0|0:0,0:0:0:0:
382,227,79950,1,0,0:0:0:0:
431,303,80171,1,8,0:0:0:0:
356,356,80392,6,0,B|267:342|267:342|244:359|244:389,1,140
174,326,81053,2,0,P|139:331|104:337,1,70,8|0,0:0|0:0,0:0:0:0:
15,372,81495,2,0,B|2:328|2:328|31:217,1,140,2|8,0:0|0:0,0:0:0:0:
95,68,82377,5,2,0:0:0:0:
95,68,82818,1,8,0:0:0:0:
182,41,83039,1,0,0:0:0:0:
245,106,83259,1,2,0:0:0:0:
147,203,83480,2,0,L|158:134,1,70,0|8,0:0|0:0,0:0:0:0:
216,268,83921,6,0,P|164:297|75:259,1,140,0|0,0:0|0:0,0:0:0:0:
147,203,84583,1,8,0:0:0:0:
275,329,85024,2,0,P|314:316|347:314,1,70,2|0,0:0|0:0,0:0:0:0:
403,245,85465,2,0,P|406:210|418:177,1,70,8|0,0:0|0:0,0:0:0:0:
483,113,85906,1,2,0:0:0:0:
198,161,91200,6,0,L|211:205,3,35,2|0|0|0,0:0|0:0|0:0|0:0,0:0:0:0:
248,216,91642,2,0,L|262:266,3,35,2|0|0|0,0:0|0:0|0:0|0:0,0:0:0:0:
294,276,92083,2,0,L|337:276,7,35,2|0|0|0|2|0|0|0,0:0|0:0|0:0|0:0|0:0|0:0|0:0|0:0,0:0:0:0:
372,264,92965,6,0,L|348:125,1,140,6|8,0:0|0:0,0:0:0:0:
277,70,93627,1,0,0:0:0:0:
198,117,93848,2,0,L|186:185,1,70,2|0,0:0|0:0,0:0:0:0:
263,236,94289,5,8,0:0:0:0:
206,309,94510,2,0,P|270:330|331:300,1,140,0|0,0:0|0:0,0:0:0:0:
383,226,95171,2,0,P|426:218|468:212,1,70,8|0,0:0|0:0,0:0:0:0:
481,300,95612,2,0,B|488:339|469:380|469:380|435:373|390:343,1,140,2|8,0:0|0:0,0:0:0:0:
271,248,96494,1,2,0:0:0:0:
271,248,96936,5,8,0:0:0:0:
223,325,97156,1,0,0:0:0:0:
127,214,97377,2,0,P|135:248|141:283,1,70,2|0,0:0|0:0,0:0:0:0:
209,172,97818,1,8,0:0:0:0:
221,71,98039,6,0,B|129:94|129:94|100:79|110:36,1,140,0|0,0:0|0:0,0:0:0:0:
52,129,98700,1,8,0:0:0:0:
185,253,99142,2,0,P|156:230|121:211,1,70,2|0,0:0|0:0,0:0:0:0:
202,346,99583,2,0,P|231:323|266:304,1,70,10|0,0:0|0:0,0:0:0:0:
341,265,100024,5,2,0:0:0:0:
298,257,107083,6,0,P|288:306|276:366,2,105,6|2|2,0:0|0:0|0:0,0:0:0:0:
294,167,107965,2,0,L|224:163,1,70,2|0,0:0|0:0,0:0:0:0:
198,76,108406,2,0,L|122:72,1,70,8|0,0:0|0:0,0:0:0:0:
45,114,108848,6,0,P|33:63|63:2,2,105,2|2|2,0:0|0:0|0:0,0:0:0:0:
113,173,109730,2,0,L|189:165,1,70,2|2,0:0|0:0,0:0:0:0:
235,240,110171,2,0,L|311:232,1,70,10|2,0:0|0:0,0:0:0:0:
377,287,110612,6,0,L|506:272,2,105,2|2|2,0:0|0:0|0:0,0:0:0:0:
318,358,111495,2,0,P|292:323|324:213,1,140,2|10,0:0|0:0,0:0:0:0:
401,78,112377,6,0,P|346:81|239:73,1,140,6|0,0:0|0:0,0:0:0:0:
208,150,113039,2,0,P|153:147|46:155,1,140
