osu file format v14

[General]
AudioFilename: audio.mp3
AudioLeadIn: 0
PreviewTime: -1
Countdown: 0
SampleSet: None
StackLeniency: 0.7
Mode: 0
LetterboxInBreaks: 0
WidescreenStoryboard: 0

[Editor]
DistanceSpacing: 1.3
BeatDivisor: 8
GridSize: 32
TimelineZoom: 2.4

[Metadata]
Title:GaraKuta Doll Play(cuts by maimai)
TitleUnicode:GaraKuta Doll Play(cuts by maimai)
Artist:T+Pazolite/maimai
ArtistUnicode:T+Pazolite/maimai
Creator:QuickNotePressr
Version:Hell
Source:
Tags:
BeatmapID:1092093
BeatmapSetID:514051

[Difficulty]
HPDrainRate:6
CircleSize:4
OverallDifficulty:6
ApproachRate:8
SliderMultiplier:3
SliderTickRate:3

[Events]
//Background and Video events
Video,0,"【maimai】Garakuta Doll Play(PV確認用).mp4"
0,0,"mb4DyYF.jpg",0,0
//Break Periods
2,26897,29931
2,36271,37431
2,45646,52430
2,82910,88991
//Storyboard Layer 0 (Background)
//Storyboard Layer 1 (Fail)
//Storyboard Layer 2 (Pass)
//Storyboard Layer 3 (Foreground)
//Storyboard Sound Samples

[TimingPoints]
15682.0319536285,234.365845084176,4,3,0,100,1,0
15782.0319536285,-100,4,3,0,100,0,0
21306,-200,4,3,0,100,0,0
23181,-100,4,3,0,100,0,0
31618,-200,4,3,0,100,0,0
38181,-80,4,3,0,100,0,0
53180,-200,4,3,0,100,0,0
58805,-100,4,3,0,100,0,0
60680,-80,4,3,0,100,0,1
75769,-100,4,3,0,100,0,0
90679,-66.6666666666667,4,3,0,100,0,1
96186,-200,4,3,0,100,0,1
98178,-66.6666666666667,4,3,0,100,0,1
103686,-200,4,3,0,100,0,1
119974,-80,4,3,0,100,0,0
120677,-80,4,3,0,100,0,1

[Colours]
Combo1 : 255,255,128
Combo2 : 255,255,255
Combo3 : 0,64,0
Combo4 : 255,0,0

[HitObjects]
256,192,8182,12,0,10057,0:0:0:0:
256,192,10057,12,0,11932,0:0:0:0:
256,192,11932,12,0,13807,0:0:0:0:
30,42,14744,5,0,0:0:0:0:
480,362,14978,1,0,0:0:0:0:
458,41,15213,1,0,0:0:0:0:
35,352,15447,1,0,0:0:0:0:
69,351,15682,6,8,P|103:289|61:68,1,300
60,69,16150,2,8,P|142:48|284:195,1,300
444,189,16619,1,8,0:0:0:0:
354,244,16853,2,8,P|306:278|215:297,1,150
32,141,17556,5,8,0:0:0:0:
452,49,17791,1,8,0:0:0:0:
452,49,17908,1,0,0:0:0:0:
416,160,18025,2,0,P|268:237|179:159,1,300
234,76,18494,5,4,0:0:0:0:
317,135,18553,1,4,0:0:0:0:
288,189,18611,1,4,0:0:0:0:
229,211,18670,1,4,0:0:0:0:
156,191,18758,2,4,B|104:160|40:250|40:250|65:359|159:329|159:329|191:289|191:289|245:327|245:327|287:277|287:277|355:342|424:336|424:336|443:295|443:295|465:335,1,700
477,353,19431,5,8,0:0:0:0:
475,37,19666,1,8,0:0:0:0:
28,38,19900,1,8,0:0:0:0:
32,356,20134,1,8,0:0:0:0:
249,369,20369,1,8,0:0:0:0:
252,216,20603,1,8,0:0:0:0:
252,216,20720,1,0,0:0:0:0:
252,216,20838,1,0,0:0:0:0:
30,360,21306,6,0,P|15:289|70:150,1,225
132,165,22009,1,0,0:0:0:0:
218,182,22244,2,0,P|286:236|627:167,1,450
256,192,23181,12,2,24822,0:0:0:0:
32,190,25056,5,0,0:0:0:0:
190,108,25291,1,0,0:0:0:0:
190,108,25408,1,0,0:0:0:0:
190,108,25525,1,0,0:0:0:0:
271,308,25759,1,0,0:0:0:0:
74,64,25994,6,0,L|76:105,24,37.5
311,348,30681,5,0,0:0:0:0:
141,196,30915,1,0,0:0:0:0:
324,68,31150,1,0,0:0:0:0:
159,6,31384,1,0,0:0:0:0:
24,20,31618,2,4,L|71:94,1,75
141,186,31853,2,4,L|83:241,1,75
21,295,32087,2,4,L|90:351,1,75
139,320,32322,2,4,L|203:269,1,75
215,371,32556,5,0,0:0:0:0:
302,232,32790,1,0,0:0:0:0:
161,141,33025,1,0,0:0:0:0:
274,33,33259,1,0,0:0:0:0:
44,80,33493,5,4,0:0:0:0:
399,238,33728,1,4,0:0:0:0:
399,238,33845,1,4,0:0:0:0:
399,238,33962,2,4,L|255:167,1,150
33,53,34431,5,0,0:0:0:0:
501,41,34665,1,0,0:0:0:0:
476,342,34900,1,0,0:0:0:0:
23,355,35134,1,0,0:0:0:0:
18,188,35368,1,0,0:0:0:0:
254,189,35603,1,0,0:0:0:0:
479,154,35837,2,0,P|461:103|362:89,1,150
498,95,38181,6,0,P|256:46|132:89,1,375
27,192,38649,2,0,P|162:144|394:204,1,375
452,28,39118,2,14,L|466:407,1,375
397,373,39587,2,14,L|108:138,1,328.125
257,40,40056,5,0,0:0:0:0:
130,221,40290,1,0,0:0:0:0:
231,355,40554,1,0,0:0:0:0:
160,45,40759,1,0,0:0:0:0:
22,32,40993,1,14,0:0:0:0:
493,34,41227,1,14,0:0:0:0:
493,34,41345,1,14,0:0:0:0:
493,34,41462,1,14,0:0:0:0:
153,266,41696,1,14,0:0:0:0:
48,60,41931,6,0,P|72:207|303:212,1,375
269,240,42399,2,0,P|336:295|484:99,1,375
382,59,42868,2,14,B|230:212|230:212|97:69,1,375
70,208,43337,2,14,B|226:339|226:339|310:187,1,375
256,192,43805,12,12,44743,0:0:0:0:
206,195,45212,5,0,0:0:0:0:
292,202,45329,2,0,P|301:138|348:204,1,187.5
143,69,53180,6,0,P|223:41|361:68,2,225
80,304,54118,2,0,P|39:224|69:89,2,225
303,302,55055,2,0,P|268:333|177:292,3,150
368,78,55992,2,0,P|381:151|368:316,2,225
276,75,56930,6,8,L|125:77,3,150
63,148,57867,2,8,L|63:304,3,150
134,337,58805,2,8,P|163:242|73:62,2,300
58,44,59742,6,6,L|59:107,9,37.5
483,41,60094,2,6,L|483:89,9,37.5
252,292,60445,2,0,L|248:336,3,37.5
296,221,60680,5,0,0:0:0:0:
207,165,60797,1,0,0:0:0:0:
276,95,60914,1,0,0:0:0:0:
181,33,61031,1,0,0:0:0:0:
148,128,61149,5,0,0:0:0:0:
68,62,61266,1,0,0:0:0:0:
11,168,61383,1,0,0:0:0:0:
97,227,61500,1,0,0:0:0:0:
39,318,61617,5,0,0:0:0:0:
113,378,61734,1,0,0:0:0:0:
166,297,61852,1,0,0:0:0:0:
239,371,61969,1,0,0:0:0:0:
295,291,62086,5,0,0:0:0:0:
361,364,62203,1,0,0:0:0:0:
432,288,62320,1,0,0:0:0:0:
487,372,62438,1,0,0:0:0:0:
434,275,62555,5,0,0:0:0:0:
336,209,62672,1,0,0:0:0:0:
438,148,62789,1,0,0:0:0:0:
329,69,62906,1,0,0:0:0:0:
249,136,63023,1,0,0:0:0:0:
165,58,63141,1,0,0:0:0:0:
93,121,63258,1,0,0:0:0:0:
151,189,63375,1,0,0:0:0:0:
192,263,63492,5,0,0:0:0:0:
269,342,63609,1,0,0:0:0:0:
317,266,63727,1,0,0:0:0:0:
379,327,63844,1,0,0:0:0:0:
442,261,63961,1,0,0:0:0:0:
359,195,64078,1,0,0:0:0:0:
430,124,64195,1,0,0:0:0:0:
326,68,64312,1,0,0:0:0:0:
285,152,64430,5,0,0:0:0:0:
229,241,64547,1,0,0:0:0:0:
159,172,64664,1,0,0:0:0:0:
97,267,64781,1,0,0:0:0:0:
192,300,64899,5,0,0:0:0:0:
126,380,65016,1,0,0:0:0:0:
227,384,65133,1,0,0:0:0:0:
291,351,65250,1,0,0:0:0:0:
382,409,65367,5,0,0:0:0:0:
442,335,65484,1,0,0:0:0:0:
361,282,65602,1,0,0:0:0:0:
435,209,65719,1,0,0:0:0:0:
355,153,65836,5,0,0:0:0:0:
428,87,65953,1,0,0:0:0:0:
352,16,66070,1,0,0:0:0:0:
436,0,66188,1,0,0:0:0:0:
339,14,66305,5,0,0:0:0:0:
273,112,66422,1,0,0:0:0:0:
212,10,66539,1,0,0:0:0:0:
133,119,66656,1,0,0:0:0:0:
200,199,66773,1,0,0:0:0:0:
122,283,66891,1,0,0:0:0:0:
185,355,67008,1,0,0:0:0:0:
253,297,67125,1,0,0:0:0:0:
327,256,67242,5,0,0:0:0:0:
406,179,67359,1,0,0:0:0:0:
330,131,67477,1,0,0:0:0:0:
391,69,67594,1,0,0:0:0:0:
325,6,67711,1,0,0:0:0:0:
259,89,67828,1,0,0:0:0:0:
188,18,67945,1,0,0:0:0:0:
132,122,68062,1,0,0:0:0:0:
221,130,68179,5,0,0:0:0:0:
229,241,68296,1,0,0:0:0:0:
159,172,68413,1,0,0:0:0:0:
97,267,68530,1,0,0:0:0:0:
192,300,68648,5,0,0:0:0:0:
126,380,68765,1,0,0:0:0:0:
237,384,68882,1,0,0:0:0:0:
291,351,68999,1,0,0:0:0:0:
373,366,69116,5,0,0:0:0:0:
442,335,69233,1,0,0:0:0:0:
361,282,69351,1,0,0:0:0:0:
435,209,69468,1,0,0:0:0:0:
355,153,69585,5,0,0:0:0:0:
428,87,69702,1,0,0:0:0:0:
352,16,69819,1,0,0:0:0:0:
436,0,69937,1,0,0:0:0:0:
339,14,70054,5,0,0:0:0:0:
273,112,70171,1,0,0:0:0:0:
212,10,70288,1,0,0:0:0:0:
133,119,70405,1,0,0:0:0:0:
200,199,70522,1,0,0:0:0:0:
122,283,70640,1,0,0:0:0:0:
185,355,70757,1,0,0:0:0:0:
253,297,70874,1,0,0:0:0:0:
327,256,70991,5,0,0:0:0:0:
406,179,71108,1,0,0:0:0:0:
330,131,71226,1,0,0:0:0:0:
391,69,71343,1,0,0:0:0:0:
325,6,71460,1,0,0:0:0:0:
259,89,71577,1,0,0:0:0:0:
188,18,71694,1,0,0:0:0:0:
132,122,71811,1,0,0:0:0:0:
216,163,71929,5,0,0:0:0:0:
305,219,72046,1,0,0:0:0:0:
236,289,72163,1,0,0:0:0:0:
331,351,72280,1,0,0:0:0:0:
364,256,72398,5,0,0:0:0:0:
444,322,72515,1,0,0:0:0:0:
501,216,72632,1,0,0:0:0:0:
415,157,72749,1,0,0:0:0:0:
473,66,72866,5,0,0:0:0:0:
399,6,72983,1,0,0:0:0:0:
346,87,73101,1,0,0:0:0:0:
273,13,73218,1,0,0:0:0:0:
217,93,73335,5,0,0:0:0:0:
151,20,73452,1,0,0:0:0:0:
80,96,73569,1,0,0:0:0:0:
25,12,73687,1,0,0:0:0:0:
78,109,73804,5,0,0:0:0:0:
176,175,73921,1,0,0:0:0:0:
74,236,74038,1,0,0:0:0:0:
183,315,74155,1,0,0:0:0:0:
263,248,74272,1,0,0:0:0:0:
347,326,74390,1,0,0:0:0:0:
419,263,74507,1,0,0:0:0:0:
361,195,74624,1,0,0:0:0:0:
320,121,74741,5,0,0:0:0:0:
243,42,74858,1,0,0:0:0:0:
195,118,74976,1,0,0:0:0:0:
133,57,75093,1,0,0:0:0:0:
70,123,75210,1,0,0:0:0:0:
153,189,75327,1,0,0:0:0:0:
82,260,75444,1,0,0:0:0:0:
186,316,75561,1,0,0:0:0:0:
256,192,75679,12,0,82710,0:0:0:0:
29,26,89741,5,14,0:0:0:0:
109,89,89800,1,14,0:0:0:0:
121,174,89858,1,14,0:0:0:0:
483,26,89976,5,14,0:0:0:0:
403,89,90035,1,14,0:0:0:0:
391,174,90093,1,14,0:0:0:0:
483,358,90210,5,14,0:0:0:0:
403,295,90269,1,14,0:0:0:0:
391,210,90327,1,14,0:0:0:0:
112,176,90444,5,14,0:0:0:0:
108,284,90503,1,14,0:0:0:0:
26,362,90561,1,14,0:0:0:0:
26,362,90679,5,8,0:0:0:0:
387,65,90913,1,8,0:0:0:0:
46,135,91147,1,8,0:0:0:0:
114,213,91265,1,0,0:0:0:0:
46,135,91382,1,8,0:0:0:0:
114,213,91499,1,0,0:0:0:0:
174,147,91616,5,8,0:0:0:0:
239,233,91850,2,8,L|423:35,1,225.000008583069
405,89,92085,1,8,0:0:0:0:
442,169,92319,1,8,0:0:0:0:
376,234,92554,5,8,0:0:0:0:
210,240,92788,2,8,P|317:281|419:244,3,225.000008583069
417,253,93257,2,8,P|417:177|350:31,1,225.000008583069
359,41,93491,6,8,B|235:41|235:41|304:132|304:132|189:128|189:128|223:223,1,450.000017166138
160,230,93843,1,0,0:0:0:0:
134,274,93960,6,8,B|30:197|89:157|-50:-25|319:63,1,450.000017166138
32,341,94428,5,0,0:0:0:0:
486,344,94663,1,0,0:0:0:0:
487,35,94897,1,0,0:0:0:0:
345,29,95014,1,0,0:0:0:0:
205,27,95132,1,0,0:0:0:0:
106,31,95249,1,0,0:0:0:0:
48,116,95366,1,0,0:0:0:0:
112,215,95600,2,0,B|197:226|254:281|254:281|253:210,1,225.000008583069
249,188,95835,2,0,B|311:104|443:162|392:278|594:75,1,393.750015020371
485,89,96186,6,0,L|335:49,1,150
281,62,96538,2,2,P|263:81|275:132,1,75
299,136,96772,2,2,P|332:153|371:131,1,75
390,195,97006,2,2,P|399:240|426:257,1,75
383,194,97241,5,12,0:0:0:0:
335,161,97299,1,12,0:0:0:0:
303,146,97358,1,12,0:0:0:0:
240,229,97475,5,12,0:0:0:0:
291,255,97534,1,12,0:0:0:0:
330,269,97592,1,12,0:0:0:0:
366,175,97710,5,12,0:0:0:0:
415,209,97768,1,12,0:0:0:0:
439,241,97827,1,12,0:0:0:0:
446,313,97944,5,12,0:0:0:0:
489,277,98003,1,12,0:0:0:0:
468,232,98061,1,12,0:0:0:0:
451,201,98178,5,8,0:0:0:0:
125,65,98412,1,8,0:0:0:0:
466,135,98646,1,8,0:0:0:0:
398,213,98764,1,0,0:0:0:0:
466,135,98881,1,8,0:0:0:0:
398,213,98998,1,0,0:0:0:0:
338,147,99115,5,8,0:0:0:0:
273,233,99349,2,8,L|89:35,1,225.000008583069
107,89,99584,1,8,0:0:0:0:
70,169,99818,1,8,0:0:0:0:
136,234,100053,5,8,0:0:0:0:
302,240,100287,2,8,P|195:281|93:244,3,225.000008583069
95,253,100756,2,8,P|95:177|162:31,1,225.000008583069
153,41,100990,6,8,B|277:41|277:41|208:132|208:132|323:128|323:128|289:223,1,450.000017166138
352,230,101342,1,0,0:0:0:0:
378,274,101459,6,8,B|482:197|423:157|562:-25|193:63,1,450.000017166138
480,341,101927,5,0,0:0:0:0:
26,344,102162,1,0,0:0:0:0:
25,35,102396,1,0,0:0:0:0:
167,29,102513,1,0,0:0:0:0:
307,27,102631,1,0,0:0:0:0:
406,31,102748,1,0,0:0:0:0:
464,116,102865,1,0,0:0:0:0:
400,215,103099,2,0,B|315:226|258:281|258:281|259:210,1,225.000008583069
263,188,103334,2,0,B|201:104|69:162|120:278|-82:75,1,393.750015020371
27,89,103685,6,0,L|177:49,1,150
231,62,104037,2,2,P|249:81|237:132,1,75
213,136,104271,2,2,P|180:153|141:131,1,75
122,195,104505,2,2,P|113:240|86:257,1,75
153,241,104740,5,12,0:0:0:0:
120,289,104798,1,12,0:0:0:0:
105,321,104857,1,12,0:0:0:0:
188,384,104974,5,12,0:0:0:0:
214,333,105033,1,12,0:0:0:0:
228,294,105091,1,12,0:0:0:0:
134,258,105209,5,12,0:0:0:0:
168,209,105267,1,12,0:0:0:0:
200,185,105326,1,12,0:0:0:0:
272,178,105443,5,12,0:0:0:0:
236,135,105502,1,12,0:0:0:0:
191,156,105560,1,12,0:0:0:0:
141,75,105678,6,14,B|91:77|91:77|64:44,2,75
190,73,106030,2,14,B|161:45|161:45|161:8,2,75
245,74,106381,2,14,L|243:-14,2,75
300,84,106733,2,14,B|328:51|328:51|324:2,2,75
349,91,107084,2,14,B|393:92|393:92|417:69,2,75
371,75,107553,6,14,B|421:77|421:77|448:44,2,75
322,73,107905,2,14,B|351:45|351:45|351:8,2,75
267,74,108256,2,14,L|269:-14,2,75
212,84,108608,2,14,B|184:51|184:51|188:2,2,75
163,91,108959,2,14,B|119:92|119:92|95:69,2,75
371,309,109428,6,14,B|421:307|421:307|448:340,2,75
322,311,109780,2,14,B|351:339|351:339|351:376,2,75
267,310,110131,2,14,L|269:398,2,75
212,300,110483,2,14,B|184:333|184:333|188:382,2,75
163,293,110834,2,14,B|119:292|119:292|95:315,2,75
141,309,111303,6,14,B|91:307|91:307|64:340,2,75
190,311,111655,2,14,B|161:339|161:339|161:376,2,75
245,310,112006,2,14,L|243:398,2,75
300,300,112358,2,14,B|328:333|328:333|324:382,2,75
349,293,112709,2,14,B|393:292|393:292|417:315,2,75
39,81,113178,5,14,0:0:0:0:
128,82,113295,1,14,0:0:0:0:
83,164,113412,1,14,0:0:0:0:
82,244,113529,5,14,0:0:0:0:
36,329,113646,1,14,0:0:0:0:
119,329,113764,1,14,0:0:0:0:
369,332,113881,5,14,0:0:0:0:
474,337,113998,1,14,0:0:0:0:
421,252,114115,1,14,0:0:0:0:
419,128,114232,5,14,0:0:0:0:
471,42,114350,1,14,0:0:0:0:
366,52,114467,1,14,0:0:0:0:
251,135,114584,5,14,0:0:0:0:
196,224,114701,1,14,0:0:0:0:
300,228,114818,1,14,0:0:0:0:
473,81,115053,5,14,0:0:0:0:
384,82,115170,1,14,0:0:0:0:
429,164,115287,1,14,0:0:0:0:
430,244,115404,5,14,0:0:0:0:
476,329,115521,1,14,0:0:0:0:
393,329,115639,1,14,0:0:0:0:
143,332,115756,5,14,0:0:0:0:
38,337,115873,1,14,0:0:0:0:
91,252,115990,1,14,0:0:0:0:
93,128,116107,5,14,0:0:0:0:
41,42,116225,1,14,0:0:0:0:
146,52,116342,1,14,0:0:0:0:
261,135,116459,5,14,0:0:0:0:
316,224,116576,1,14,0:0:0:0:
212,228,116693,1,14,0:0:0:0:
473,303,116928,5,14,0:0:0:0:
384,302,117045,1,14,0:0:0:0:
429,220,117162,1,14,0:0:0:0:
430,140,117279,5,14,0:0:0:0:
476,55,117396,1,14,0:0:0:0:
393,55,117514,1,14,0:0:0:0:
143,52,117631,5,14,0:0:0:0:
38,47,117748,1,14,0:0:0:0:
91,132,117865,1,14,0:0:0:0:
93,256,117982,5,14,0:0:0:0:
41,342,118100,1,14,0:0:0:0:
146,332,118217,1,14,0:0:0:0:
261,249,118334,5,14,0:0:0:0:
316,160,118451,1,14,0:0:0:0:
212,156,118568,1,14,0:0:0:0:
415,339,119740,5,12,0:0:0:0:
391,340,119799,1,12,0:0:0:0:
350,340,119857,1,12,0:0:0:0:
332,343,119916,1,12,0:0:0:0:
304,345,119974,1,12,0:0:0:0:
73,350,120209,6,14,B|74:-32|74:-32|458:-35,1,750
