osu file format v14

[General]
AudioFilename: audio.mp3
AudioLeadIn: 0
PreviewTime: -1
Countdown: 0
SampleSet: None
StackLeniency: 0.7
Mode: 0
LetterboxInBreaks: 0
WidescreenStoryboard: 0

[Editor]
Bookmarks: 10816,21483
DistanceSpacing: 2
BeatDivisor: 4
GridSize: 4
TimelineZoom: 1.7

[Metadata]
Title:Pleasure Ritual
TitleUnicode:Pleasure Ritual
Artist:T+Pazolite
ArtistUnicode:T+Pazolite
Creator:Kantzm8
Version:
Source:
Tags:
BeatmapID:1174941
BeatmapSetID:555086

[Difficulty]
HPDrainRate:5
CircleSize:4.2
OverallDifficulty:8.5
ApproachRate:9.3
SliderMultiplier:1.8
SliderTickRate:1

[Events]
//Background and Video events
0,0,"6l3S8Iu.png",0,0
//Break Periods
//Storyboard Layer 0 (Background)
//Storyboard Layer 1 (Fail)
//Storyboard Layer 2 (Pass)
//Storyboard Layer 3 (Foreground)
//Storyboard Sound Samples

[TimingPoints]
150,333.333333333333,4,2,0,100,1,0
150,-200,4,2,0,70,0,0

[HitObjects]
96,136,150,6,0,P|188:116|280:144,1,180
269,137,1149,1,0,0:0:0:0:
312,216,1316,1,0,0:0:0:0:
94,309,1483,6,0,P|74:217|102:125,1,180
95,135,2483,1,0,0:0:0:0:
156,68,2649,1,0,0:0:0:0:
232,20,2816,6,0,L|315:58,1,90
184,176,3483,2,0,L|100:137,1,90
84,248,3983,5,0,0:0:0:0:
180,280,4066,1,0,0:0:0:0:
275,245,4149,2,0,P|307:157|183:189,1,270
56,336,5483,6,0,P|148:356|240:328,1,180
229,334,6483,1,0,0:0:0:0:
304,284,6649,1,0,0:0:0:0:
432,212,6816,6,0,P|452:120|424:28,1,180
430,38,7816,1,0,0:0:0:0:
352,84,7983,1,0,0:0:0:0:
264,60,8149,6,0,P|256:108|264:156,1,90
316,232,8816,2,0,P|324:280|316:328,1,90
204,356,9316,1,0,0:0:0:0:
144,276,9399,1,0,0:0:0:0:
208,191,9483,6,0,P|265:117|304:239,1,270,0|0,0:3|0:0,0:0:0:0:
160,52,10816,5,0,0:0:0:0:
315,231,10983,5,0,0:0:0:0:
355,247,11066,1,0,0:0:0:0:
368,320,11149,1,0,0:0:0:0:
213,141,11316,5,0,0:0:0:0:
173,125,11399,1,0,0:0:0:0:
160,52,11482,1,0,0:0:0:0:
315,231,11649,5,0,0:0:0:0:
299,271,11732,1,0,0:0:0:0:
226,284,11815,1,0,0:0:0:0:
213,141,11983,5,0,0:0:0:0:
229,101,12066,1,0,0:0:0:0:
302,88,12149,1,0,0:0:0:0:
299,271,12316,5,0,0:0:0:0:
339,287,12400,1,0,0:0:0:0:
352,360,12483,1,0,0:0:0:0:
266,230,12649,5,0,0:0:0:0:
226,214,12732,1,0,0:0:0:0:
213,141,12815,1,0,0:0:0:0:
152,96,12899,1,0,0:0:0:0:
116,124,12983,1,0,0:0:0:0:
76,140,13066,1,0,0:0:0:0:
63,213,13149,1,0,0:0:0:0:
226,214,13316,5,0,0:0:0:0:
266,230,13399,1,0,0:0:0:0:
279,303,13482,1,0,0:0:0:0:
424,196,13649,5,0,0:0:0:0:
408,156,13732,1,0,0:0:0:0:
335,143,13815,1,0,0:0:0:0:
226,214,13983,5,0,0:0:0:0:
186,230,14066,1,0,0:0:0:0:
173,303,14149,1,0,0:0:0:0:
371,285,14316,5,0,0:0:0:0:
411,269,14399,1,0,0:0:0:0:
424,196,14482,1,0,0:0:0:0:
252,120,14649,5,0,0:0:0:0:
236,80,14732,1,0,0:0:0:0:
163,67,14815,1,0,0:0:0:0:
84,250,14983,5,0,0:0:0:0:
100,290,15066,1,0,0:0:0:0:
173,303,15149,1,0,0:0:0:0:
305,209,15316,5,0,0:0:0:0:
292,136,15399,1,0,0:0:0:0:
252,120,15482,1,0,0:0:0:0:
196,128,15566,1,0,0:0:0:0:
152,116,15649,1,0,0:0:0:0:
148,72,15732,1,0,0:0:0:0:
205,27,15815,1,0,0:0:0:0:
408,104,15983,5,0,0:0:0:0:
396,148,16066,1,0,0:0:0:0:
305,209,16149,1,0,0:0:0:0:
64,116,16316,5,0,0:0:0:0:
116,304,16483,1,0,0:0:0:0:
196,128,16649,1,0,0:0:0:0:
116,304,16816,1,0,0:0:0:0:
196,128,16982,1,0,0:0:0:0:
116,304,17149,1,0,0:0:0:0:
196,128,17315,1,0,0:0:0:0:
288,344,17483,5,0,0:0:0:0:
356,92,17649,1,0,0:0:0:0:
76,216,17816,1,0,0:0:0:0:
356,92,17983,1,0,0:0:0:0:
76,216,18150,1,0,0:0:0:0:
356,92,18316,1,0,0:0:0:0:
76,216,18483,1,0,0:0:0:0:
356,92,18649,1,0,0:0:0:0:
92,340,18816,5,0,0:0:0:0:
288,272,18983,1,0,0:0:0:0:
352,228,19066,1,0,0:0:0:0:
396,160,19149,1,0,0:0:0:0:
356,92,19233,1,0,0:0:0:0:
280,68,19316,1,0,0:0:0:0:
204,92,19399,1,0,0:0:0:0:
116,196,19483,1,0,0:0:0:0:
152,268,19566,1,0,0:0:0:0:
216,316,19649,1,0,0:0:0:0:
292,336,19733,1,0,0:0:0:0:
368,316,19816,1,0,0:0:0:0:
388,296,19899,1,0,0:0:0:0:
400,272,19983,1,0,0:0:0:0:
404,244,20066,1,0,0:0:0:0:
384,132,20149,5,0,0:0:0:0:
280,68,20316,1,0,0:0:0:0:
276,132,20399,1,0,0:0:0:0:
280,68,20649,1,0,0:0:0:0:
276,132,20732,1,0,0:0:0:0:
136,276,21149,1,0,0:0:0:0:
136,276,21316,1,0,0:0:0:0:
432,64,21483,5,0,0:0:0:0:
372,172,21649,1,0,0:0:0:0:
352,212,21733,1,0,0:0:0:0:
380,284,21816,1,0,0:0:0:0:
364,324,21899,1,0,0:0:0:0:
320,336,21983,1,0,0:0:0:0:
284,308,22066,1,0,0:0:0:0:
232,232,22149,1,0,0:0:0:0:
284,40,22316,5,0,0:0:0:0:
328,32,22399,1,0,0:0:0:0:
428,52,22483,1,0,0:0:0:0:
448,92,22566,1,0,0:0:0:0:
476,128,22649,1,0,0:0:0:0:
488,172,22733,1,0,0:0:0:0:
456,264,22816,1,0,0:0:0:0:
284,308,22983,5,0,0:0:0:0:
240,312,23066,1,0,0:0:0:0:
156,296,23149,1,0,0:0:0:0:
120,272,23233,1,0,0:0:0:0:
96,236,23316,1,0,0:0:0:0:
88,192,23399,1,0,0:0:0:0:
104,112,23483,1,0,0:0:0:0:
140,84,23566,1,0,0:0:0:0:
184,68,23649,1,0,0:0:0:0:
228,60,23733,1,0,0:0:0:0:
324,72,23816,1,0,0:0:0:0:
404,232,23983,5,0,0:0:0:0:
364,248,24066,1,0,0:0:0:0:
388,340,24149,1,0,0:0:0:0:
216,304,24316,5,0,0:0:0:0:
180,280,24399,1,0,0:0:0:0:
184,184,24483,1,0,0:0:0:0:
228,180,24566,1,0,0:0:0:0:
272,168,24649,1,0,0:0:0:0:
308,140,24733,1,0,0:0:0:0:
280,56,24816,1,0,0:0:0:0:
92,80,24983,5,0,0:0:0:0:
72,120,25066,1,0,0:0:0:0:
68,212,25149,1,0,0:0:0:0:
80,256,25233,1,0,0:0:0:0:
104,296,25316,1,0,0:0:0:0:
144,312,25399,1,0,0:0:0:0:
188,320,25483,1,0,0:0:0:0:
368,296,25649,5,0,0:0:0:0:
336,264,25733,1,0,0:0:0:0:
376,180,25816,1,0,0:0:0:0:
280,68,25983,5,0,0:0:0:0:
236,72,26066,1,0,0:0:0:0:
152,104,26149,1,0,0:0:0:0:
124,140,26233,1,0,0:0:0:0:
132,184,26316,1,0,0:0:0:0:
144,228,26399,1,0,0:0:0:0:
232,316,26483,1,0,0:0:0:0:
84,292,26566,1,0,0:0:0:0:
216,188,26649,1,0,0:0:0:0:
152,356,26733,1,0,0:0:0:0:
336,264,26816,1,0,0:0:0:0:
400,132,26983,5,0,0:0:0:0:
376,96,27066,1,0,0:0:0:0:
288,64,27149,1,0,0:0:0:0:
244,68,27233,1,0,0:0:0:0:
200,84,27316,1,0,0:0:0:0:
164,112,27399,1,0,0:0:0:0:
104,184,27483,1,0,0:0:0:0:
180,296,27649,5,0,0:0:0:0:
212,264,27733,1,0,0:0:0:0:
228,172,27816,1,0,0:0:0:0:
200,136,27899,1,0,0:0:0:0:
164,112,27983,1,0,0:0:0:0:
120,108,28066,1,0,0:0:0:0:
28,120,28149,1,0,0:0:0:0:
136,284,28316,5,0,0:0:0:0:
180,296,28399,1,0,0:0:0:0:
276,312,28483,1,0,0:0:0:0:
316,292,28566,1,0,0:0:0:0:
344,256,28649,1,0,0:0:0:0:
352,212,28733,1,0,0:0:0:0:
332,120,28816,1,0,0:0:0:0:
264,188,28899,1,0,0:0:0:0:
220,196,28983,1,0,0:0:0:0:
132,208,29066,1,0,0:0:0:0:
164,124,29149,1,0,0:0:0:0:
300,40,29316,5,0,0:0:0:0:
344,44,29399,1,0,0:0:0:0:
416,100,29483,1,0,0:0:0:0:
420,268,29649,5,0,0:0:0:0:
380,288,29733,1,0,0:0:0:0:
292,304,29816,1,0,0:0:0:0:
248,304,29899,1,0,0:0:0:0:
216,300,29983,1,0,0:0:0:0:
176,284,30066,1,0,0:0:0:0:
132,208,30149,1,0,0:0:0:0:
200,120,30316,5,0,0:0:0:0:
244,112,30399,1,0,0:0:0:0:
336,120,30483,1,0,0:0:0:0:
376,140,30566,1,0,0:0:0:0:
408,172,30649,1,0,0:0:0:0:
424,216,30733,1,0,0:0:0:0:
380,288,30816,1,0,0:0:0:0:
228,156,30983,5,0,0:0:0:0:
200,120,31066,1,0,0:0:0:0:
132,56,31149,1,0,0:0:0:0:
60,188,31316,5,0,0:0:0:0:
84,228,31399,1,0,0:0:0:0:
156,288,31483,1,0,0:0:0:0:
200,296,31566,1,0,0:0:0:0:
244,284,31649,1,0,0:0:0:0:
284,264,31733,1,0,0:0:0:0:
336,184,31816,1,0,0:0:0:0:
392,268,31899,1,0,0:0:0:0:
408,148,31983,1,0,0:0:0:0:
272,128,32066,1,0,0:0:0:0:
408,64,32149,5,0,0:0:0:0:
