osu file format v14

[General]
AudioFilename: audio.mp3
AudioLeadIn: 0
PreviewTime: 63388
Countdown: 0
SampleSet: Soft
StackLeniency: 0.2
Mode: 0
LetterboxInBreaks: 0
WidescreenStoryboard: 0

[Editor]
Bookmarks: 11319,22353,44422,55457,60974,63733,66491,77526,88560,99595,107871,110629,112698,121664,129940,132698,138216,143733,149250,152009,154767,165802,166491,167181,176836,187871,198905,209940,215457,218216,220974,232009,243043,254078,262353,265112,276147,284422,287181
DistanceSpacing: 0.5
BeatDivisor: 4
GridSize: 32
TimelineZoom: 8

[Metadata]
Title:Stardust (feat. Miyoki)
TitleUnicode:Stardust (feat. Miyoki)
Artist:T & Sugah x NCT
ArtistUnicode:T & Sugah x NCT
Creator:Ongaku
Version:Existence
Source:
Tags:
BeatmapID:1407295
BeatmapSetID:664925

[Difficulty]
HPDrainRate:4.5
CircleSize:4
OverallDifficulty:7.5
ApproachRate:9
SliderMultiplier:2
SliderTickRate:1

[Events]
//Background and Video events
0,0,"stardust.jpg",0,0
//Break Periods
//Storyboard Layer 0 (Background)
//Storyboard Layer 1 (Fail)
//Storyboard Layer 2 (Pass)
//Storyboard Layer 3 (Foreground)
//Storyboard Sound Samples

[TimingPoints]
285,344.827586206897,4,2,1,30,1,0
285,-200,4,2,1,30,0,0
20974,-133.333333333333,4,2,1,45,0,0
22353,-200,4,2,1,45,0,0
26491,-133.333333333333,4,2,1,45,0,0
27871,-200,4,2,1,45,0,0
32612,-200,4,2,1,5,0,0
32698,-133.333333333333,4,2,1,45,0,0
35112,-200,4,2,1,45,0,0
37612,-133.333333333333,4,2,1,45,0,0
38905,-200,4,2,1,45,0,0
41750,-200,4,2,1,15,0,0
42698,-200,4,2,1,45,0,0
42785,-200,4,2,1,15,0,0
42871,-200,4,2,1,45,0,0
43043,-200,4,2,1,15,0,0
43388,-200,4,2,1,45,0,0
43560,-200,4,2,1,15,0,0
43733,-200,4,2,1,45,0,0
44078,-100,4,2,1,5,0,0
44422,-100,4,2,2,45,0,0
44681,-100,4,2,2,5,0,0
44767,-100,4,2,2,45,0,0
46405,-100,4,2,2,5,0,0
46491,-100,4,2,2,45,0,0
47440,-100,4,2,2,5,0,0
47526,-100,4,2,2,45,0,0
50198,-100,4,2,2,5,0,0
50285,-100,4,2,2,45,0,0
51922,-100,4,2,2,5,0,0
52009,-100,4,2,2,45,0,0
52957,-100,4,2,2,5,0,0
53043,-100,4,2,2,45,0,0
55026,-100,4,2,2,5,0,0
55112,-100,4,2,2,45,0,0
60974,-66.6666666666667,4,2,2,45,0,0
62353,-66.6666666666667,4,2,2,30,0,0
63043,-66.6666666666667,4,2,2,15,0,0
66147,-100,4,2,2,45,0,0
66491,-100,4,2,3,60,0,1
66750,-100,4,2,3,5,0,1
66836,-100,4,2,3,60,0,1
69509,-100,4,2,3,5,0,1
69595,-100,4,2,3,60,0,1
71922,-100,4,2,3,5,0,1
72009,-100,4,2,3,60,0,1
72267,-100,4,2,3,5,0,1
72353,-100,4,2,3,60,0,1
75026,-100,4,2,3,5,0,1
75112,-100,4,2,3,60,0,1
76750,-100,4,2,3,5,0,1
76836,-100,4,2,3,60,0,1
77181,-100,4,2,3,60,0,0
77526,-100,4,2,3,60,0,1
77785,-100,4,2,3,5,0,1
77871,-100,4,2,3,60,0,1
80543,-100,4,2,3,5,0,1
80629,-100,4,2,3,60,0,1
82957,-100,4,2,3,5,0,1
83043,-100,4,2,3,60,0,1
83302,-100,4,2,3,5,0,1
83388,-100,4,2,3,60,0,1
86060,-100,4,2,3,5,0,1
86147,-100,4,2,3,60,0,1
86836,-133.333333333333,4,2,3,60,0,1
87095,-133.333333333333,4,2,3,5,0,1
87181,-200,4,2,1,60,0,0
88043,-200,4,2,1,60,0,0
88216,-100,4,2,1,60,0,0
88560,-100,4,2,3,60,0,1
88819,-100,4,2,3,5,0,1
88905,-100,4,2,3,60,0,1
91233,-100,4,2,3,5,0,1
91319,-100,4,2,3,60,0,1
94336,-100,4,2,3,5,0,1
94422,-100,4,2,3,60,0,1
96750,-100,4,2,3,5,0,1
96836,-100,4,2,3,60,0,1
99250,-100,4,2,3,60,0,0
99595,-100,4,2,3,60,0,1
99853,-100,4,2,3,5,0,1
99940,-100,4,2,3,60,0,1
102267,-100,4,2,3,5,0,1
102353,-100,4,2,3,60,0,1
105371,-100,4,2,3,5,0,1
105457,-100,4,2,3,60,0,1
107785,-100,4,2,3,5,0,1
107871,-100,4,2,3,60,0,1
110629,-100,4,2,3,60,0,0
112698,-100,4,2,3,30,0,0
113388,-100,4,2,3,60,0,0
113647,-100,4,2,3,5,0,0
113733,-100,4,2,3,60,0,0
114681,-100,4,2,3,5,0,0
114767,-100,4,2,3,60,0,0
115026,-100,4,2,3,5,0,0
115112,-100,4,2,3,60,0,0
116060,-100,4,2,3,5,0,0
116147,-100,4,2,3,60,0,0
116405,-100,4,2,3,5,0,0
116491,-100,4,2,3,60,0,0
117440,-100,4,2,3,5,0,0
117526,-100,4,2,3,60,0,0
118819,-100,4,2,3,5,0,0
118905,-100,4,2,3,60,0,0
119164,-100,4,2,3,5,0,0
119250,-100,4,2,3,60,0,0
120198,-100,4,2,3,5,0,0
120285,-100,4,2,3,60,0,0
121922,-100,4,2,3,5,0,0
122009,-100,4,2,3,60,0,0
122957,-100,4,2,3,5,0,0
123043,-100,4,2,3,60,0,0
124336,-100,4,2,3,5,0,0
124422,-100,4,2,3,60,0,0
124681,-100,4,2,3,5,0,0
124767,-100,4,2,3,60,0,0
125716,-100,4,2,3,5,0,0
125802,-100,4,2,3,60,0,0
126060,-100,4,2,3,5,0,0
126147,-100,4,2,3,60,0,0
127095,-100,4,2,3,5,0,0
127181,-100,4,2,3,60,0,0
127440,-100,4,2,3,5,0,0
127526,-100,4,2,3,60,0,0
127957,-100,4,2,3,5,0,0
128043,-100,4,2,3,60,0,0
128474,-100,4,2,3,5,0,0
128560,-100,4,2,3,60,0,0
129164,-100,4,2,3,5,0,0
129250,-100,4,2,3,60,0,0
129940,-133.333333333333,4,2,3,60,0,0
132009,-200,4,2,3,60,0,0
132526,-100,4,2,1,60,0,0
132698,-100,4,2,3,60,0,0
154767,-200,4,2,3,60,0,0
154853,-200,4,2,3,45,0,0
157526,-200,4,2,3,15,0,0
159940,-200,4,2,3,5,0,0
160285,-200,4,2,3,15,0,0
165457,-200,4,2,3,5,0,0
165802,-200,4,2,3,15,0,0
175802,-200,4,2,3,30,0,0
176491,-200,4,2,3,5,0,0
176836,-200,4,2,1,45,0,0
198905,-100,4,2,2,45,0,0
199164,-100,4,2,2,5,0,0
199250,-100,4,2,2,45,0,0
200888,-100,4,2,2,5,0,0
200974,-100,4,2,2,45,0,0
201922,-100,4,2,2,5,0,0
202009,-100,4,2,2,45,0,0
204681,-100,4,2,2,5,0,0
204767,-100,4,2,2,45,0,0
206405,-100,4,2,2,5,0,0
206491,-100,4,2,2,45,0,0
207440,-100,4,2,2,5,0,0
207526,-100,4,2,2,45,0,0
209509,-100,4,2,2,5,0,0
209595,-100,4,2,2,45,0,0
215457,-66.6666666666667,4,2,2,45,0,0
216836,-66.6666666666667,4,2,2,30,0,0
217526,-66.6666666666667,4,2,2,15,0,0
220629,-66.6666666666667,4,2,2,45,0,0
220974,-100,4,2,3,60,0,1
221233,-100,4,2,3,5,0,1
221319,-100,4,2,3,60,0,1
223991,-100,4,2,3,5,0,1
224078,-100,4,2,3,60,0,1
226405,-100,4,2,3,5,0,1
226491,-100,4,2,3,60,0,1
226750,-100,4,2,3,5,0,1
226836,-100,4,2,3,60,0,1
229509,-100,4,2,3,5,0,1
229595,-100,4,2,3,60,0,1
231233,-100,4,2,3,5,0,1
231319,-100,4,2,3,60,0,1
231664,-100,4,2,3,60,0,0
232009,-100,4,2,3,60,0,1
232267,-100,4,2,3,5,0,1
232353,-100,4,2,3,60,0,1
235026,-100,4,2,3,5,0,1
235112,-100,4,2,3,60,0,1
236750,-100,4,2,3,5,0,1
236836,-100,4,2,3,60,0,1
237785,-100,4,2,3,5,0,1
237871,-100,4,2,3,60,0,1
240543,-100,4,2,3,5,0,1
240629,-100,4,2,3,60,0,1
241319,-133.333333333333,4,2,3,60,0,1
241578,-133.333333333333,4,2,3,5,0,1
241664,-200,4,2,1,60,0,0
242526,-200,4,2,1,60,0,0
242698,-100,4,2,1,60,0,0
243043,-100,4,2,3,60,0,1
243302,-100,4,2,3,5,0,1
243388,-100,4,2,3,60,0,1
245716,-100,4,2,3,5,0,1
245802,-100,4,2,3,60,0,1
248819,-100,4,2,3,5,0,1
248905,-100,4,2,3,60,0,1
251233,-100,4,2,3,5,0,1
251319,-100,4,2,3,60,0,1
253733,-100,4,2,3,60,0,0
254078,-100,4,2,3,60,0,1
254336,-100,4,2,3,5,0,1
254422,-100,4,2,3,60,0,1
256750,-100,4,2,3,5,0,1
256836,-100,4,2,3,60,0,1
259853,-100,4,2,3,5,0,1
259940,-100,4,2,3,60,0,1
262267,-100,4,2,3,5,0,1
262353,-100,4,2,3,60,0,1
265112,-100,4,2,3,60,0,0
265371,-100,4,2,3,5,0,0
265457,-100,4,2,3,60,0,0
267785,-100,4,2,3,5,0,0
267871,-100,4,2,3,60,0,0
268129,-100,4,2,3,5,0,0
268216,-100,4,2,3,60,0,0
270543,-100,4,2,3,5,0,0
270629,-100,4,2,3,60,0,0
270888,-100,4,2,3,5,0,0
270974,-100,4,2,3,60,0,0
273302,-100,4,2,3,5,0,0
273388,-100,4,2,3,60,0,0
273647,-100,4,2,3,5,0,0
273733,-100,4,2,3,60,0,0
276405,-100,4,2,3,5,0,0
276491,-100,4,2,3,60,0,0
278819,-100,4,2,3,5,0,0
278905,-100,4,2,3,60,0,0
279164,-100,4,2,3,5,0,0
279250,-100,4,2,3,60,0,0
281578,-100,4,2,3,5,0,0
281664,-100,4,2,3,60,0,0
281922,-100,4,2,3,5,0,0
282009,-100,4,2,3,60,0,0
287267,-100,4,2,3,15,0,0
292612,-100,4,2,3,5,0,0
292698,-100,4,2,3,10,0,0
297871,-100,4,2,3,5,0,0
298216,-200,4,2,3,5,0,0
298302,-200,4,2,1,5,0,0

[Colours]
Combo1 : 0,0,255
Combo2 : 0,64,128
Combo3 : 0,0,160
Combo4 : 128,128,192

[HitObjects]
96,114,285,6,0,B|132:94|172:107|172:107|216:121|257:89,1,150,4|0,0:0|0:0,0:0:0:0:
141,187,974,2,0,P|122:241|171:315,1,150
323,292,1664,2,0,B|319:252|275:239|275:239|237:253|203:240,1,150
230,68,2353,2,0,L|238:168,1,100
489,113,3043,6,0,B|456:97|417:114|417:114|380:131|341:110,1,150
455,191,3733,2,0,B|475:262|475:262|451:334,1,150
325,260,4422,2,0,L|475:262,1,150
260,312,5112,2,0,L|160:310,1,100
158,55,5802,6,0,B|162:93|191:114|191:114|208:154|184:200,2,150
256,32,7181,1,0,0:0:0:0:
256,32,7871,1,0,0:0:0:0:
354,55,8216,1,0,0:0:0:0:
354,55,8560,6,0,B|350:93|321:114|321:114|304:154|328:200,2,150
427,148,9940,1,0,0:0:0:0:
427,148,10629,1,0,0:0:0:0:
483,212,10802,2,0,L|479:332,1,100
286,384,11319,6,0,L|279:226,1,150,4|0,0:0|0:0,0:0:0:0:
331,145,12009,2,0,B|301:128|259:134|259:134|222:155|174:144,1,150
94,124,12698,2,0,P|135:64|219:60,1,150
185,146,13388,2,0,L|189:262,1,100
80,333,14078,6,0,B|117:316|151:329|151:329|196:348|242:321,1,150
338,368,14767,2,0,P|311:309|362:226,1,150
466,138,15457,2,0,B|437:163|403:163|403:163|368:136|314:146,1,150
245,85,16147,2,0,P|228:130|238:193,1,100
86,238,16836,6,0,B|122:212|162:224|162:224|183:256|224:261,2,150
256,336,18216,1,0,0:0:0:0:
256,336,18905,1,0,0:0:0:0:
426,238,19250,1,0,0:0:0:0:
426,238,19595,6,0,B|390:212|350:224|350:224|329:256|288:261,2,150
282,184,20974,6,0,L|289:101,1,75.0000028610231,6|0,0:3|0:0,0:0:0:0:
201,55,21319,2,0,L|207:129,1,75.0000028610231,6|0,0:3|0:0,0:0:0:0:
245,277,21664,1,8,0:3:0:0:
124,175,21836,1,8,0:3:0:0:
282,184,22009,1,8,0:3:0:0:
148,270,22181,1,8,0:3:0:0:
202,206,22353,6,0,B|247:188|285:207|285:207|305:200|305:200|348:221|402:198,1,200,4|0,0:1|0:0,0:0:0:0:
478,225,23388,2,0,P|449:135|355:127,1,200
137,23,24422,2,0,B|127:72|127:72|151:102|151:102|136:173,1,150
79,248,25112,6,0,P|133:199|206:203,2,150
172,360,26405,1,2,0:3:0:0:
172,360,26491,6,0,L|167:270,1,75.0000028610231,6|0,0:3|0:0,0:0:0:0:
271,238,26836,2,0,L|266:312,1,75.0000028610231,6|0,0:3|0:0,0:0:0:0:
362,274,27181,1,14,0:3:0:0:
452,235,27353,2,0,L|442:70,1,150.000005722046,2|6,0:3|0:3,0:0:0:0:
189,44,27871,6,0,B|252:85|252:85|337:71,2,150,4|0|0,0:1|0:0|0:0,0:0:0:0:
189,44,29595,2,0,L|184:157,1,100
106,206,30112,2,0,L|101:106,1,100
110,305,30629,6,0,L|106:206,1,100,4|0,0:1|0:0,0:0:0:0:
196,267,31147,2,0,L|191:366,1,100
426,314,31664,2,0,B|387:332|350:317|350:317|309:302|265:331,1,150
386,235,32353,2,0,L|390:153,1,75
390,134,32698,6,0,P|428:144|483:129,1,75.0000028610231,2|6,0:3|0:3,0:0:0:0:
315,100,33043,2,0,P|277:90|222:105,1,75.0000028610231,2|6,0:3|0:3,0:0:0:0:
273,195,33388,5,4,0:1:0:0:
273,195,35112,2,0,L|268:302,1,100
186,349,35629,2,0,L|181:249,1,100
70,191,36147,6,0,P|114:209|212:176,2,150,4|0|0,0:1|0:0|0:1,0:0:0:0:
131,78,37612,2,0,L|129:28,2,37.5000014305115,2|2|2,0:3|0:3|0:3,0:0:0:0:
108,25,37871,6,0,B|176:23|176:23|197:35|197:35|280:33,1,150.000005722046,6|6,0:3|0:3,0:0:0:0:
360,140,38388,1,6,0:3:0:0:
360,34,38560,1,4,0:3:0:0:
253,140,38733,1,6,0:3:0:0:
360,140,38905,6,0,B|381:178|365:217|365:217|349:255|377:297,2,150,4|0|0,0:1|0:0|0:0,0:0:0:0:
200,182,40629,2,0,P|248:170|296:182,1,100
132,227,41147,2,0,P|83:238|35:226,1,100
87,145,41664,5,4,0:1:0:0:
256,192,41750,12,0,44078,0:0:0:0:
93,108,44422,6,0,B|134:91|171:109|171:109|217:129|262:101,1,150,6|0,0:0|0:0,0:0:0:0:
262,103,44767,1,2,0:0:0:0:
212,23,44940,2,0,P|163:8|103:10,1,100,0|2,0:0|0:0,0:0:0:0:
252,203,45285,1,0,0:0:0:0:
133,195,45457,2,0,P|182:210|242:208,1,100,2|0,0:0|0:0,0:0:0:0:
262,103,45802,1,2,0:0:0:0:
294,340,45974,1,0,0:0:0:0:
309,177,46147,2,0,B|326:212|310:249|310:249|292:286|311:322,1,150,2|0,0:0|0:0,0:0:0:0:
294,340,46491,6,0,L|181:337,1,100,2|0,0:0|0:0,0:0:0:0:
380,284,46836,2,0,L|493:287,1,100,2|0,0:0|0:0,0:0:0:0:
310,321,47181,6,0,P|309:247|374:204,1,150,2|0,0:0|0:0,0:0:0:0:
389,204,47526,1,2,0:0:0:0:
294,340,47698,2,0,L|181:337,1,100,0|2,0:0|0:0,0:0:0:0:
87,214,48043,1,0,0:0:0:0:
83,333,48216,2,0,B|101:286|101:286|92:238,1,100,2|0,0:0|0:0,0:0:0:0:
3,276,48560,1,2,0:0:0:0:
21,84,48733,2,0,B|3:131|3:131|12:179,1,100,0|2,0:0|0:0,0:0:0:0:
102,140,49078,1,0,0:0:0:0:
207,44,49250,6,0,L|107:41,1,100,2|0,0:0|0:0,0:0:0:0:
288,83,49595,2,0,L|387:80,1,100,2|0,0:0|0:0,0:0:0:0:
465,35,49940,6,0,B|483:75|472:108|472:108|454:152|487:203,1,150,2|0,0:0|0:0,0:0:0:0:
487,202,50285,1,2,0:0:0:0:
387,80,50457,2,0,L|288:83,1,100,0|2,0:0|0:0,0:0:0:0:
208,43,50802,1,0,0:0:0:0:
205,224,50974,2,0,P|224:174|209:125,1,100,2|0,0:0|0:0,0:0:0:0:
133,172,51319,1,2,0:0:0:0:
46,98,51491,1,0,0:0:0:0:
59,262,51664,2,0,B|70:226|46:190|46:190|37:154|61:120,1,150,2|0,0:0|0:0,0:0:0:0:
46,98,52009,6,0,L|148:93,1,100,2|0,0:0|0:0,0:0:0:0:
312,135,52353,2,0,L|210:130,1,100,2|0,0:0|0:0,0:0:0:0:
380,26,52698,6,0,B|365:61|380:92|380:92|403:134|374:189,1,150,2|0,0:0|0:0,0:0:0:0:
373,194,53043,1,2,0:0:0:0:
467,154,53216,2,0,P|468:104|450:58,1,100,0|2,0:0|0:0,0:0:0:0:
310,134,53560,1,0,0:0:0:0:
276,39,53733,2,0,P|274:88|293:135,1,100,2|0,0:0|0:0,0:0:0:0:
467,154,54078,1,2,0:0:0:0:
389,289,54250,2,0,P|391:240|373:194,1,100,0|2,0:0|0:0,0:0:0:0:
127,273,54595,1,0,0:0:0:0:
289,257,54767,6,0,B|259:275|218:257|218:257|182:244|143:261,1,150,2|0,0:0|0:0,0:0:0:0:
258,152,55112,2,0,L|256:127,1,25,8|0,0:0|0:0,0:0:0:0:
258,152,55457,5,2,0:0:0:0:
45,132,55629,1,2,0:0:0:0:
266,165,55802,1,2,0:0:0:0:
53,145,55974,5,2,0:0:0:0:
33,358,56146,1,2,0:0:0:0:
60,156,56319,1,2,0:0:0:0:
92,300,56491,5,2,0:0:0:0:
0,210,56664,1,2,0:0:0:0:
107,312,56836,5,2,0:0:0:0:
245,177,57009,1,2,0:0:0:0:
123,324,57181,1,2,0:0:0:0:
261,189,57354,1,2,0:0:0:0:
396,327,57526,1,2,0:0:0:0:
280,201,57698,1,2,0:0:0:0:
310,339,57870,5,2,0:0:0:0:
367,182,58043,1,2,0:0:0:0:
285,337,58216,5,2,0:0:0:0:
199,101,58389,1,2,0:0:0:0:
263,334,58560,1,2,0:0:0:0:
177,98,58733,5,2,0:0:0:0:
413,12,58906,1,2,0:0:0:0:
160,95,59078,1,2,0:0:0:0:
365,82,59251,5,2,0:0:0:0:
207,23,59422,1,2,0:0:0:0:
388,92,59595,5,2,0:0:0:0:
311,297,59766,1,2,0:0:0:0:
412,103,59940,1,2,0:0:0:0:
335,308,60112,5,2,0:0:0:0:
120,268,60285,1,2,0:0:0:0:
323,331,60457,1,2,0:0:0:0:
164,343,60628,5,2,0:0:0:0:
276,260,60802,1,2,0:0:0:0:
165,27,60974,5,2,0:0:0:0:
163,41,61060,1,2,0:0:0:0:
161,56,61147,1,2,0:0:0:0:
159,70,61233,1,2,0:0:0:0:
157,84,61319,1,2,0:0:0:0:
156,98,61405,1,2,0:0:0:0:
155,112,61491,5,2,0:0:0:0:
183,120,61578,1,2,0:0:0:0:
212,116,61664,1,2,0:0:0:0:
239,104,61750,1,2,0:0:0:0:
268,101,61836,1,2,0:0:0:0:
297,106,61922,1,2,0:0:0:0:
324,118,62009,5,2,0:0:0:0:
310,169,62095,1,2,0:0:0:0:
354,197,62181,1,2,0:0:0:0:
395,164,62267,1,2,0:0:0:0:
376,115,62353,6,0,P|406:85|414:35,1,75.0000028610231,2|2,0:0|0:0,0:0:0:0:
362,268,62526,2,0,P|349:233|354:197,1,75.0000028610231,2|2,0:0|0:0,0:0:0:0:
465,179,62698,2,0,P|428:180|395:164,1,75.0000028610231,2|2,0:0|0:0,0:0:0:0:
310,169,62871,2,0,P|273:177|245:201,1,75.0000028610231,2|2,0:0|0:0,0:0:0:0:
271,69,63043,5,2,0:0:0:0:
280,71,63129,1,2,0:0:0:0:
288,75,63215,1,2,0:0:0:0:
296,80,63301,1,2,0:0:0:0:
303,86,63388,1,2,0:0:0:0:
310,93,63474,1,2,0:0:0:0:
315,101,63560,1,2,0:0:0:0:
320,109,63646,1,2,0:0:0:0:
324,118,63732,5,2,0:0:0:0:
167,284,66147,5,8,0:0:0:0:
151,270,66491,6,2,B|134:235|151:197|151:197|168:152|132:103,1,150,6|0,0:0|0:0,0:0:0:0:
75,167,66836,1,8,0:0:0:0:
224,234,67009,2,2,L|349:230,1,100,0|0,0:0|0:0,0:0:0:0:
403,291,67353,1,2,0:0:0:0:
429,96,67526,2,2,P|410:142|417:191,1,100,8|0,0:0|0:0,0:0:0:0:
495,252,67871,1,2,0:0:0:0:
474,13,68043,2,2,L|374:16,1,100,0|8,0:0|0:0,0:0:0:0:
285,64,68388,1,0,0:0:0:0:
194,25,68560,6,2,P|183:73|200:119,1,100,0|2,0:0|0:0,0:0:0:0:
291,159,68905,2,2,P|302:110|285:64,1,100,8|0,0:0|0:0,0:0:0:0:
183,239,69250,6,2,B|221:222|257:235|257:235|295:251|332:233,1,150,2|0,0:0|0:0,0:0:0:0:
291,159,69595,1,8,0:0:0:0:
226,313,69767,2,2,P|276:324|343:318,1,100,0|0,0:0|0:0,0:0:0:0:
291,159,70112,1,2,0:0:0:0:
193,135,70285,2,2,P|243:134|292:145,1,100,8|0,0:0|0:0,0:0:0:0:
328,234,70629,1,2,0:0:0:0:
378,43,70802,1,2,0:1:0:0:
372,161,70974,2,2,L|377:61,1,100,8|0,0:0|0:0,0:0:0:0:
512,242,71319,6,2,P|462:243|413:232,1,100,0|2,0:0|0:0,0:0:0:0:
290,158,71664,2,2,P|215:152|140:169,1,150,8|0,0:0|0:0,0:0:0:0:
73,138,72009,6,2,B|62:176|80:208|80:208|100:243|82:283,1,150,2|0,0:0|0:0,0:0:0:0:
15,247,72353,1,8,0:0:0:0:
142,168,72526,2,2,P|195:154|265:154,1,100,0|0,0:0|0:0,0:0:0:0:
329,198,72871,1,2,0:0:0:0:
418,154,73043,2,2,L|425:51,1,100,8|0,0:0|0:0,0:0:0:0:
329,198,73388,1,2,0:0:0:0:
246,51,73560,2,2,L|240:151,1,100,0|8,0:0|0:0,0:0:0:0:
329,198,73905,1,0,0:0:0:0:
418,154,74078,6,2,P|386:113|319:102,1,100,0|2,0:0|0:0,0:0:0:0:
238,240,74422,2,2,P|270:281|337:292,1,100,8|0,0:0|0:0,0:0:0:0:
329,198,74767,6,2,B|294:181|259:193|259:193|219:210|176:187,1,150,2|0,0:0|0:0,0:0:0:0:
225,124,75112,1,8,0:0:0:0:
289,268,75285,2,2,L|284:377,1,100,0|0,0:0|0:0,0:0:0:0:
329,198,75629,1,2,0:0:0:0:
225,124,75802,2,2,L|229:24,1,100,8|0,0:0|0:0,0:0:0:0:
183,190,76147,1,2,0:0:0:0:
20,183,76319,1,2,0:1:0:0:
183,190,76491,2,2,B|148:174|110:190|110:190|69:210|23:186,1,150,8|0,0:0|0:0,0:0:0:0:
72,117,76836,6,2,P|119:102|176:104,1,100,0|2,0:0|0:0,0:0:0:0:
147,266,77181,2,2,P|100:281|43:279,1,100,8|0,0:0|0:0,0:0:0:0:
227,302,77526,6,2,B|243:259|225:224|225:224|205:182|236:134,1,150,6|0,0:0|0:0,0:0:0:0:
299,189,77871,1,8,0:0:0:0:
147,266,78043,2,2,P|139:320|169:370,1,100,0|0,0:0|0:0,0:0:0:0:
241,384,78388,1,2,0:0:0:0:
299,189,78560,2,2,P|354:203|413:184,1,100,8|0,0:0|0:0,0:0:0:0:
353,115,78905,1,2,0:0:0:0:
405,41,79078,2,2,P|350:27|291:46,1,100,0|8,0:0|0:0,0:0:0:0:
299,189,79422,1,0,0:0:0:0:
491,197,79595,6,2,P|443:184|395:193,1,100,0|2,0:0|0:0,0:0:0:0:
211,31,79940,2,2,P|259:44|308:36,1,100,8|0,0:0|0:0,0:0:0:0:
136,149,80285,6,2,B|157:108|141:69|141:69|123:34|143:-10,1,150,2|0,0:0|0:0,0:0:0:0:
211,31,80629,1,8,0:0:0:0:
70,104,80802,2,2,P|56:157|91:215,1,100,0|0,0:0|0:0,0:0:0:0:
136,149,81147,1,2,0:0:0:0:
149,323,81319,2,2,P|163:270|128:212,1,100,8|0,0:0|0:0,0:0:0:0:
84,278,81664,1,2,0:0:0:0:
136,149,81836,1,2,0:1:0:0:
252,146,82009,2,2,L|153:149,1,100,8|0,0:0|0:0,0:0:0:0:
345,38,82353,6,2,L|444:40,1,100,0|2,0:0|0:0,0:0:0:0:
401,143,82698,2,2,L|251:146,1,150,8|0,0:0|0:0,0:0:0:0:
168,112,83043,6,2,B|151:151|169:184|169:184|190:231|155:281,1,150,2|0,0:0|0:0,0:0:0:0:
100,220,83388,1,8,0:0:0:0:
251,145,83560,2,2,L|353:143,1,100,0|0,0:0|0:0,0:0:0:0:
439,91,83905,1,2,0:0:0:0:
409,291,84078,2,2,P|393:244|408:197,1,100,8|0,0:0|0:0,0:0:0:0:
489,245,84422,1,2,0:0:0:0:
341,345,84595,2,2,L|241:347,1,100,0|8,0:0|0:0,0:0:0:0:
190,249,84940,1,0,0:0:0:0:
235,146,85112,6,2,P|248:91|225:39,1,100,0|2,0:0|0:0,0:0:0:0:
116,204,85457,2,2,P|103:259|126:311,1,100,8|0,0:0|0:0,0:0:0:0:
335,258,85802,6,2,B|302:242|264:255|264:255|223:268|190:249,1,150,2|0,0:0|0:0,0:0:0:0:
233,184,86147,1,8,0:0:0:0:
298,329,86319,2,2,P|394:316|402:217,1,200,0|2,0:0|0:0,0:0:0:0:
236,71,86836,2,2,L|233:184,1,112.500004291535,8|0,0:0|0:0,0:0:0:0:
250,202,87181,6,0,L|316:206,1,50
73,263,87526,2,0,L|23:266,1,50
140,320,87871,1,0,0:0:0:0:
63,51,88043,5,2,0:3:0:0:
61,64,88130,1,2,0:3:0:0:
59,77,88216,5,6,0:3:0:0:
108,72,88302,1,6,0:3:0:0:
157,67,88388,1,6,0:3:0:0:
206,62,88474,1,6,0:3:0:0:
255,58,88560,6,2,B|241:92|255:125|255:125|272:166|246:210,1,150,6|0,0:0|0:0,0:0:0:0:
187,157,88905,1,8,0:0:0:0:
325,90,89078,2,2,B|377:114|427:90|427:90|486:105|499:160,1,200,0|2,0:0|0:0,0:0:0:0:
410,179,89595,1,10,0:1:0:0:
379,17,89767,1,0,0:0:0:0:
414,200,89940,6,0,L|431:306,1,100,2|2,0:0|0:1,0:0:0:0:
328,257,90285,1,8,0:0:0:0:
496,149,90457,1,0,0:0:0:0:
314,267,90629,2,2,P|265:281|194:258,1,100,0|2,0:0|0:0,0:0:0:0:
61,335,90974,2,2,B|107:329|127:292|127:292|118:250|150:205,1,150,8|0,0:0|0:0,0:0:0:0:
217,272,91319,5,6,0:3:0:0:
55,179,91491,1,0,0:0:0:0:
299,125,91664,1,8,0:0:0:0:
137,32,91836,1,2,0:1:0:0:
229,271,92009,5,0,0:0:0:0:
67,178,92181,1,2,0:0:0:0:
311,124,92354,1,10,0:1:0:0:
149,31,92526,1,0,0:0:0:0:
239,270,92698,5,2,0:0:0:0:
77,177,92870,1,2,0:1:0:0:
321,123,93043,1,10,0:1:0:0:
159,30,93215,1,0,0:0:0:0:
251,269,93388,5,2,0:1:0:0:
89,176,93560,1,2,0:0:0:0:
333,122,93733,1,10,0:1:0:0:
249,381,93905,1,0,0:0:0:0:
215,191,94078,6,2,B|257:178|290:195|290:195|332:214|375:195,1,150,2|0,0:0|0:0,0:0:0:0:
333,122,94422,1,8,0:0:0:0:
251,269,94595,2,2,P|157:257|148:138,1,200,0|2,0:0|0:0,0:0:0:0:
333,122,95112,1,10,0:1:0:0:
215,191,95285,1,0,0:0:0:0:
347,116,95457,6,0,L|446:119,1,100,2|2,0:0|0:1,0:0:0:0:
308,215,95802,1,8,0:0:0:0:
327,22,95975,1,0,0:1:0:0:
325,239,96147,2,0,P|376:225|431:246,1,100,2|2,0:1|0:0,0:0:0:0:
373,311,96491,2,2,B|338:333|299:320|299:320|259:303|215:326,1,150,8|0,0:0|0:0,0:0:0:0:
161,368,96836,5,6,0:3:0:0:
242,159,97009,1,0,0:0:0:0:
157,357,97181,1,8,0:0:0:0:
92,189,97354,1,2,0:1:0:0:
153,345,97526,5,0,0:0:0:0:
234,136,97699,1,2,0:0:0:0:
149,334,97871,1,10,0:1:0:0:
84,166,98044,1,0,0:0:0:0:
145,324,98216,5,2,0:0:0:0:
226,115,98389,1,2,0:1:0:0:
141,313,98560,1,10,0:1:0:0:
76,145,98734,1,0,0:0:0:0:
137,301,98906,5,2,0:1:0:0:
218,92,99079,1,2,0:0:0:0:
68,122,99251,5,10,0:1:0:0:
308,213,99422,1,8,0:0:0:0:
308,213,99509,1,8,0:0:0:0:
308,213,99595,6,2,B|346:231|385:214|385:214|428:198|464:218,1,150,6|0,0:0|0:0,0:0:0:0:
420,288,99940,1,8,0:0:0:0:
346,144,100112,2,2,B|365:99|341:60|341:60|340:34|363:22|363:22|389:38|390:69|365:94,1,200,0|2,0:0|0:0,0:0:0:0:
250,107,100629,1,10,0:1:0:0:
376,79,100802,1,0,0:0:0:0:
231,113,100974,6,0,L|118:105,1,100,2|2,0:0|0:1,0:0:0:0:
327,156,101319,1,8,0:0:0:0:
299,29,101492,1,0,0:1:0:0:
333,180,101664,2,2,P|334:230|307:277,1,100,0|2,0:0|0:0,0:0:0:0:
385,384,102009,2,2,B|368:352|327:345|327:345|279:352|248:315,1,150,8|0,0:0|0:0,0:0:0:0:
310,273,102353,5,6,0:3:0:0:
138,298,102526,1,0,0:0:0:0:
283,113,102698,1,8,0:0:0:0:
111,138,102871,1,2,0:1:0:0:
301,267,103043,5,0,0:0:0:0:
129,292,103216,1,2,0:0:0:0:
274,107,103388,1,10,0:1:0:0:
102,132,103561,1,0,0:0:0:0:
292,261,103733,5,2,0:0:0:0:
120,286,103906,1,2,0:1:0:0:
265,101,104078,1,10,0:1:0:0:
93,126,104251,1,0,0:0:0:0:
283,255,104423,5,2,0:1:0:0:
111,280,104596,1,2,0:0:0:0:
256,95,104768,1,10,0:1:0:0:
212,371,104941,1,0,0:0:0:0:
208,163,105112,6,2,B|243:183|279:173|279:173|329:173|360:219,1,150,2|0,0:0|0:0,0:0:0:0:
283,255,105457,1,8,0:0:0:0:
256,95,105629,2,2,P|172:88|125:184,1,200,0|2,0:0|0:0,0:0:0:0:
283,255,106147,1,10,0:1:0:0:
208,163,106319,1,0,0:0:0:0:
295,270,106491,6,0,L|407:270,1,100,2|2,0:0|0:1,0:0:0:0:
470,194,106836,1,8,0:0:0:0:
503,352,107009,1,0,0:0:0:0:
466,175,107181,2,2,P|460:120|471:74,1,100,0|2,0:0|0:0,0:0:0:0:
318,21,107526,2,2,B|358:40|365:76|365:76|353:115|363:166,1,150,8|0,0:0|0:0,0:0:0:0:
283,96,107871,6,0,P|235:91|166:106,1,100,2|0,0:0|0:0,0:0:0:0:
240,303,108216,2,0,P|245:254|237:205,1,100,2|0,0:0|0:0,0:0:0:0:
35,260,108560,2,0,P|84:265|134:257,1,100,2|0,0:0|0:0,0:0:0:0:
77,53,108905,2,0,P|72:102|81:152,1,100,2|0,0:0|0:0,0:0:0:0:
184,99,109250,5,2,0:0:0:0:
134,257,109422,1,2,0:0:0:0:
81,152,109595,1,2,0:0:0:0:
237,205,109767,1,2,0:0:0:0:
185,330,109940,5,2,0:0:0:0:
168,341,110026,1,2,0:0:0:0:
151,347,110112,1,2,0:0:0:0:
132,349,110198,1,2,0:0:0:0:
114,347,110284,1,2,0:0:0:0:
97,342,110371,1,2,0:0:0:0:
81,333,110457,1,2,0:0:0:0:
66,321,110543,1,2,0:0:0:0:
54,306,110629,5,2,0:0:0:0:
147,93,112698,6,0,L|147:77,28,12.5
141,107,113388,6,0,B|182:92|221:113|221:113|259:130|307:109,1,150,6|0,0:0|0:0,0:0:0:0:
258,41,113733,1,8,0:0:0:0:
176,181,113905,1,0,0:0:0:0:
364,145,114078,2,0,P|367:96|340:55,1,100,0|2,0:0|0:0,0:0:0:0:
499,208,114422,2,0,B|465:193|426:199|426:199|390:235|332:222,1,150,8|0,0:0|0:0,0:0:0:0:
288,188,114767,6,0,B|272:226|286:260|286:260|304:302|276:346,1,150,2|0,0:0|0:0,0:0:0:0:
215,294,115112,1,8,0:0:0:0:
357,225,115285,1,0,0:0:0:0:
194,303,115457,2,0,L|81:298,1,100,0|2,0:0|0:0,0:0:0:0:
283,333,115802,2,0,L|448:340,1,150,8|0,0:0|0:0,0:0:0:0:
502,368,116147,6,0,P|459:316|473:224,1,150,2|0,0:0|0:0,0:0:0:0:
512,177,116491,1,8,0:0:0:0:
432,339,116664,2,0,L|319:334,1,100
188,265,117009,1,2,0:0:0:0:
262,372,117181,2,0,B|247:339|259:304|259:304|282:260|248:206,1,150,8|0,0:0|0:0,0:0:0:0:
188,265,117526,5,2,0:0:0:0:
332,334,117698,1,0,0:0:0:0:
188,265,117871,2,0,P|180:209|225:155,1,100,8|0,0:0|0:0,0:0:0:0:
378,151,118216,2,0,L|278:148,1,100,0|2,0:0|0:0,0:0:0:0:
50,168,118560,2,0,L|199:172,1,150,8|0,0:0|0:0,0:0:0:0:
278,148,118905,6,0,B|260:104|220:94|220:94|189:68|190:28,1,150,2|0,0:0|0:0,0:0:0:0:
268,30,119250,1,8,0:0:0:0:
199,172,119422,2,0,P|228:215|279:231,1,100
417,162,119767,1,2,0:0:0:0:
341,125,119940,2,0,B|327:160|342:196|342:196|362:240|333:281,1,150,8|0,0:0|0:0,0:0:0:0:
272,230,120285,5,2,0:0:0:0:
417,162,120457,1,0,0:0:0:0:
254,239,120629,2,0,L|139:234,1,100,8|0,0:0|0:0,0:0:0:0:
43,177,120974,2,0,P|23:224|38:284,1,100,0|2,0:0|0:0,0:0:0:0:
154,234,121319,1,8,0:0:0:0:
146,106,121491,1,8,0:0:0:0:
146,106,121578,1,8,0:0:0:0:
146,106,121664,6,0,B|183:123|218:111|218:111|262:94|304:119,1,150,6|0,0:0|0:0,0:0:0:0:
255,183,122009,1,8,0:0:0:0:
187,38,122181,1,0,0:0:0:0:
327,213,122353,2,0,P|296:251|240:259,1,100,0|2,0:0|0:0,0:0:0:0:
172,364,122698,2,0,B|195:337|187:298|187:298|167:258|187:221,1,150,8|0,0:0|0:0,0:0:0:0:
255,183,123043,5,2,0:0:0:0:
111,317,123216,1,0,0:0:0:0:
273,170,123388,2,0,L|391:168,1,100,8|0,0:0|0:0,0:0:0:0:
188,222,123733,2,0,L|88:225,1,100,0|2,0:0|0:0,0:0:0:0:
253,40,124078,2,0,P|275:111|255:183,1,150,8|0,0:0|0:0,0:0:0:0:
188,222,124422,6,0,B|208:250|236:259|236:259|263:299|246:343,1,150,2|0,0:0|0:0,0:0:0:0:
170,313,124767,1,8,0:0:0:0:
255,182,124940,2,0,P|308:175|378:200,1,100
443,241,125285,1,2,0:0:0:0:
473,106,125457,2,0,P|437:154|447:248,1,150,8|0,0:0|0:0,0:0:0:0:
491,305,125802,6,0,B|456:328|417:317|417:317|372:300|330:329,1,150,2|0,0:0|0:0,0:0:0:0:
386,384,126147,1,8,0:0:0:0:
442,240,126319,1,0,0:0:0:0:
251,324,126491,2,0,P|299:334|346:319,1,100,0|2,0:0|0:0,0:0:0:0:
177,216,126836,2,0,B|192:256|177:291|177:291|161:335|188:377,1,150,8|0,0:0|0:0,0:0:0:0:
105,252,127181,6,0,P|108:174|189:138,1,150,2|0,0:0|0:0,0:0:0:0:
177,216,127526,1,8,0:0:0:0:
344,158,127698,2,0,B|286:206|286:206|188:216,1,150
163,137,128043,1,2,0:0:0:0:
411,199,128216,2,0,P|415:127|360:81,1,150,8|0,0:0|0:0,0:0:0:0:
286,101,128560,5,2,0:0:0:0:
323,320,128733,1,0,0:0:0:0:
344,158,128905,2,0,B|327:191|337:226|337:226|353:266|333:306,1,150,8|0,0:0|0:0,0:0:0:0:
411,199,129250,6,0,P|462:197|505:222,1,100,0|2,0:0|0:0,0:0:0:0:
268,261,129595,2,0,P|217:263|174:238,1,100,8|0,0:0|0:0,0:0:0:0:
234,45,129940,6,0,B|256:73|251:110|251:110|224:150|245:209,1,150.000005722046
463,155,130457,2,0,B|428:140|393:155|393:155|352:176|295:151,1,150.000005722046
354,86,130974,1,0,0:0:0:0:
430,228,131319,6,0,L|427:310,1,75.0000028610231
325,351,131664,2,0,L|327:276,1,75.0000028610231
148,316,132009,2,0,P|196:298|259:324,1,100
45,355,132526,5,2,0:3:0:0:
55,332,132612,1,2,0:3:0:0:
59,307,132698,5,6,0:0:0:0:
53,147,132871,1,0,0:0:0:0:
56,227,133043,1,8,0:0:0:0:
217,164,133216,6,0,P|168:159|126:184,1,100
296,155,133560,2,0,P|276:110|233:85,1,100,2|8,0:0|0:0,0:0:0:0:
341,219,133905,2,0,P|369:179|369:130,1,100,0|2,0:0|0:0,0:0:0:0:
309,290,134250,2,0,P|357:295|400:270,1,100,0|8,0:0|0:0,0:0:0:0:
231,298,134595,2,0,P|250:342|293:367,1,100
264,227,134940,5,2,0:0:0:0:
157,323,135112,2,0,P|156:273|185:234,1,100,8|0,0:0|0:0,0:0:0:0:
341,219,135457,5,2,0:0:0:0:
185,234,135629,1,0,0:0:0:0:
264,227,135802,1,8,0:0:0:0:
301,53,135974,6,0,L|294:166,1,100
257,326,136319,2,0,L|264:227,1,100,2|8,0:0|0:0,0:0:0:0:
222,60,136664,2,0,L|216:160,1,100,0|2,0:0|0:0,0:0:0:0:
178,333,137009,2,0,L|185:234,1,100,0|8,0:0|0:0,0:0:0:0:
141,66,137353,2,0,L|134:165,1,100
97,339,137698,5,2,0:0:0:0:
103,239,137871,2,0,L|97:339,1,100,8|0,0:0|0:0,0:0:0:0:
422,331,138216,5,2,0:0:0:0:
422,249,138388,1,0,0:0:0:0:
352,291,138560,1,8,0:0:0:0:
471,185,138733,6,0,P|428:169|376:183,1,100
298,137,139078,2,0,P|332:102|381:93,1,100,2|8,0:0|0:0,0:0:0:0:
258,57,139422,2,0,P|222:86|208:138,1,100,0|2,0:0|0:0,0:0:0:0:
130,182,139767,2,0,P|116:135|132:89,1,100,0|8,0:0|0:0,0:0:0:0:
39,178,140112,2,0,P|49:226|84:260,1,100
9,312,140457,5,2,0:0:0:0:
97,349,140629,2,0,P|48:344|10:313,1,100,8|0,0:0|0:0,0:0:0:0:
171,296,140974,5,2,0:0:0:0:
97,349,141147,1,0,0:0:0:0:
84,260,141319,1,8,0:0:0:0:
270,293,141491,6,0,L|171:296,1,100
362,232,141836,2,0,L|461:229,1,100,2|8,0:0|0:0,0:0:0:0:
268,215,142181,2,0,L|168:217,1,100,0|2,0:0|0:0,0:0:0:0:
359,153,142526,2,0,L|458:150,1,100,0|8,0:0|0:0,0:0:0:0:
267,135,142871,2,0,L|167:137,1,100
358,73,143216,5,2,0:0:0:0:
457,70,143388,2,0,L|358:73,1,100,8|0,0:0|0:0,0:0:0:0:
362,232,143733,5,6,0:0:0:0:
357,73,143905,1,0,0:0:0:0:
359,153,144078,1,8,0:0:0:0:
192,111,144250,6,0,P|239:99|284:119,1,100
114,112,144595,2,0,P|128:64|168:36,1,100,2|8,0:0|0:0,0:0:0:0:
76,181,144940,2,0,P|42:145|37:96,1,100,0|2,0:0|0:0,0:0:0:0:
116,248,145285,2,0,P|68:259|23:239,1,100,0|8,0:0|0:0,0:0:0:0:
195,247,145629,2,0,P|180:294|140:322,1,100
154,181,145974,5,2,0:0:0:0:
271,262,146147,2,0,P|266:214|232:178,1,100,8|0,0:0|0:0,0:0:0:0:
76,181,146491,5,2,0:0:0:0:
232,178,146664,1,0,0:0:0:0:
154,181,146836,1,8,0:0:0:0:
108,346,147009,6,0,L|114:246,1,100
160,81,147353,2,0,L|154:181,1,100,2|8,0:0|0:0,0:0:0:0:
186,342,147698,2,0,L|193:243,1,100,0|2,0:0|0:0,0:0:0:0:
238,78,148043,2,0,L|232:178,1,100,0|8,0:0|0:0,0:0:0:0:
265,341,148388,2,0,L|271:241,1,100
317,76,148733,5,2,0:0:0:0:
310,175,148905,2,0,L|317:76,1,100,8|0,0:0|0:0,0:0:0:0:
90,167,149250,5,2,0:0:0:0:
151,220,149422,1,0,0:0:0:0:
75,245,149595,1,8,0:0:0:0:
65,88,149767,6,0,P|115:90|155:117,1,100
244,100,150112,2,0,P|222:55|181:30,1,100,2|8,0:0|0:0,0:0:0:0:
311,38,150457,2,0,P|334:82|330:131,1,100,0|2,0:0|0:0,0:0:0:0:
389,198,150802,2,0,P|417:158|419:109,1,100,0|8,0:0|0:0,0:0:0:0:
462,254,151147,2,0,P|422:284|373:289,1,100
410,373,151491,5,2,0:0:0:0:
315,359,151664,2,0,P|360:379|410:373,1,100,8|0,0:0|0:0,0:0:0:0:
209,236,152009,6,0,L|197:343,1,100,2|0,0:0|0:0,0:0:0:0:
212,145,152353,2,0,L|112:133,1,100,2|0,0:0|0:0,0:0:0:0:
303,148,152698,2,0,L|315:41,1,100,2|0,0:0|0:0,0:0:0:0:
300,239,153043,2,0,L|399:250,1,100,2|0,0:0|0:0,0:0:0:0:
209,236,153388,5,2,0:0:0:0:
212,145,153560,1,2,0:0:0:0:
303,148,153733,1,2,0:0:0:0:
300,239,153905,1,2,0:0:0:0:
112,133,154078,5,2,0:0:0:0:
314,48,154250,1,2,0:0:0:0:
399,250,154423,1,2,0:0:0:0:
197,335,154595,1,2,0:0:0:0:
256,192,154767,5,6,0:0:0:0:
256,192,154853,12,0,159940,0:0:0:0:
101,121,160285,6,0,B|63:134|60:181|79:208|112:217|143:213|171:185|168:146|138:124|138:124|183:153|236:134|236:134|295:118|336:146|336:146|334:203|281:220|281:220|217:187|259:60,1,700
332,61,162871,1,0,0:0:0:0:
397,97,163043,5,0,0:0:0:0:
256,192,163388,12,0,165457,0:0:0:0:
163,162,165802,6,0,B|195:117|270:142|270:142|249:201|220:201|220:201|247:228|241:279|199:303|157:296|127:268|131:231|131:231|81:207|77:155|97:118|97:118|160:44|255:58,1,700
314,77,168388,1,0,0:0:0:0:
387,61,168560,6,0,B|510:115|468:287|352:331|267:267|267:267|208:301|153:275|153:275|97:242|23:286|41:362,1,700
113,338,171147,1,0,0:0:0:0:
151,273,171319,6,0,B|177:207|138:86|44:97|44:97|3:160|53:206|53:206|112:202|146:139|146:139|224:40|336:62,1,700
407,81,173905,1,0,0:0:0:0:
469,122,174078,6,0,B|437:178|466:246|466:246|462:324|371:331|320:273|348:183|434:178|462:233,1,400
256,192,175543,12,0,176491,0:0:0:0:
161,56,176836,6,0,B|143:101|159:140|159:140|156:160|156:160|176:209|144:260,1,200,4|0,0:1|0:0,0:0:0:0:
158,336,177871,2,0,P|74:293|80:199,1,200
291,240,178905,2,0,B|265:220|220:229|220:229|189:255|150:250,1,150
248,305,179595,2,0,P|304:317|351:289,1,100
163,75,180112,2,0,L|167:184,1,100
291,240,180629,2,0,L|285:90,1,150
447,33,181319,6,0,P|429:73|442:137,1,100
484,201,181836,2,0,P|492:249|473:295,1,100
312,244,182353,6,0,L|420:237,1,100
237,183,182871,2,0,L|129:176,1,100
65,292,183388,2,0,B|87:253|70:217|70:217|47:169|79:129,1,150
48,44,184078,6,0,P|88:66|150:60,1,100
226,32,184595,2,0,P|275:28|319:51,1,100
262,208,185112,6,0,L|258:99,1,100
341,267,185629,2,0,L|337:366,1,100
395,187,186147,2,0,P|324:170|262:208,1,150
448,131,186836,2,0,P|335:212|184:160,1,300
192,168,189595,6,0,L|186:280,1,100
72,312,190112,2,0,L|77:212,1,100
186,267,190629,2,0,P|236:287|292:269,1,100
361,238,191147,2,0,P|409:227|454:246,1,100
280,276,191664,2,0,B|265:239|281:203|281:203|296:159|267:117,1,150
108,163,192353,6,0,L|221:172,1,100
375,123,192871,2,0,L|275:130,1,100
203,25,193388,2,0,B|219:59|206:98|206:98|191:130|207:170,2,150
41,50,195112,6,0,P|89:69|148:58,1,100
203,25,195629,2,0,P|252:19|298:38,1,100
383,124,196147,6,0,L|388:3,1,100
457,185,196664,2,0,L|461:284,1,100
500,352,197181,2,0,B|464:370|429:355|429:355|389:334|344:354,1,150
285,379,197871,1,0,0:0:0:0:
259,172,198216,2,0,P|308:229|281:316,1,150
223,251,198905,6,0,B|190:234|152:249|152:249|109:265|69:244,1,150,6|0,0:0|0:0,0:0:0:0:
55,235,199250,1,2,0:0:0:0:
89,328,199422,2,0,P|138:330|187:317,1,100,0|2,0:0|0:0,0:0:0:0:
118,180,199767,1,0,0:0:0:0:
214,155,199940,2,0,P|164:153|116:166,1,100,2|0,0:0|0:0,0:0:0:0:
189,329,200285,1,2,0:0:0:0:
214,155,200457,1,0,0:0:0:0:
361,170,200629,2,0,P|288:185|216:168,1,150,2|0,0:0|0:0,0:0:0:0:
214,155,200974,6,0,P|209:106|229:52,1,100,2|0,0:0|0:0,0:0:0:0:
321,234,201319,2,0,P|326:283|306:337,1,100,2|0,0:0|0:0,0:0:0:0:
214,155,201664,6,0,B|253:173|289:155|289:155|331:141|367:163,1,150,2|0,0:0|0:0,0:0:0:0:
379,173,202009,1,2,0:0:0:0:
251,87,202181,2,0,P|200:79|147:114,1,100,0|2,0:0|0:0,0:0:0:0:
214,155,202526,1,0,0:0:0:0:
340,242,202698,2,0,P|388:250|433:228,1,100,2|0,0:0|0:0,0:0:0:0:
379,173,203043,1,2,0:0:0:0:
131,196,203216,1,0,0:0:0:0:
142,82,203388,2,0,L|133:183,1,100,2|0,0:0|0:0,0:0:0:0:
0,269,203733,6,0,P|47:252|99:268,1,100,2|0,0:0|0:0,0:0:0:0:
254,309,204078,2,0,P|207:326|155:310,1,100,2|0,0:0|0:0,0:0:0:0:
323,201,204422,6,0,B|308:238|323:269|323:269|343:307|321:355,1,150,2|0,0:0|0:0,0:0:0:0:
313,368,204767,1,2,0:0:0:0:
396,234,204940,2,0,L|500:230,1,100,0|2,0:0|0:0,0:0:0:0:
323,201,205285,1,0,0:0:0:0:
254,309,205457,2,0,L|150:305,1,100,2|0,0:0|0:0,0:0:0:0:
324,346,205802,1,2,0:0:0:0:
419,154,205974,1,0,0:0:0:0:
261,115,206147,2,0,B|302:128|339:109|339:109|383:114|407:144,1,150,2|0,0:0|0:0,0:0:0:0:
419,154,206491,6,0,P|467:160|512:136,1,100,2|0,0:0|0:0,0:0:0:0:
295,43,206836,2,0,P|247:37|202:61,1,100,2|0,0:0|0:0,0:0:0:0:
130,175,207181,6,0,B|149:137|134:101|134:101|114:66|133:25,1,150,2|0,0:0|0:0,0:0:0:0:
142,8,207526,1,2,0:0:0:0:
49,37,207698,2,0,P|48:86|64:134,1,100,0|2,0:0|0:0,0:0:0:0:
130,30,208043,1,0,0:0:0:0:
217,157,208216,2,0,P|218:107|202:60,1,100,2|0,0:0|0:0,0:0:0:0:
64,134,208560,1,2,0:0:0:0:
65,217,208733,1,0,0:0:0:0:
122,274,208905,2,0,P|143:229|137:181,1,100,2|0,0:0|0:0,0:0:0:0:
84,344,209250,6,0,B|120:358|156:346|156:346|201:328|240:352,1,150,2|0,0:0|0:0,0:0:0:0:
302,380,209595,2,0,L|311:351,1,25,8|0,0:0|0:0,0:0:0:0:
302,380,209940,5,2,0:0:0:0:
442,244,210112,1,2,0:0:0:0:
309,356,210285,1,2,0:0:0:0:
449,220,210457,5,2,0:0:0:0:
337,87,210630,1,2,0:0:0:0:
456,195,210802,1,2,0:0:0:0:
417,84,210975,5,2,0:0:0:0:
376,198,211147,1,2,0:0:0:0:
498,83,211319,5,2,0:0:0:0:
277,31,211491,1,2,0:0:0:0:
488,107,211664,1,2,0:0:0:0:
267,55,211836,5,2,0:0:0:0:
56,131,212009,1,2,0:0:0:0:
258,80,212181,1,2,0:0:0:0:
134,171,212354,5,2,0:0:0:0:
179,44,212526,1,2,0:0:0:0:
121,197,212698,5,2,0:0:0:0:
92,18,212871,1,2,0:0:0:0:
111,223,213043,1,2,0:0:0:0:
82,44,213216,5,2,0:0:0:0:
276,146,213388,1,2,0:0:0:0:
74,70,213560,1,2,0:0:0:0:
251,66,213732,5,2,0:0:0:0:
97,152,213905,1,2,0:0:0:0:
276,55,214078,5,2,0:0:0:0:
276,237,214250,1,2,0:0:0:0:
303,64,214422,1,2,0:0:0:0:
303,246,214595,5,2,0:0:0:0:
485,246,214767,1,2,0:0:0:0:
325,255,214940,1,2,0:0:0:0:
424,187,215112,5,2,0:0:0:0:
388,313,215285,1,2,0:0:0:0:
393,8,215457,5,2,0:0:0:0:
389,22,215543,1,2,0:0:0:0:
385,36,215629,1,2,0:0:0:0:
381,50,215716,1,2,0:0:0:0:
378,64,215802,1,2,0:0:0:0:
375,78,215888,1,2,0:0:0:0:
372,92,215974,5,2,0:0:0:0:
344,81,216060,1,2,0:0:0:0:
314,86,216147,1,2,0:0:0:0:
289,103,216233,1,2,0:0:0:0:
273,128,216319,1,2,0:0:0:0:
268,157,216405,1,2,0:0:0:0:
275,186,216491,5,2,0:0:0:0:
325,202,216577,1,2,0:0:0:0:
325,255,216663,1,2,0:0:0:0:
275,271,216749,1,2,0:0:0:0:
244,229,216836,6,0,L|151:231,1,75.0000028610231,2|2,0:0|0:0,0:0:0:0:
385,299,217009,2,0,L|325:255,1,75.0000028610231,2|2,0:0|0:0,0:0:0:0:
253,342,217181,2,0,L|275:271,1,75.0000028610231,2|2,0:0|0:0,0:0:0:0:
325,202,217353,2,0,L|405:148,1,75.0000028610231,2|2,0:0|0:0,0:0:0:0:
258,112,217526,5,2,0:0:0:0:
260,122,217612,1,2,0:0:0:0:
262,131,217698,1,2,0:0:0:0:
264,140,217784,1,2,0:0:0:0:
266,149,217871,1,2,0:0:0:0:
268,158,217957,1,2,0:0:0:0:
270,167,218043,1,2,0:0:0:0:
272,176,218129,1,2,0:0:0:0:
275,186,218215,5,2,0:0:0:0:
258,112,220629,5,8,0:0:0:0:
246,95,220974,6,2,B|214:79|173:96|173:96|133:115|85:90,1,150,6|0,0:0|0:0,0:0:0:0:
137,27,221319,1,8,0:0:0:0:
213,171,221491,2,2,L|221:279,1,100,0|0,0:0|0:0,0:0:0:0:
246,95,221836,1,2,0:0:0:0:
137,27,222009,2,2,P|196:13|258:20,1,100,8|0,0:0|0:0,0:0:0:0:
327,51,222353,1,2,0:0:0:0:
424,28,222526,6,2,L|418:135,1,100,0|8,0:0|0:0,0:0:0:0:
405,280,222871,1,0,0:0:0:0:
458,220,223043,2,2,P|410:201|354:218,1,100,0|2,0:0|0:0,0:0:0:0:
351,340,223388,2,2,P|399:359|455:342,1,100,8|0,0:0|0:0,0:0:0:0:
281,173,223733,6,2,B|263:213|279:250|279:250|294:288|268:336,1,150,2|0,0:0|0:0,0:0:0:0:
205,280,224078,1,8,0:0:0:0:
350,214,224250,2,2,L|462:210,1,100,0|0,0:0|0:0,0:0:0:0:
281,173,224595,1,2,0:0:0:0:
205,280,224767,2,2,L|105:276,1,100,8|0,0:0|0:0,0:0:0:0:
27,327,225112,1,2,0:0:0:0:
54,94,225285,1,2,0:1:0:0:
54,213,225457,2,2,P|68:165|63:116,1,100,8|0,0:0|0:0,0:0:0:0:
38,15,225802,6,2,L|155:21,1,100,0|2,0:0|0:0,0:0:0:0:
357,46,226147,2,2,L|188:55,1,150,8|0,0:0|0:0,0:0:0:0:
137,20,226491,6,2,B|122:54|138:87|138:87|154:134|117:177,1,150,2|0,0:0|0:0,0:0:0:0:
63,115,226836,1,8,0:0:0:0:
208,54,227009,2,2,L|307:48,1,100,0|0,0:0|0:0,0:0:0:0:
137,20,227353,1,2,0:0:0:0:
55,111,227526,2,2,P|39:160|55:214,1,100,8|0,0:0|0:0,0:0:0:0:
145,260,227871,1,2,0:0:0:0:
234,211,228043,2,2,P|282:200|329:216,1,100,0|8,0:0|0:0,0:0:0:0:
362,293,228388,1,0,0:0:0:0:
275,380,228560,6,2,L|280:266,1,100,0|2,0:0|0:0,0:0:0:0:
333,117,228905,2,2,L|329:217,1,100,8|0,0:0|0:0,0:0:0:0:
372,48,229250,6,2,B|336:29|296:46|296:46|250:63|216:41,1,150,2|0,0:0|0:0,0:0:0:0:
157,5,229595,1,8,0:0:0:0:
333,117,229767,2,2,P|384:127|428:104,1,100,0|0,0:0|0:0,0:0:0:0:
372,48,230112,1,2,0:0:0:0:
157,5,230285,2,2,P|146:55|183:118,1,100,8|0,0:0|0:0,0:0:0:0:
226,46,230629,1,2,0:0:0:0:
221,154,230802,1,2,0:1:0:0:
57,174,230974,2,2,B|93:158|131:170|131:170|167:183|204:166,1,150,8|0,0:0|0:0,0:0:0:0:
101,244,231319,6,2,L|95:351,1,100,0|2,0:0|0:0,0:0:0:0:
163,99,231664,2,2,L|157:0,1,100,8|0,0:0|0:0,0:0:0:0:
270,124,232009,6,2,B|290:165|274:204|274:204|258:242|284:282,1,150,6|0,0:0|0:0,0:0:0:0:
345,234,232353,1,8,0:0:0:0:
203,166,232526,2,2,P|167:176|103:153,1,100,0|0,0:0|0:0,0:0:0:0:
270,124,232871,1,2,0:0:0:0:
345,234,233043,2,2,P|381:224|445:247,1,100,8|0,0:0|0:0,0:0:0:0:
385,327,233388,1,2,0:0:0:0:
191,263,233560,2,2,P|188:213|203:166,1,100,0|8,0:0|0:0,0:0:0:0:
270,124,233905,1,0,0:0:0:0:
379,85,234078,6,2,P|337:112|288:123,1,100,0|2,0:0|0:0,0:0:0:0:
128,10,234422,2,2,P|172:32|206:68,1,100,8|0,0:0|0:0,0:0:0:0:
209,311,234767,6,2,B|189:274|206:236|206:236|221:192|193:150,1,150,2|0,0:0|0:0,0:0:0:0:
128,205,235112,1,8,0:0:0:0:
279,270,235285,2,2,L|400:265,1,100,0|0,0:0|0:0,0:0:0:0:
209,311,235629,1,2,0:0:0:0:
128,205,235802,2,2,L|7:200,1,100,8|0,0:0|0:0,0:0:0:0:
202,165,236147,1,2,0:0:0:0:
150,93,236319,1,2,0:1:0:0:
309,85,236491,2,2,B|275:101|237:85|237:85|202:71|163:86,1,150,8|0,0:0|0:0,0:0:0:0:
93,148,236836,6,2,P|70:94|84:47,1,100,0|2,0:0|0:0,0:0:0:0:
368,31,237181,2,2,P|391:85|377:132,1,100,8|0,0:0|0:0,0:0:0:0:
374,268,237526,6,2,B|393:231|380:196|380:196|365:158|381:123,1,150,2|0,0:0|0:0,0:0:0:0:
452,161,237871,1,8,0:0:0:0:
307,225,238043,2,2,L|195:218,1,100,0|0,0:0|0:0,0:0:0:0:
143,296,238388,1,2,0:0:0:0:
187,140,238560,2,2,P|140:169|125:231,1,100,8|0,0:0|0:0,0:0:0:0:
207,218,238905,1,2,0:0:0:0:
249,85,239078,2,2,P|200:58|139:76,1,100,0|8,0:0|0:0,0:0:0:0:
187,140,239422,1,0,0:0:0:0:
335,138,239595,6,2,L|344:35,1,100,0|2,0:0|0:0,0:0:0:0:
417,276,239940,2,2,L|425:375,1,100,8|0,0:0|0:0,0:0:0:0:
449,203,240285,6,2,B|412:189|371:208|371:208|327:226|279:200,1,150,2|0,0:0|0:0,0:0:0:0:
335,138,240629,1,0,0:0:0:0:
310,291,240802,2,2,P|223:239|248:149,1,200,0|0,0:0|0:0,0:0:0:0:
326,25,241319,2,2,L|335:138,1,112.500004291535,8|0,0:0|0:0,0:0:0:0:
352,156,241664,6,0,L|415:160,1,50
253,71,242009,2,0,L|190:75,1,50
326,25,242353,1,0,0:0:0:0:
384,274,242526,5,2,0:3:0:0:
387,285,242612,1,2,0:3:0:0:
390,296,242698,5,6,0:3:0:0:
339,295,242785,1,6,0:3:0:0:
289,294,242871,1,6,0:3:0:0:
239,294,242957,1,6,0:3:0:0:
189,294,243043,6,2,B|206:252|191:220|191:220|176:178|201:141,1,150,6|0,0:0|0:0,0:0:0:0:
265,188,243388,1,8,0:0:0:0:
119,251,243560,2,2,P|114:143|184:52,1,200,0|2,0:0|0:0,0:0:0:0:
357,77,244078,1,10,0:1:0:0:
196,148,244250,1,0,0:0:0:0:
381,67,244422,6,0,L|496:23,1,100,2|2,0:0|0:1,0:0:0:0:
312,193,244767,1,8,0:0:0:0:
241,32,244939,1,0,0:0:0:0:
324,217,245112,2,0,P|331:267|312:324,1,100,2|2,0:1|0:0,0:0:0:0:
454,316,245457,6,2,B|432:290|386:289|386:289|360:313|317:313,1,150,8|0,0:0|0:0,0:0:0:0:
242,301,245802,5,6,0:3:0:0:
271,107,245974,1,0,0:0:0:0:
353,218,246147,1,8,0:0:0:0:
159,189,246319,1,2,0:1:0:0:
226,299,246491,5,0,0:0:0:0:
255,105,246664,1,2,0:0:0:0:
337,216,246836,1,10,0:1:0:0:
143,187,247008,1,0,0:0:0:0:
210,297,247181,5,2,0:0:0:0:
239,103,247353,1,2,0:1:0:0:
321,214,247526,1,10,0:1:0:0:
127,185,247698,1,0,0:0:0:0:
194,295,247870,5,2,0:1:0:0:
223,101,248043,1,2,0:0:0:0:
305,212,248215,1,10,0:1:0:0:
88,377,248387,1,0,0:0:0:0:
208,99,248560,6,2,B|247:78|286:97|286:97|336:112|376:79,1,150,2|0,0:0|0:0,0:0:0:0:
317,27,248905,1,8,0:0:0:0:
249,164,249078,2,2,B|219:205|242:252|242:252|277:310|225:370,1,200,0|2,0:0|0:0,0:0:0:0:
305,212,249595,1,10,0:1:0:0:
181,298,249767,1,0,0:0:0:0:
324,200,249940,6,0,L|446:206,1,100,2|2,0:0|0:1,0:0:0:0:
163,189,250285,1,8,0:0:0:0:
320,319,250457,1,0,0:0:0:0:
143,174,250629,2,2,P|95:165|31:182,1,100,0|2,0:0|0:0,0:0:0:0:
240,49,250974,2,2,B|215:79|222:117|222:117|256:160|231:219,1,150,8|0,0:0|0:0,0:0:0:0:
143,174,251319,5,6,0:3:0:0:
309,98,251491,1,0,0:0:0:0:
303,242,251664,1,8,0:0:0:0:
315,115,251836,1,2,0:1:0:0:
154,207,252009,5,0,0:0:0:0:
320,131,252181,1,2,0:0:0:0:
314,275,252353,1,10,0:1:0:0:
326,148,252526,1,0,0:0:0:0:
164,237,252698,5,2,0:0:0:0:
330,161,252871,1,2,0:1:0:0:
324,305,253043,1,10,0:1:0:0:
336,178,253215,1,0,0:0:0:0:
175,270,253388,5,2,0:1:0:0:
341,194,253560,1,2,0:0:0:0:
335,338,253733,5,10,0:1:0:0:
183,139,253905,1,8,0:0:0:0:
183,139,253991,1,8,0:0:0:0:
183,139,254078,6,2,B|146:120|108:137|108:137|65:157|14:127,1,150,6|0,0:0|0:0,0:0:0:0:
72,65,254422,1,8,0:0:0:0:
144,210,254595,2,2,P|234:201|246:91,1,200,0|2,0:0|0:0,0:0:0:0:
223,250,255112,1,10,0:1:0:0:
194,56,255285,1,0,0:0:0:0:
227,275,255457,6,0,L|237:374,1,100,2|2,0:0|0:1,0:0:0:0:
305,138,255802,1,8,0:0:0:0:
111,167,255975,1,0,0:0:0:0:
331,135,256147,2,2,P|383:140|424:180,1,100,0|2,0:0|0:0,0:0:0:0:
356,359,256491,2,2,B|334:328|339:295|339:295|366:248|339:199,1,150,8|0,0:0|0:0,0:0:0:0:
266,247,256836,5,6,0:3:0:0:
418,169,257009,1,0,0:0:0:0:
381,284,257181,1,8,0:0:0:0:
303,132,257354,1,2,0:1:0:0:
258,233,257526,5,0,0:0:0:0:
410,155,257699,1,2,0:0:0:0:
373,270,257871,1,10,0:1:0:0:
295,118,258043,1,0,0:0:0:0:
251,218,258216,5,2,0:0:0:0:
403,140,258389,1,2,0:1:0:0:
366,255,258561,1,10,0:1:0:0:
288,103,258734,1,0,0:0:0:0:
243,204,258906,5,2,0:1:0:0:
395,126,259079,1,2,0:0:0:0:
358,241,259251,1,10,0:1:0:0:
432,12,259423,1,0,0:0:0:0:
235,191,259595,6,2,B|205:210|163:196|163:196|117:178|67:213,1,150,2|0,0:0|0:0,0:0:0:0:
131,273,259940,1,8,0:0:0:0:
9,158,260112,2,2,P|96:112|195:122,1,200,0|2,0:0|0:0,0:0:0:0:
289,250,260629,1,10,0:1:0:0:
131,273,260802,1,0,0:0:0:0:
313,245,260974,6,0,L|429:233,1,100,2|2,0:0|0:1,0:0:0:0:
198,182,261319,1,8,0:0:0:0:
221,340,261491,1,0,0:0:0:0:
193,155,261664,2,2,P|149:131|82:145,1,100,0|2,0:0|0:0,0:0:0:0:
272,36,262009,6,2,B|258:75|273:108|273:108|296:153|267:203,1,150,8|0,0:0|0:0,0:0:0:0:
346,70,262353,6,0,L|445:65,1,100,2|0,0:0|0:0,0:0:0:0:
134,102,262698,2,0,L|129:3,1,100,2|0,0:0|0:0,0:0:0:0:
166,314,263043,2,0,L|67:319,1,100,2|0,0:0|0:0,0:0:0:0:
378,282,263388,2,0,L|383:381,1,100,2|0,0:0|0:0,0:0:0:0:
233,42,263733,5,2,0:0:0:0:
106,214,263905,1,2,0:0:0:0:
278,341,264078,1,2,0:0:0:0:
405,169,264250,1,2,0:0:0:0:
202,121,264422,5,2,0:0:0:0:
201,136,264509,1,2,0:0:0:0:
200,150,264595,1,2,0:0:0:0:
199,164,264681,1,2,0:0:0:0:
198,178,264767,1,2,0:0:0:0:
197,192,264853,1,2,0:0:0:0:
196,207,264940,1,2,0:0:0:0:
195,221,265026,1,2,0:0:0:0:
194,235,265112,6,0,B|231:254|271:237|271:237|317:220|359:250,1,150,6|0,0:0|0:0,0:0:0:0:
303,312,265457,1,8,0:0:0:0:
235,167,265629,2,0,P|150:169|125:275,1,200,0|2,0:0|0:0,0:0:0:0:
227,347,266147,1,8,0:0:0:0:
194,235,266319,1,0,0:0:0:0:
146,355,266491,6,0,P|102:366|46:359,1,100,2|0,0:0|0:0,0:0:0:0:
194,235,266836,1,8,0:0:0:0:
227,347,267009,1,0,0:0:0:0:
273,225,267181,2,0,P|317:214|373:221,1,100,0|2,0:0|0:0,0:0:0:0:
449,371,267526,2,0,B|418:344|431:293|431:293|458:271|458:235,1,150,8|0,0:0|0:0,0:0:0:0:
371,221,267871,6,0,B|336:241|301:230|301:230|256:214|217:240,1,150,2|0,0:0|0:0,0:0:0:0:
269,301,268216,1,8,0:0:0:0:
327,144,268388,2,0,P|422:149|458:236,1,200,0|2,0:0|0:0,0:0:0:0:
269,301,268905,1,8,0:0:0:0:
371,221,269078,1,0,0:0:0:0:
184,135,269250,6,0,L|75:139,1,100,2|0,0:0|0:0,0:0:0:0:
132,240,269595,1,8,0:0:0:0:
218,49,269767,1,0,0:0:0:0:
308,205,269940,1,0,0:0:0:0:
394,14,270112,1,2,0:0:0:0:
455,229,270285,2,0,B|424:214|387:233|387:233|373:272|331:286,1,150,8|0,0:0|0:0,0:0:0:0:
243,263,270629,6,0,B|207:248|169:265|169:265|125:286|77:256,1,150,2|0,0:0|0:0,0:0:0:0:
209,339,270974,1,8,0:0:0:0:
132,190,271147,2,0,B|155:148|137:100|137:100|134:38|193:9,1,200,0|2,0:0|0:0,0:0:0:0:
55,140,271664,1,8,0:0:0:0:
223,88,271836,1,0,0:0:0:0:
39,144,272009,6,0,P|23:201|42:254,1,100,2|0,0:0|0:0,0:0:0:0:
229,183,272353,1,8,0:0:0:0:
22,242,272526,1,0,0:0:0:0:
244,180,272698,2,0,P|253:131|237:84,1,100,0|2,0:0|0:0,0:0:0:0:
159,276,273043,2,0,B|317:269,1,150,8|0,0:0|0:0,0:0:0:0:
389,313,273388,6,0,B|407:268|392:237|392:237|377:195|401:158,1,150,2|0,0:0|0:0,0:0:0:0:
466,204,273733,1,8,0:0:0:0:
308,269,273905,2,0,P|305:158|357:79,1,200,0|2,0:0|0:0,0:0:0:0:
506,49,274422,1,8,0:0:0:0:
466,204,274595,1,0,0:0:0:0:
350,85,274767,6,0,P|295:74|238:90,1,100,2|0,0:0|0:0,0:0:0:0:
466,204,275112,1,8,0:0:0:0:
506,49,275285,1,0,0:0:0:0:
407,145,275457,1,0,0:0:0:0:
487,125,275629,1,2,0:0:0:0:
428,66,275802,5,8,0:0:0:0:
407,62,275888,1,0,0:0:0:0:
386,64,275974,1,0,0:0:0:0:
366,71,276060,1,0,0:0:0:0:
350,85,276147,6,0,B|312:101|278:88|278:88|237:73|189:98,1,150,4|0,0:0|0:0,0:0:0:0:
311,16,276491,1,8,0:0:0:0:
247,160,276664,2,0,P|166:162|131:54,1,200,0|2,0:0|0:0,0:0:0:0:
203,91,277181,1,8,0:0:0:0:
185,263,277353,1,0,0:0:0:0:
206,78,277526,6,0,P|261:68|318:105,1,100,2|0,0:0|0:0,0:0:0:0:
79,268,277871,1,8,0:0:0:0:
310,78,278043,1,0,0:0:0:0:
185,263,278216,2,0,P|130:273|73:236,1,100,0|2,0:0|0:0,0:0:0:0:
252,303,278560,2,0,B|273:272|257:231|257:231|235:197|246:159,1,150,8|0,0:0|0:0,0:0:0:0:
323,181,278905,6,0,B|360:157|401:175|401:175|446:190|488:157,1,150,2|0,0:0|0:0,0:0:0:0:
428,101,279250,1,8,0:0:0:0:
369,246,279422,2,0,P|275:248|246:160,1,200,0|2,0:0|0:0,0:0:0:0:
428,101,279940,1,8,0:0:0:0:
425,310,280112,1,0,0:0:0:0:
323,181,280285,6,0,L|323:66,1,100,2|0,0:0|0:0,0:0:0:0:
428,101,280629,1,8,0:0:0:0:
425,310,280802,1,0,0:0:0:0:
323,81,280974,1,0,0:0:0:0:
320,290,281147,1,2,0:0:0:0:
281,11,281319,2,0,B|248:30|238:67|238:67|197:93|133:62,1,150,8|0,0:0|0:0,0:0:0:0:
87,37,281664,6,0,B|67:67|81:105|81:105|101:149|68:197,1,150,2|0,0:0|0:0,0:0:0:0:
7,139,282009,1,8,0:0:0:0:
163,73,282181,2,0,P|171:176|126:272,1,200,0|2,0:0|0:0,0:0:0:0:
21,280,282698,1,8,0:0:0:0:
245,246,282871,1,0,0:0:0:0:
183,343,283043,6,0,P|146:310|132:263,1,100,2|0,0:0|0:0,0:0:0:0:
245,246,283388,1,8,0:0:0:0:
358,228,283560,1,0,0:0:0:0:
308,149,283733,2,0,P|345:181|358:228,1,100,0|2,0:0|0:0,0:0:0:0:
245,246,284078,1,8,0:0:0:0:
132,263,284250,1,0,0:0:0:0:
166,54,284422,6,0,L|174:153,1,100,2|0,0:0|0:0,0:0:0:0:
394,102,284767,2,0,L|294:110,1,100,2|0,0:0|0:0,0:0:0:0:
346,330,285112,2,0,L|337:230,1,100,2|0,0:0|0:0,0:0:0:0:
118,282,285457,2,0,L|217:273,1,100,2|0,0:0|0:0,0:0:0:0:
294,109,285802,5,2,0:0:0:0:
337,230,285974,1,2,0:0:0:0:
217,273,286147,1,2,0:0:0:0:
174,153,286319,1,2,0:0:0:0:
381,147,286491,5,2,0:0:0:0:
301,318,286663,1,2,0:0:0:0:
128,236,286836,1,2,0:0:0:0:
211,66,287008,1,2,0:0:0:0:
256,192,287181,5,6,0:0:0:0:
256,192,287267,12,0,292612,0:0:0:0:
256,192,292698,12,0,297871,0:0:0:0:
256,192,298216,5,2,0:0:0:0:
256,192,298302,12,0,300285,0:0:0:0:
