osu file format v14

[General]
AudioFilename: audio.mp3
AudioLeadIn: 0
PreviewTime: 176486
Countdown: 0
SampleSet: Soft
StackLeniency: 0.7
Mode: 3
LetterboxInBreaks: 0
SpecialStyle: 0
WidescreenStoryboard: 0

[Editor]
DistanceSpacing: 1
BeatDivisor: 4
GridSize: 16
TimelineZoom: 1.7

[Metadata]
Title:Stardust (feat. Miyoki)
TitleUnicode:Stardust (feat. Miyoki)
Artist:T & Sugah x NCT
ArtistUnicode:T & Sugah x NCT
Creator:Maxim-Miau
Version:Cosmic Symphony
Source:
Tags:no copyright sounds ncs release famoss vocalist drum and bass dnb drumstep electronic english the best of 2015
BeatmapID:2872694
BeatmapSetID:1391233

[Difficulty]
HPDrainRate:8.5
CircleSize:4
OverallDifficulty:9
ApproachRate:5
SliderMultiplier:1.4
SliderTickRate:1

[Events]
//Background and Video events
0,0,"Stardust.jpg",0,0
//Break Periods
//Storyboard Layer 0 (Background)
//Storyboard Layer 1 (Fail)
//Storyboard Layer 2 (Pass)
//Storyboard Layer 3 (Foreground)
//Storyboard Layer 4 (Overlay)
//Storyboard Sound Samples

[TimingPoints]
258,344.827586206897,4,2,1,100,1,0
66464,-100,4,2,1,100,0,1
87154,-100,4,2,1,100,0,0
88533,-100,4,2,1,100,0,1
110602,-100,4,2,1,100,0,0
113361,-100,4,2,1,100,0,1
129913,-100,4,2,1,100,0,0
132671,-100,4,2,1,100,0,1
154740,-100,4,2,1,100,0,0
220947,-100,4,2,1,100,0,1
241637,-100,4,2,1,100,0,0
243016,-100,4,2,1,100,0,1
262326,-100,4,2,1,100,0,0
265085,-100,4,2,1,100,0,1
287154,-100,4,2,1,100,0,0

[HitObjects]
448,192,258,128,0,3016:0:0:0:70:cymbal06.wav
64,192,258,1,0,0:0:0:0:
192,192,258,1,0,0:0:0:70:Kick 01.wav
64,192,947,128,0,1637:0:0:0:0:
192,192,1637,128,0,2326:0:0:0:0:
64,192,2326,128,0,3016:0:0:0:0:
192,192,3016,128,0,3706:0:0:0:0:
64,192,3706,128,0,4395:0:0:0:0:
192,192,4395,1,0,0:0:0:0:
448,192,4395,128,0,5085:0:0:0:0:
320,192,5085,128,0,5775:0:0:0:0:
64,192,5775,128,0,8533:0:0:0:0:
448,192,5775,1,0,0:0:0:0:
320,192,6464,1,0,0:0:0:0:
448,192,7154,1,0,0:0:0:0:
320,192,7844,1,0,0:0:0:0:
448,192,8533,1,0,0:0:0:0:
320,192,9223,1,0,0:0:0:0:
192,192,9913,1,0,0:0:0:0:
448,192,9913,1,0,0:0:0:0:
320,192,10602,1,0,0:0:0:0:
448,192,10861,128,0,11292:0:0:0:0:
64,192,11292,128,0,14051:0:0:0:0:
192,192,11292,1,0,0:0:0:0:
320,192,11982,128,0,12671:0:0:0:0:
192,192,12671,128,0,13361:0:0:0:0:
320,192,13361,128,0,14051:0:0:0:0:
192,192,14051,128,0,14740:0:0:0:0:
320,192,14740,128,0,15430:0:0:0:0:
192,192,15430,128,0,16120:0:0:0:0:
448,192,15430,1,0,0:0:0:0:
320,192,16120,128,0,16809:0:0:0:0:
448,192,16809,128,0,19568:0:0:0:0:
64,192,16809,1,0,0:0:0:0:
320,192,17499,1,0,0:0:0:0:
64,192,18189,128,0,20947:0:0:0:0:
320,192,18878,1,0,0:0:0:0:
192,192,19568,1,0,0:0:0:0:
448,192,20258,1,0,0:0:0:0:
320,192,20947,1,0,0:0:0:0:
192,192,21120,1,0,0:0:0:0:
448,192,21292,1,0,0:0:0:0:
320,192,21464,1,0,0:0:0:0:
192,192,21637,1,0,0:0:0:0:
64,192,21637,1,0,0:0:0:0:
448,192,21809,1,0,0:0:0:0:
320,192,21982,1,0,0:0:0:0:
448,192,22154,1,0,0:0:0:0:
64,192,22154,1,0,0:0:0:0:
320,192,22326,1,0,0:0:0:70:Kick 01.wav
64,192,22326,128,0,26464:0:0:0:0:
192,192,22326,128,0,23016:0:0:0:70:cymbal06.wav
320,192,23361,128,0,24309:0:0:0:0:
192,192,24309,128,0,24913:0:0:0:0:
448,192,24913,1,0,0:0:0:0:
320,192,25085,128,0,25602:0:0:0:0:
448,192,25602,128,0,26120:0:0:0:0:
192,192,26120,128,0,26464:0:0:0:0:
448,192,26464,1,0,0:0:0:0:
320,192,26464,1,0,0:0:0:0:
192,192,26809,1,0,0:0:0:0:
320,192,26809,1,0,0:0:0:0:
64,192,27154,1,0,0:0:0:0:
448,192,27154,1,0,0:0:0:0:
192,192,27326,1,0,0:0:0:0:
320,192,27326,1,0,0:0:0:0:
192,192,27671,1,0,0:0:0:0:
320,192,27671,1,0,0:0:0:0:
448,192,27844,1,0,0:0:0:70:Kick 01.wav
320,192,27844,128,0,30430:0:0:0:0:
64,192,27844,128,0,28361:0:0:0:70:cymbal06.wav
448,192,28361,128,0,28878:0:0:0:0:
192,192,28878,128,0,29395:0:0:0:0:
64,192,29654,128,0,30085:0:0:0:0:
448,192,30085,128,0,30430:0:0:0:0:
192,192,30258,1,0,0:0:0:0:
64,192,30430,1,0,0:0:0:0:
320,192,30602,1,0,0:0:0:70:Kick 01.wav
448,192,30602,128,0,32671:0:0:0:0:
192,192,30602,128,0,31120:0:0:0:70:cymbal06.wav
320,192,31120,128,0,31637:0:0:0:0:
192,192,31637,128,0,32326:0:0:0:0:
64,192,32326,128,0,32671:0:0:0:0:
192,192,32671,1,0,0:0:0:0:
320,192,32671,1,0,0:0:0:0:
64,192,32844,1,0,0:0:0:0:
192,192,32844,1,0,0:0:0:0:
320,192,33016,1,0,0:0:0:0:
192,192,33189,1,0,0:0:0:0:
64,192,33189,1,0,0:0:0:0:
64,192,33361,1,0,0:0:0:70:Kick 01.wav
192,192,33361,128,0,35947:0:0:0:0:
448,192,33361,128,0,33878:0:0:0:70:cymbal06.wav
64,192,35085,128,0,35602:0:0:0:0:
320,192,35602,128,0,35947:0:0:0:0:
448,192,35947,1,0,0:0:0:0:
192,192,36120,1,0,0:0:0:70:Kick 01.wav
64,192,36120,128,0,37499:0:0:0:0:
320,192,36120,128,0,36464:0:0:0:70:cymbal06.wav
448,192,36637,128,0,36982:0:0:0:0:
320,192,36982,1,0,0:0:0:0:
192,192,37154,128,0,37499:0:0:0:0:
448,192,37643,1,0,0:0:0:0:
320,192,37700,1,0,0:0:0:0:
192,192,37758,1,0,0:0:0:0:
448,192,37844,1,0,0:0:0:0:
64,192,37844,1,0,0:0:0:0:
64,192,38189,1,0,0:0:0:0:
192,192,38189,1,0,0:0:0:0:
64,192,38361,1,0,0:0:0:0:
448,192,38361,1,0,0:0:0:0:
320,192,38533,1,0,0:0:0:0:
448,192,38533,1,0,0:0:0:0:
192,192,38706,1,0,0:0:0:0:
320,192,38706,1,0,0:0:0:0:
448,192,38878,1,0,0:0:0:70:Kick 01.wav
320,192,38878,128,0,41464:0:0:0:0:
64,192,38878,128,0,39395:0:0:0:70:cymbal06.wav
192,192,39395,128,0,39913:0:0:0:0:
448,192,39913,128,0,40344:0:0:0:0:
192,192,40689,128,0,41120:0:0:0:0:
64,192,41120,128,0,41464:0:0:0:0:
448,192,41292,1,0,0:0:0:0:
192,192,41464,1,0,0:0:0:0:
320,192,41637,1,0,0:0:0:70:Kick 01.wav
448,192,41637,128,0,44223:0:0:0:0:
64,192,41637,128,0,42154:0:0:0:70:cymbal06.wav
320,192,42154,128,0,42499:0:0:0:0:
64,192,42671,128,0,43361:0:0:0:0:
320,192,43361,128,0,43706:0:0:0:0:
192,192,43706,128,0,44395:0:0:0:0:
64,192,44395,1,0,0:0:0:0:
320,192,44395,1,0,0:0:0:70:Kick 01.wav
448,192,44395,1,0,0:0:0:0:
192,192,44740,1,0,0:0:0:0:
320,192,44740,1,0,0:0:0:70:Kick 01.wav
448,192,44740,1,0,0:0:0:0:
64,192,44913,1,0,0:0:0:0:
192,192,45085,1,0,0:0:0:0:
320,192,45085,1,0,0:0:0:70:Kick 01.wav
448,192,45085,1,0,0:0:0:0:
64,192,45430,1,0,0:0:0:0:
320,192,45430,1,0,0:0:0:70:Kick 01.wav
448,192,45430,1,0,0:0:0:0:
192,192,45775,1,0,0:0:0:0:
320,192,45775,1,0,0:0:0:70:Kick 01.wav
448,192,45775,1,0,0:0:0:0:
64,192,45947,1,0,0:0:0:0:
192,192,46120,1,0,0:0:0:0:
320,192,46120,1,0,0:0:0:70:Kick 01.wav
448,192,46120,1,0,0:0:0:0:
64,192,46464,1,0,0:0:0:0:
448,192,46464,1,0,0:0:0:0:
192,192,46464,1,0,0:0:0:70:Kick 01.wav
64,192,46809,1,0,0:0:0:0:
448,192,46809,1,0,0:0:0:0:
320,192,46809,1,0,0:0:0:70:Kick 01.wav
64,192,47154,1,0,0:0:0:0:
192,192,47154,1,0,0:0:0:70:Kick 01.wav
448,192,47154,1,0,0:0:0:0:
64,192,47499,1,0,0:0:0:0:
192,192,47499,1,0,0:0:0:70:Kick 01.wav
320,192,47499,1,0,0:0:0:0:
448,192,47671,1,0,0:0:0:0:
64,192,47844,1,0,0:0:0:0:
192,192,47844,1,0,0:0:0:70:Kick 01.wav
320,192,47844,1,0,0:0:0:0:
64,192,48189,1,0,0:0:0:0:
192,192,48189,1,0,0:0:0:70:Kick 01.wav
448,192,48189,1,0,0:0:0:0:
192,192,48533,1,0,0:0:0:70:Kick 01.wav
64,192,48533,1,0,0:0:0:0:
320,192,48533,1,0,0:0:0:0:
448,192,48706,1,0,0:0:0:0:
192,192,48878,1,0,0:0:0:70:Kick 01.wav
64,192,48878,1,0,0:0:0:0:
320,192,48878,1,0,0:0:0:0:
64,192,49223,1,0,0:0:0:0:
192,192,49223,1,0,0:0:0:70:Kick 01.wav
448,192,49223,1,0,0:0:0:0:
64,192,49568,1,0,0:0:0:0:
320,192,49568,1,0,0:0:0:70:Kick 01.wav
448,192,49568,1,0,0:0:0:0:
192,192,49913,1,0,0:0:0:70:Kick 01.wav
320,192,49913,1,0,0:0:0:0:
448,192,49913,1,0,0:0:0:0:
64,192,50258,1,0,0:0:0:70:Kick 01.wav
320,192,50258,1,0,0:0:0:0:
448,192,50258,1,0,0:0:0:0:
192,192,50430,1,0,0:0:0:0:
448,192,50602,1,0,0:0:0:0:
320,192,50602,1,0,0:0:0:0:
64,192,50602,1,0,0:0:0:70:Kick 01.wav
192,192,50947,1,0,0:0:0:70:Kick 01.wav
320,192,50947,1,0,0:0:0:0:
448,192,50947,1,0,0:0:0:0:
64,192,51292,1,0,0:0:0:70:Kick 01.wav
320,192,51292,1,0,0:0:0:0:
448,192,51292,1,0,0:0:0:0:
192,192,51464,1,0,0:0:0:0:
64,192,51637,1,0,0:0:0:70:Kick 01.wav
320,192,51637,1,0,0:0:0:0:
448,192,51637,1,0,0:0:0:0:
192,192,51982,1,0,0:0:0:0:
320,192,51982,1,0,0:0:0:70:Kick 01.wav
64,192,51982,1,0,0:0:0:0:
192,192,52326,1,0,0:0:0:70:Kick 01.wav
320,192,52326,1,0,0:0:0:0:
448,192,52326,1,0,0:0:0:0:
64,192,52671,1,0,0:0:0:0:
192,192,52671,1,0,0:0:0:0:
320,192,52671,1,0,0:0:0:70:Kick 01.wav
64,192,53016,1,0,0:0:0:0:
192,192,53016,1,0,0:0:0:0:
448,192,53016,1,0,0:0:0:70:Kick 01.wav
320,192,53189,1,0,0:0:0:0:
64,192,53361,1,0,0:0:0:0:
192,192,53361,1,0,0:0:0:0:
448,192,53361,1,0,0:0:0:70:Kick 01.wav
64,192,53706,1,0,0:0:0:0:
192,192,53706,1,0,0:0:0:0:
320,192,53706,1,0,0:0:0:70:Kick 01.wav
64,192,54051,1,0,0:0:0:0:
192,192,54051,1,0,0:0:0:0:
448,192,54051,1,0,0:0:0:70:Kick 01.wav
320,192,54223,1,0,0:0:0:0:
64,192,54395,1,0,0:0:0:0:
192,192,54395,1,0,0:0:0:0:
448,192,54395,1,0,0:0:0:70:Kick 01.wav
64,192,54740,1,0,0:0:0:0:
320,192,54740,1,0,0:0:0:70:Kick 01.wav
192,192,54740,1,0,0:0:0:0:
64,192,55085,1,0,0:0:0:70:Snare 01.wav
192,192,55085,1,0,0:0:0:0:
320,192,55085,1,0,0:0:0:0:
448,192,55085,1,0,0:0:0:0:
64,192,55430,1,0,0:0:0:70:Kick 01.wav
192,192,55430,1,0,0:0:0:0:
320,192,55430,1,0,0:0:0:0:
448,192,55430,1,0,0:0:0:70:Kick 01.wav
64,192,55602,1,0,0:0:0:0:
448,192,55602,1,0,0:0:0:70:Kick 01.wav
64,192,55775,1,0,0:0:0:0:
448,192,55775,1,0,0:0:0:70:Kick 01.wav
192,192,55947,1,0,0:0:0:0:
320,192,55947,1,0,0:0:0:70:Kick 01.wav
64,192,56120,1,0,0:0:0:70:Kick 01.wav
448,192,56120,1,0,0:0:0:0:
64,192,56292,1,0,0:0:0:70:Kick 01.wav
448,192,56292,1,0,0:0:0:0:
192,192,56464,1,0,0:0:0:70:Kick 01.wav
320,192,56464,1,0,0:0:0:0:
64,192,56637,1,0,0:0:0:0:
448,192,56637,1,0,0:0:0:70:Kick 01.wav
64,192,56809,1,0,0:0:0:0:
192,192,56809,1,0,0:0:0:70:Kick 01.wav
320,192,56982,1,0,0:0:0:0:
448,192,56982,1,0,0:0:0:70:Kick 01.wav
320,192,57154,1,0,0:0:0:70:Kick 01.wav
448,192,57154,1,0,0:0:0:0:
64,192,57326,1,0,0:0:0:0:
192,192,57326,1,0,0:0:0:70:Kick 01.wav
320,192,57499,1,0,0:0:0:70:Kick 01.wav
448,192,57499,1,0,0:0:0:0:
320,192,57671,1,0,0:0:0:70:Kick 01.wav
448,192,57671,1,0,0:0:0:0:
64,192,57844,1,0,0:0:0:0:
192,192,57844,1,0,0:0:0:70:Kick 01.wav
320,192,58016,1,0,0:0:0:70:Kick 01.wav
448,192,58016,1,0,0:0:0:0:
448,192,58189,1,0,0:0:0:70:Kick 01.wav
320,192,58189,1,0,0:0:0:0:
64,192,58361,1,0,0:0:0:0:
192,192,58361,1,0,0:0:0:70:Kick 01.wav
64,192,58533,1,0,0:0:0:0:
192,192,58533,1,0,0:0:0:70:Kick 01.wav
320,192,58706,1,0,0:0:0:70:Kick 01.wav
448,192,58706,1,0,0:0:0:0:
64,192,58878,1,0,0:0:0:0:
192,192,58878,1,0,0:0:0:70:Kick 01.wav
64,192,59051,1,0,0:0:0:0:
192,192,59051,1,0,0:0:0:70:Kick 01.wav
320,192,59223,1,0,0:0:0:70:Kick 01.wav
448,192,59223,1,0,0:0:0:0:
64,192,59395,1,0,0:0:0:0:
192,192,59395,1,0,0:0:0:70:Kick 01.wav
192,192,59568,1,0,0:0:0:70:Kick 01.wav
320,192,59568,1,0,0:0:0:0:
64,192,59740,1,0,0:0:0:0:
448,192,59740,1,0,0:0:0:70:Kick 01.wav
64,192,59913,1,0,0:0:0:70:Kick 01.wav
448,192,59913,1,0,0:0:0:0:
192,192,60085,1,0,0:0:0:70:Kick 01.wav
320,192,60085,1,0,0:0:0:0:
64,192,60258,1,0,0:0:0:0:
448,192,60258,1,0,0:0:0:70:Kick 01.wav
64,192,60430,1,0,0:0:0:70:Kick 01.wav
448,192,60430,1,0,0:0:0:0:
192,192,60602,1,0,0:0:0:70:Kick 01.wav
320,192,60602,1,0,0:0:0:0:
64,192,60775,1,0,0:0:0:0:
448,192,60775,1,0,0:0:0:70:Kick 01.wav
64,192,60947,1,0,0:0:0:0:
192,192,60947,1,0,0:0:0:70:Kick 01.wav
320,192,61033,1,0,0:0:0:70:Kick 01.wav
448,192,61033,1,0,0:0:0:0:
192,192,61120,1,0,0:0:0:70:Kick 01.wav
64,192,61120,1,0,0:0:0:0:
320,192,61206,1,0,0:0:0:70:Kick 01.wav
448,192,61206,1,0,0:0:0:0:
192,192,61292,1,0,0:0:0:70:Kick 01.wav
64,192,61292,1,0,0:0:0:0:
320,192,61378,1,0,0:0:0:70:Kick 01.wav
448,192,61378,1,0,0:0:0:0:
192,192,61464,1,0,0:0:0:70:Kick 01.wav
64,192,61464,1,0,0:0:0:0:
320,192,61551,1,0,0:0:0:70:Kick 01.wav
448,192,61551,1,0,0:0:0:0:
192,192,61637,1,0,0:0:0:70:Kick 01.wav
64,192,61637,1,0,0:0:0:0:
320,192,61723,1,0,0:0:0:70:Kick 01.wav
448,192,61723,1,0,0:0:0:0:
192,192,61809,1,0,0:0:0:70:Kick 01.wav
64,192,61809,1,0,0:0:0:0:
320,192,61895,1,0,0:0:0:70:Kick 01.wav
448,192,61895,1,0,0:0:0:0:
192,192,61982,1,0,0:0:0:70:Kick 01.wav
64,192,61982,1,0,0:0:0:0:
320,192,62068,1,0,0:0:0:70:Kick 01.wav
448,192,62068,1,0,0:0:0:0:
64,192,62154,1,0,0:0:0:0:
192,192,62154,1,0,0:0:0:70:Kick 01.wav
320,192,62240,1,0,0:0:0:70:Kick 01.wav
448,192,62240,1,0,0:0:0:0:
192,192,62326,1,0,0:0:0:70:Kick 01.wav
64,192,62326,1,0,0:0:0:0:
320,192,62413,1,0,0:0:0:70:Kick 01.wav
448,192,62413,1,0,0:0:0:0:
192,192,62499,1,0,0:0:0:70:Kick 01.wav
64,192,62499,1,0,0:0:0:0:
320,192,62585,1,0,0:0:0:70:Kick 01.wav
448,192,62585,1,0,0:0:0:0:
192,192,62671,1,0,0:0:0:70:Kick 01.wav
64,192,62671,1,0,0:0:0:0:
320,192,62758,1,0,0:0:0:70:Kick 01.wav
448,192,62758,1,0,0:0:0:0:
192,192,62844,1,0,0:0:0:70:Kick 01.wav
64,192,62844,1,0,0:0:0:0:
320,192,62930,1,0,0:0:0:70:Kick 01.wav
448,192,62930,1,0,0:0:0:0:
64,192,63016,1,0,0:0:0:70:Kick 01.wav
448,192,63102,1,0,0:0:0:70:Kick 01.wav
64,192,63189,1,0,0:0:0:70:Kick 01.wav
448,192,63275,1,0,0:0:0:70:Kick 01.wav
192,192,63361,1,0,0:0:0:70:Kick 01.wav
320,192,63447,1,0,0:0:0:70:Kick 01.wav
192,192,63533,1,0,0:0:0:70:Kick 01.wav
320,192,63620,1,0,0:0:0:0:
448,192,63706,1,0,0:0:0:0:
64,192,63706,1,0,0:0:0:0:
192,192,63706,1,0,0:0:0:70:Kick 01.wav
64,192,66120,1,0,0:0:0:70:Snare 01.wav
192,192,66120,1,0,0:0:0:0:
320,192,66120,1,0,0:0:0:0:
448,192,66120,1,0,0:0:0:0:
64,192,66464,1,0,0:0:0:70:cymbal06.wav
192,192,66464,1,0,0:0:0:0:
320,192,66464,1,0,0:0:0:0:
448,192,66464,1,0,0:0:0:70:Kick 01.wav
64,192,66637,1,0,0:0:0:0:
192,192,66637,1,0,0:0:0:0:
64,192,66809,1,0,0:0:0:0:
192,192,66809,1,0,0:0:0:0:
448,192,66809,1,0,0:0:0:70:Snare 01.wav
320,192,66809,1,0,0:0:0:0:
448,192,66982,1,0,0:0:0:0:
320,192,66982,1,0,0:0:0:0:
64,192,67154,1,0,0:0:0:0:
192,192,67154,1,0,0:0:0:0:
192,192,67326,1,0,0:0:0:0:
448,192,67326,1,0,0:0:0:0:
320,192,67326,1,0,0:0:0:70:Kick 01.wav
64,192,67499,1,0,0:0:0:70:Snare 01.wav
192,192,67499,1,0,0:0:0:0:
320,192,67499,1,0,0:0:0:0:
448,192,67499,1,0,0:0:0:0:
64,192,67671,1,0,0:0:0:0:
192,192,67844,1,0,0:0:0:70:Kick 01.wav
320,192,67844,1,0,0:0:0:0:
448,192,67844,1,0,0:0:0:0:
64,192,68016,1,0,0:0:0:0:
448,192,68016,1,0,0:0:0:0:
64,192,68189,1,0,0:0:0:0:
192,192,68189,1,0,0:0:0:0:
320,192,68189,1,0,0:0:0:0:
448,192,68189,1,0,0:0:0:70:Snare 01.wav
192,192,68361,1,0,0:0:0:0:
64,192,68533,1,0,0:0:0:0:
448,192,68533,1,0,0:0:0:0:
64,192,68706,1,0,0:0:0:0:
192,192,68706,1,0,0:0:0:0:
320,192,68706,1,0,0:0:0:70:Kick 01.wav
64,192,68878,1,0,0:0:0:70:Snare 01.wav
320,192,68878,1,0,0:0:0:0:
192,192,68878,1,0,0:0:0:0:
448,192,68878,1,0,0:0:0:0:
448,192,69051,1,0,0:0:0:0:
64,192,69223,1,0,0:0:0:0:
192,192,69223,1,0,0:0:0:70:Kick 01.wav
320,192,69223,1,0,0:0:0:0:
64,192,69395,1,0,0:0:0:0:
320,192,69395,1,0,0:0:0:0:
64,192,69568,1,0,0:0:0:0:
192,192,69568,1,0,0:0:0:0:
320,192,69568,1,0,0:0:0:0:
448,192,69568,1,0,0:0:0:70:Snare 01.wav
192,192,69740,1,0,0:0:0:0:
448,192,69740,1,0,0:0:0:0:
320,192,69913,1,0,0:0:0:0:
64,192,69913,1,0,0:0:0:0:
64,192,70085,1,0,0:0:0:0:
192,192,70085,1,0,0:0:0:0:
448,192,70085,1,0,0:0:0:70:Kick 01.wav
64,192,70258,1,0,0:0:0:70:Snare 01.wav
192,192,70258,1,0,0:0:0:0:
320,192,70258,1,0,0:0:0:0:
448,192,70258,1,0,0:0:0:0:
64,192,70430,1,0,0:0:0:0:
192,192,70602,1,0,0:0:0:0:
320,192,70602,1,0,0:0:0:70:Kick 01.wav
448,192,70602,1,0,0:0:0:0:
192,192,70775,1,0,0:0:0:0:
64,192,70775,1,0,0:0:0:0:
64,192,70947,1,0,0:0:0:0:
192,192,70947,1,0,0:0:0:0:
320,192,70947,1,0,0:0:0:0:
448,192,70947,1,0,0:0:0:70:Snare 01.wav
320,192,71120,1,0,0:0:0:0:
64,192,71292,1,0,0:0:0:0:
448,192,71292,1,0,0:0:0:0:
64,192,71464,1,0,0:0:0:0:
320,192,71464,1,0,0:0:0:70:Kick 01.wav
448,192,71464,1,0,0:0:0:0:
64,192,71637,1,0,0:0:0:70:Snare 01.wav
192,192,71637,1,0,0:0:0:0:
320,192,71637,1,0,0:0:0:0:
448,192,71637,1,0,0:0:0:0:
192,192,71809,1,0,0:0:0:0:
320,192,71982,1,0,0:0:0:0:
192,192,71982,1,0,0:0:0:0:
64,192,71982,1,0,0:0:0:70:Kick 01.wav
448,192,72154,1,0,0:0:0:0:
320,192,72154,1,0,0:0:0:0:
64,192,72326,1,0,0:0:0:0:
192,192,72326,1,0,0:0:0:0:
320,192,72326,1,0,0:0:0:0:
448,192,72326,1,0,0:0:0:70:Snare 01.wav
192,192,72499,1,0,0:0:0:0:
64,192,72499,1,0,0:0:0:0:
64,192,72671,1,0,0:0:0:0:
448,192,72671,1,0,0:0:0:0:
192,192,72844,1,0,0:0:0:0:
320,192,72844,1,0,0:0:0:70:Kick 01.wav
448,192,72844,1,0,0:0:0:0:
64,192,73016,1,0,0:0:0:70:Snare 01.wav
192,192,73016,1,0,0:0:0:0:
320,192,73016,1,0,0:0:0:0:
448,192,73016,1,0,0:0:0:0:
64,192,73189,1,0,0:0:0:0:
320,192,73361,1,0,0:0:0:0:
448,192,73361,1,0,0:0:0:0:
64,192,73361,1,0,0:0:0:70:Kick 01.wav
192,192,73533,1,0,0:0:0:0:
448,192,73533,1,0,0:0:0:0:
64,192,73706,1,0,0:0:0:0:
192,192,73706,1,0,0:0:0:0:
320,192,73706,1,0,0:0:0:0:
448,192,73706,1,0,0:0:0:70:Snare 01.wav
320,192,73878,1,0,0:0:0:0:
64,192,74051,1,0,0:0:0:0:
192,192,74051,1,0,0:0:0:0:
448,192,74223,1,0,0:0:0:0:
192,192,74223,1,0,0:0:0:0:
320,192,74223,1,0,0:0:0:70:Kick 01.wav
64,192,74395,1,0,0:0:0:70:Snare 01.wav
192,192,74395,1,0,0:0:0:0:
320,192,74395,1,0,0:0:0:0:
448,192,74395,1,0,0:0:0:0:
64,192,74568,1,0,0:0:0:0:
192,192,74740,1,0,0:0:0:0:
320,192,74740,1,0,0:0:0:70:Kick 01.wav
448,192,74740,1,0,0:0:0:0:
320,192,74913,1,0,0:0:0:0:
64,192,75085,1,0,0:0:0:0:
192,192,75085,1,0,0:0:0:0:
320,192,75085,1,0,0:0:0:0:
448,192,75085,1,0,0:0:0:70:Snare 01.wav
64,192,75258,1,0,0:0:0:0:
192,192,75258,1,0,0:0:0:0:
320,192,75430,1,0,0:0:0:0:
448,192,75430,1,0,0:0:0:0:
192,192,75602,1,0,0:0:0:0:
64,192,75602,1,0,0:0:0:70:Kick 01.wav
448,192,75602,1,0,0:0:0:0:
64,192,75775,1,0,0:0:0:70:Snare 01.wav
192,192,75775,1,0,0:0:0:0:
320,192,75775,1,0,0:0:0:0:
448,192,75775,1,0,0:0:0:0:
320,192,75947,1,0,0:0:0:0:
192,192,76120,1,0,0:0:0:0:
320,192,76120,1,0,0:0:0:70:Kick 01.wav
64,192,76120,1,0,0:0:0:0:
64,192,76292,1,0,0:0:0:0:
192,192,76292,1,0,0:0:0:0:
64,192,76464,1,0,0:0:0:0:
192,192,76464,1,0,0:0:0:0:
320,192,76464,1,0,0:0:0:0:
448,192,76464,1,0,0:0:0:70:Snare 01.wav
448,192,76637,1,0,0:0:0:0:
64,192,76809,1,0,0:0:0:0:
320,192,76809,1,0,0:0:0:0:
192,192,76982,1,0,0:0:0:70:Kick 01.wav
320,192,76982,1,0,0:0:0:0:
64,192,76982,1,0,0:0:0:0:
64,192,77154,1,0,0:0:0:70:Snare 01.wav
192,192,77154,1,0,0:0:0:0:
320,192,77154,1,0,0:0:0:0:
448,192,77154,1,0,0:0:0:0:
448,192,77326,1,0,0:0:0:0:
64,192,77499,1,0,0:0:0:70:cymbal06.wav
192,192,77499,1,0,0:0:0:0:
448,192,77499,1,0,0:0:0:70:Kick 01.wav
320,192,77499,1,0,0:0:0:0:
192,192,77671,1,0,0:0:0:0:
64,192,77671,1,0,0:0:0:0:
448,192,77844,1,0,0:0:0:70:Snare 01.wav
320,192,77844,1,0,0:0:0:0:
64,192,77844,1,0,0:0:0:0:
192,192,77844,1,0,0:0:0:0:
320,192,78016,1,0,0:0:0:0:
448,192,78016,1,0,0:0:0:0:
64,192,78189,1,0,0:0:0:0:
192,192,78189,1,0,0:0:0:0:
320,192,78361,1,0,0:0:0:70:Kick 01.wav
448,192,78361,1,0,0:0:0:0:
192,192,78361,1,0,0:0:0:0:
320,192,78533,1,0,0:0:0:0:
448,192,78533,1,0,0:0:0:0:
64,192,78533,1,0,0:0:0:70:Snare 01.wav
192,192,78533,1,0,0:0:0:0:
64,192,78706,1,0,0:0:0:0:
448,192,78878,1,0,0:0:0:0:
320,192,78878,1,0,0:0:0:70:Kick 01.wav
192,192,78878,1,0,0:0:0:0:
320,192,79051,1,0,0:0:0:0:
448,192,79051,1,0,0:0:0:0:
320,192,79223,1,0,0:0:0:0:
448,192,79223,1,0,0:0:0:70:Snare 01.wav
64,192,79223,1,0,0:0:0:0:
192,192,79223,1,0,0:0:0:0:
192,192,79395,1,0,0:0:0:0:
448,192,79568,1,0,0:0:0:0:
64,192,79568,1,0,0:0:0:0:
320,192,79740,1,0,0:0:0:0:
192,192,79740,1,0,0:0:0:0:
64,192,79740,1,0,0:0:0:70:Kick 01.wav
192,192,79913,1,0,0:0:0:0:
448,192,79913,1,0,0:0:0:0:
64,192,79913,1,0,0:0:0:70:Snare 01.wav
320,192,79913,1,0,0:0:0:0:
448,192,80085,1,0,0:0:0:0:
320,192,80258,1,0,0:0:0:70:Kick 01.wav
192,192,80258,1,0,0:0:0:0:
64,192,80258,1,0,0:0:0:0:
64,192,80430,1,0,0:0:0:0:
320,192,80602,1,0,0:0:0:0:
448,192,80602,1,0,0:0:0:70:Snare 01.wav
64,192,80602,1,0,0:0:0:0:
192,192,80602,1,0,0:0:0:0:
448,192,80775,1,0,0:0:0:0:
192,192,80775,1,0,0:0:0:0:
320,192,80947,1,0,0:0:0:0:
64,192,80947,1,0,0:0:0:0:
448,192,81120,1,0,0:0:0:0:
192,192,81120,1,0,0:0:0:70:Kick 01.wav
64,192,81120,1,0,0:0:0:0:
320,192,81292,1,0,0:0:0:0:
448,192,81292,1,0,0:0:0:0:
64,192,81292,1,0,0:0:0:70:Snare 01.wav
192,192,81292,1,0,0:0:0:0:
64,192,81464,1,0,0:0:0:0:
448,192,81637,1,0,0:0:0:70:Kick 01.wav
320,192,81637,1,0,0:0:0:0:
192,192,81637,1,0,0:0:0:0:
64,192,81809,1,0,0:0:0:0:
192,192,81809,1,0,0:0:0:0:
320,192,81982,1,0,0:0:0:0:
448,192,81982,1,0,0:0:0:70:Snare 01.wav
64,192,81982,1,0,0:0:0:0:
192,192,81982,1,0,0:0:0:0:
320,192,82154,1,0,0:0:0:0:
448,192,82326,1,0,0:0:0:0:
64,192,82326,1,0,0:0:0:0:
448,192,82499,1,0,0:0:0:0:
320,192,82499,1,0,0:0:0:70:Kick 01.wav
64,192,82499,1,0,0:0:0:0:
320,192,82671,1,0,0:0:0:0:
448,192,82671,1,0,0:0:0:0:
64,192,82671,1,0,0:0:0:70:Snare 01.wav
192,192,82671,1,0,0:0:0:0:
192,192,82844,1,0,0:0:0:0:
64,192,83016,1,0,0:0:0:0:
192,192,83016,1,0,0:0:0:70:Kick 01.wav
320,192,83016,1,0,0:0:0:0:
448,192,83189,1,0,0:0:0:0:
320,192,83361,1,0,0:0:0:0:
448,192,83361,1,0,0:0:0:70:Snare 01.wav
64,192,83361,1,0,0:0:0:0:
192,192,83361,1,0,0:0:0:0:
320,192,83533,1,0,0:0:0:0:
192,192,83533,1,0,0:0:0:0:
64,192,83706,1,0,0:0:0:0:
448,192,83706,1,0,0:0:0:0:
448,192,83878,1,0,0:0:0:70:Kick 01.wav
320,192,83878,1,0,0:0:0:0:
192,192,83878,1,0,0:0:0:0:
320,192,84051,1,0,0:0:0:0:
448,192,84051,1,0,0:0:0:0:
64,192,84051,1,0,0:0:0:70:Snare 01.wav
192,192,84051,1,0,0:0:0:0:
64,192,84223,1,0,0:0:0:0:
64,192,84395,1,0,0:0:0:0:
448,192,84395,1,0,0:0:0:0:
320,192,84395,1,0,0:0:0:70:Kick 01.wav
448,192,84568,1,0,0:0:0:0:
192,192,84568,1,0,0:0:0:0:
320,192,84740,1,0,0:0:0:0:
448,192,84740,1,0,0:0:0:70:Snare 01.wav
64,192,84740,1,0,0:0:0:0:
192,192,84740,1,0,0:0:0:0:
320,192,84913,1,0,0:0:0:0:
192,192,85085,1,0,0:0:0:0:
64,192,85085,1,0,0:0:0:0:
320,192,85258,1,0,0:0:0:0:
192,192,85258,1,0,0:0:0:70:Kick 01.wav
448,192,85258,1,0,0:0:0:0:
320,192,85430,1,0,0:0:0:0:
448,192,85430,1,0,0:0:0:0:
64,192,85430,1,0,0:0:0:70:Snare 01.wav
192,192,85430,1,0,0:0:0:0:
64,192,85602,1,0,0:0:0:0:
448,192,85775,1,0,0:0:0:70:Kick 01.wav
192,192,85775,1,0,0:0:0:0:
320,192,85947,1,0,0:0:0:0:
320,192,86120,1,0,0:0:0:0:
448,192,86120,1,0,0:0:0:70:Snare 01.wav
192,192,86120,1,0,0:0:0:0:
192,192,86292,1,0,0:0:0:0:
64,192,86292,1,0,0:0:0:0:
320,192,86464,1,0,0:0:0:0:
64,192,86637,1,0,0:0:0:0:
192,192,86637,1,0,0:0:0:70:Kick 01.wav
320,192,86809,1,0,0:0:0:0:
64,192,86809,1,0,0:0:0:70:Snare 01.wav
192,192,86809,1,0,0:0:0:0:
448,192,87326,1,0,0:0:0:0:
320,192,87326,1,0,0:0:0:0:
64,192,87844,1,0,0:0:0:0:
192,192,87844,1,0,0:0:0:0:
320,192,88016,1,0,0:0:0:70:Kick 01.wav
448,192,88016,1,0,0:0:0:0:
192,192,88102,1,0,0:0:0:70:Kick 01.wav
64,192,88189,1,0,0:0:0:70:Kick 01.wav
448,192,88189,1,0,0:0:0:0:
320,192,88275,1,0,0:0:0:70:Kick 01.wav
64,192,88361,1,0,0:0:0:70:Kick 01.wav
192,192,88361,1,0,0:0:0:0:
320,192,88447,1,0,0:0:0:70:Kick 01.wav
64,192,88533,1,0,0:0:0:70:cymbal06.wav
192,192,88533,1,0,0:0:0:0:
448,192,88533,1,0,0:0:0:70:Kick 01.wav
64,192,88878,1,0,0:0:0:0:
192,192,88878,1,0,0:0:0:0:
320,192,88878,1,0,0:0:0:0:
448,192,88878,1,0,0:0:0:70:Snare 01.wav
320,192,89051,1,0,0:0:0:0:
448,192,89051,1,0,0:0:0:0:
192,192,89223,1,0,0:0:0:0:
64,192,89395,1,0,0:0:0:0:
192,192,89395,1,0,0:0:0:0:
448,192,89395,1,0,0:0:0:70:Kick 01.wav
64,192,89568,1,0,0:0:0:70:Snare 01.wav
320,192,89568,1,0,0:0:0:0:
192,192,89568,1,0,0:0:0:0:
448,192,89568,1,0,0:0:0:0:
320,192,89740,1,0,0:0:0:0:
64,192,89740,1,0,0:0:0:0:
64,192,89913,1,0,0:0:0:0:
320,192,89913,1,0,0:0:0:70:Kick 01.wav
448,192,89913,1,0,0:0:0:0:
192,192,90085,1,0,0:0:0:0:
448,192,90085,1,0,0:0:0:0:
64,192,90258,1,0,0:0:0:0:
192,192,90258,1,0,0:0:0:0:
320,192,90258,1,0,0:0:0:0:
448,192,90258,1,0,0:0:0:70:Snare 01.wav
320,192,90430,1,0,0:0:0:0:
448,192,90430,1,0,0:0:0:0:
64,192,90602,1,0,0:0:0:0:
192,192,90602,1,0,0:0:0:0:
64,192,90775,1,0,0:0:0:0:
320,192,90775,1,0,0:0:0:70:Kick 01.wav
448,192,90775,1,0,0:0:0:0:
64,192,90947,1,0,0:0:0:70:Snare 01.wav
192,192,90947,1,0,0:0:0:0:
320,192,90947,1,0,0:0:0:0:
448,192,90947,1,0,0:0:0:0:
192,192,91120,1,0,0:0:0:0:
448,192,91292,1,0,0:0:0:0:
64,192,91292,1,0,0:0:0:70:Kick 01.wav
192,192,91292,1,0,0:0:0:0:
320,192,91464,1,0,0:0:0:0:
64,192,91464,1,0,0:0:0:0:
192,192,91637,1,0,0:0:0:0:
320,192,91637,1,0,0:0:0:0:
448,192,91637,1,0,0:0:0:70:Snare 01.wav
64,192,91637,1,0,0:0:0:0:
448,192,91809,1,0,0:0:0:0:
64,192,91809,1,0,0:0:0:0:
192,192,91982,1,0,0:0:0:0:
320,192,91982,1,0,0:0:0:0:
192,192,92154,1,0,0:0:0:0:
320,192,92154,1,0,0:0:0:70:Kick 01.wav
64,192,92154,1,0,0:0:0:0:
64,192,92326,1,0,0:0:0:70:Snare 01.wav
192,192,92326,1,0,0:0:0:0:
320,192,92326,1,0,0:0:0:0:
448,192,92326,1,0,0:0:0:0:
448,192,92499,1,0,0:0:0:0:
64,192,92671,1,0,0:0:0:0:
192,192,92671,1,0,0:0:0:70:Kick 01.wav
320,192,92671,1,0,0:0:0:0:
64,192,92844,1,0,0:0:0:0:
320,192,92844,1,0,0:0:0:0:
64,192,93016,1,0,0:0:0:0:
192,192,93016,1,0,0:0:0:0:
320,192,93016,1,0,0:0:0:0:
448,192,93016,1,0,0:0:0:70:Snare 01.wav
192,192,93189,1,0,0:0:0:0:
320,192,93361,1,0,0:0:0:0:
448,192,93361,1,0,0:0:0:0:
64,192,93533,1,0,0:0:0:0:
192,192,93533,1,0,0:0:0:70:Kick 01.wav
448,192,93533,1,0,0:0:0:0:
64,192,93706,1,0,0:0:0:70:Snare 01.wav
192,192,93706,1,0,0:0:0:0:
320,192,93706,1,0,0:0:0:0:
448,192,93706,1,0,0:0:0:0:
320,192,93878,1,0,0:0:0:0:
192,192,94051,1,0,0:0:0:0:
320,192,94051,1,0,0:0:0:0:
448,192,94051,1,0,0:0:0:70:Kick 01.wav
64,192,94223,1,0,0:0:0:0:
64,192,94395,1,0,0:0:0:0:
192,192,94395,1,0,0:0:0:0:
320,192,94395,1,0,0:0:0:0:
448,192,94395,1,0,0:0:0:70:Snare 01.wav
192,192,94568,1,0,0:0:0:0:
320,192,94568,1,0,0:0:0:0:
448,192,94740,1,0,0:0:0:0:
64,192,94913,1,0,0:0:0:70:Kick 01.wav
192,192,94913,1,0,0:0:0:0:
320,192,94913,1,0,0:0:0:0:
64,192,95085,1,0,0:0:0:70:Snare 01.wav
192,192,95085,1,0,0:0:0:0:
320,192,95085,1,0,0:0:0:0:
448,192,95085,1,0,0:0:0:0:
320,192,95258,1,0,0:0:0:0:
448,192,95258,1,0,0:0:0:0:
448,192,95430,1,0,0:0:0:70:Kick 01.wav
192,192,95430,1,0,0:0:0:0:
64,192,95430,1,0,0:0:0:0:
192,192,95602,1,0,0:0:0:0:
320,192,95602,1,0,0:0:0:0:
64,192,95775,1,0,0:0:0:0:
448,192,95775,1,0,0:0:0:70:Snare 01.wav
192,192,95775,1,0,0:0:0:0:
320,192,95775,1,0,0:0:0:0:
448,192,95947,1,0,0:0:0:0:
64,192,95947,1,0,0:0:0:0:
192,192,96120,1,0,0:0:0:0:
64,192,96120,1,0,0:0:0:0:
192,192,96292,1,0,0:0:0:0:
320,192,96292,1,0,0:0:0:70:Kick 01.wav
448,192,96292,1,0,0:0:0:0:
64,192,96464,1,0,0:0:0:70:Snare 01.wav
192,192,96464,1,0,0:0:0:0:
448,192,96464,1,0,0:0:0:0:
320,192,96464,1,0,0:0:0:0:
64,192,96637,1,0,0:0:0:0:
192,192,96809,1,0,0:0:0:70:Kick 01.wav
320,192,96809,1,0,0:0:0:0:
448,192,96809,1,0,0:0:0:0:
320,192,96982,1,0,0:0:0:0:
64,192,96982,1,0,0:0:0:0:
64,192,97154,1,0,0:0:0:0:
192,192,97154,1,0,0:0:0:0:
320,192,97154,1,0,0:0:0:0:
448,192,97154,1,0,0:0:0:70:Snare 01.wav
192,192,97326,1,0,0:0:0:0:
448,192,97326,1,0,0:0:0:0:
64,192,97499,1,0,0:0:0:0:
320,192,97499,1,0,0:0:0:0:
64,192,97671,1,0,0:0:0:0:
192,192,97671,1,0,0:0:0:70:Kick 01.wav
448,192,97671,1,0,0:0:0:0:
64,192,97844,1,0,0:0:0:70:Snare 01.wav
192,192,97844,1,0,0:0:0:0:
320,192,97844,1,0,0:0:0:0:
448,192,97844,1,0,0:0:0:0:
320,192,98016,1,0,0:0:0:0:
64,192,98189,1,0,0:0:0:0:
192,192,98189,1,0,0:0:0:0:
448,192,98189,1,0,0:0:0:70:Kick 01.wav
320,192,98361,1,0,0:0:0:0:
448,192,98361,1,0,0:0:0:0:
64,192,98533,1,0,0:0:0:0:
192,192,98533,1,0,0:0:0:0:
320,192,98533,1,0,0:0:0:0:
448,192,98533,1,0,0:0:0:70:Snare 01.wav
64,192,98706,1,0,0:0:0:0:
192,192,98878,1,0,0:0:0:0:
320,192,98878,1,0,0:0:0:0:
64,192,99051,1,0,0:0:0:0:
320,192,99051,1,0,0:0:0:70:Kick 01.wav
448,192,99051,1,0,0:0:0:0:
64,192,99223,1,0,0:0:0:70:Snare 01.wav
192,192,99223,1,0,0:0:0:0:
320,192,99223,1,0,0:0:0:0:
448,192,99223,1,0,0:0:0:0:
64,192,99395,1,0,0:0:0:0:
192,192,99395,1,0,0:0:0:70:Kick 01.wav
320,192,99482,1,0,0:0:0:70:Kick 01.wav
64,192,99568,1,0,0:0:0:70:cymbal06.wav
192,192,99568,1,0,0:0:0:0:
448,192,99568,1,0,0:0:0:70:Kick 01.wav
64,192,99913,1,0,0:0:0:0:
192,192,99913,1,0,0:0:0:0:
320,192,99913,1,0,0:0:0:0:
448,192,99913,1,0,0:0:0:70:Snare 01.wav
320,192,100085,1,0,0:0:0:0:
448,192,100085,1,0,0:0:0:0:
192,192,100258,1,0,0:0:0:0:
64,192,100430,1,0,0:0:0:0:
192,192,100430,1,0,0:0:0:0:
448,192,100430,1,0,0:0:0:70:Kick 01.wav
64,192,100602,1,0,0:0:0:70:Snare 01.wav
320,192,100602,1,0,0:0:0:0:
192,192,100602,1,0,0:0:0:0:
448,192,100602,1,0,0:0:0:0:
320,192,100775,1,0,0:0:0:0:
192,192,100775,1,0,0:0:0:0:
64,192,100947,1,0,0:0:0:70:Kick 01.wav
320,192,100947,1,0,0:0:0:0:
448,192,100947,1,0,0:0:0:0:
192,192,101120,1,0,0:0:0:0:
448,192,101120,1,0,0:0:0:0:
64,192,101292,1,0,0:0:0:0:
192,192,101292,1,0,0:0:0:0:
320,192,101292,1,0,0:0:0:0:
448,192,101292,1,0,0:0:0:70:Snare 01.wav
320,192,101464,1,0,0:0:0:0:
448,192,101464,1,0,0:0:0:0:
64,192,101637,1,0,0:0:0:0:
192,192,101637,1,0,0:0:0:0:
64,192,101809,1,0,0:0:0:0:
320,192,101809,1,0,0:0:0:70:Kick 01.wav
448,192,101809,1,0,0:0:0:0:
64,192,101982,1,0,0:0:0:70:Snare 01.wav
192,192,101982,1,0,0:0:0:0:
320,192,101982,1,0,0:0:0:0:
448,192,101982,1,0,0:0:0:0:
192,192,102154,1,0,0:0:0:0:
448,192,102326,1,0,0:0:0:0:
64,192,102326,1,0,0:0:0:70:Kick 01.wav
192,192,102326,1,0,0:0:0:0:
320,192,102499,1,0,0:0:0:0:
64,192,102499,1,0,0:0:0:0:
192,192,102671,1,0,0:0:0:0:
320,192,102671,1,0,0:0:0:0:
64,192,102671,1,0,0:0:0:0:
448,192,102671,1,0,0:0:0:70:Snare 01.wav
448,192,102844,1,0,0:0:0:0:
64,192,102844,1,0,0:0:0:0:
192,192,103016,1,0,0:0:0:0:
320,192,103016,1,0,0:0:0:0:
192,192,103189,1,0,0:0:0:0:
320,192,103189,1,0,0:0:0:70:Kick 01.wav
64,192,103189,1,0,0:0:0:0:
64,192,103361,1,0,0:0:0:70:Snare 01.wav
192,192,103361,1,0,0:0:0:0:
320,192,103361,1,0,0:0:0:0:
448,192,103361,1,0,0:0:0:0:
448,192,103533,1,0,0:0:0:0:
64,192,103706,1,0,0:0:0:0:
192,192,103706,1,0,0:0:0:70:Kick 01.wav
320,192,103706,1,0,0:0:0:0:
64,192,103878,1,0,0:0:0:0:
320,192,103878,1,0,0:0:0:0:
64,192,104051,1,0,0:0:0:0:
192,192,104051,1,0,0:0:0:0:
448,192,104051,1,0,0:0:0:70:Snare 01.wav
320,192,104051,1,0,0:0:0:0:
192,192,104223,1,0,0:0:0:0:
320,192,104395,1,0,0:0:0:0:
448,192,104395,1,0,0:0:0:0:
64,192,104568,1,0,0:0:0:0:
192,192,104568,1,0,0:0:0:0:
448,192,104568,1,0,0:0:0:70:Kick 01.wav
64,192,104740,1,0,0:0:0:70:Snare 01.wav
192,192,104740,1,0,0:0:0:0:
320,192,104740,1,0,0:0:0:0:
448,192,104740,1,0,0:0:0:0:
320,192,104913,1,0,0:0:0:0:
192,192,105085,1,0,0:0:0:70:Kick 01.wav
64,192,105085,1,0,0:0:0:0:
448,192,105171,1,0,0:0:0:0:
320,192,105258,1,0,0:0:0:0:
192,192,105344,1,0,0:0:0:0:
64,192,105430,1,0,0:0:0:0:
320,192,105430,1,0,0:0:0:0:
448,192,105430,1,0,0:0:0:70:Snare 01.wav
192,192,105516,1,0,0:0:0:0:
64,192,105602,1,0,0:0:0:0:
448,192,105602,1,0,0:0:0:0:
320,192,105689,1,0,0:0:0:0:
192,192,105775,1,0,0:0:0:0:
64,192,105861,1,0,0:0:0:0:
448,192,105947,1,0,0:0:0:70:Kick 01.wav
320,192,105947,1,0,0:0:0:0:
192,192,106033,1,0,0:0:0:0:
64,192,106120,1,0,0:0:0:70:Snare 01.wav
320,192,106120,1,0,0:0:0:0:
448,192,106120,1,0,0:0:0:0:
192,192,106206,1,0,0:0:0:0:
320,192,106292,1,0,0:0:0:0:
448,192,106292,1,0,0:0:0:0:
64,192,106378,1,0,0:0:0:0:
448,192,106464,1,0,0:0:0:70:Kick 01.wav
192,192,106464,1,0,0:0:0:0:
320,192,106551,1,0,0:0:0:0:
192,192,106637,1,0,0:0:0:0:
64,192,106637,1,0,0:0:0:0:
320,192,106723,1,0,0:0:0:0:
64,192,106809,1,0,0:0:0:0:
448,192,106809,1,0,0:0:0:70:Snare 01.wav
192,192,106809,1,0,0:0:0:0:
320,192,106895,1,0,0:0:0:0:
448,192,106982,1,0,0:0:0:0:
64,192,106982,1,0,0:0:0:0:
192,192,107068,1,0,0:0:0:0:
320,192,107154,1,0,0:0:0:0:
448,192,107154,1,0,0:0:0:0:
64,192,107240,1,0,0:0:0:0:
192,192,107326,1,0,0:0:0:0:
320,192,107326,1,0,0:0:0:70:Kick 01.wav
448,192,107413,1,0,0:0:0:0:
64,192,107499,1,0,0:0:0:70:Snare 01.wav
192,192,107499,1,0,0:0:0:0:
320,192,107499,1,0,0:0:0:0:
448,192,107585,1,0,0:0:0:0:
64,192,107671,1,0,0:0:0:0:
192,192,107758,1,0,0:0:0:0:
320,192,107844,1,0,0:0:0:70:Kick 01.wav
448,192,107844,1,0,0:0:0:0:
192,192,107930,1,0,0:0:0:0:
448,192,108016,1,0,0:0:0:0:
64,192,108016,1,0,0:0:0:0:
320,192,108102,1,0,0:0:0:0:
64,192,108189,1,0,0:0:0:0:
192,192,108189,1,0,0:0:0:70:Kick 01.wav
448,192,108275,1,0,0:0:0:0:
192,192,108361,1,0,0:0:0:0:
320,192,108361,1,0,0:0:0:0:
64,192,108447,1,0,0:0:0:0:
320,192,108533,1,0,0:0:0:70:Kick 01.wav
448,192,108533,1,0,0:0:0:0:
192,192,108620,1,0,0:0:0:0:
64,192,108706,1,0,0:0:0:0:
448,192,108706,1,0,0:0:0:0:
320,192,108792,1,0,0:0:0:0:
64,192,108878,1,0,0:0:0:0:
192,192,108878,1,0,0:0:0:70:Kick 01.wav
448,192,108964,1,0,0:0:0:0:
320,192,109051,1,0,0:0:0:0:
192,192,109137,1,0,0:0:0:0:
448,192,109223,1,0,0:0:0:70:Kick 01.wav
64,192,109223,1,0,0:0:0:0:
320,192,109395,1,0,0:0:0:70:Kick 01.wav
448,192,109395,1,0,0:0:0:0:
64,192,109568,1,0,0:0:0:0:
192,192,109568,1,0,0:0:0:70:Kick 01.wav
64,192,109740,1,0,0:0:0:70:Kick 01.wav
448,192,109740,1,0,0:0:0:0:
320,192,109913,1,0,0:0:0:70:Kick 01.wav
448,192,109913,1,0,0:0:0:0:
64,192,109999,1,0,0:0:0:0:
192,192,109999,1,0,0:0:0:70:Kick 01.wav
320,192,110085,1,0,0:0:0:70:Kick 01.wav
448,192,110085,1,0,0:0:0:0:
192,192,110171,1,0,0:0:0:70:Kick 01.wav
64,192,110171,1,0,0:0:0:0:
320,192,110258,1,0,0:0:0:70:Kick 01.wav
448,192,110258,1,0,0:0:0:0:
192,192,110344,1,0,0:0:0:70:Kick 01.wav
64,192,110344,1,0,0:0:0:0:
320,192,110430,1,0,0:0:0:70:Kick 01.wav
448,192,110430,1,0,0:0:0:0:
64,192,110516,1,0,0:0:0:0:
192,192,110516,1,0,0:0:0:70:Kick 01.wav
448,192,110602,1,0,0:0:0:0:
320,192,110602,1,0,0:0:0:70:Kick 01.wav
448,192,113361,1,0,0:0:0:70:Kick 01.wav
320,192,113361,1,0,0:0:0:0:
192,192,113361,1,0,0:0:0:0:
64,192,113361,1,0,0:0:0:70:cymbal06.wav
320,192,113533,1,0,0:0:0:0:
448,192,113706,1,0,0:0:0:70:Snare 01.wav
320,192,113706,1,0,0:0:0:0:
64,192,113706,1,0,0:0:0:0:
192,192,113706,1,0,0:0:0:0:
64,192,113878,1,0,0:0:0:0:
192,192,113878,1,0,0:0:0:0:
448,192,114051,1,0,0:0:0:0:
320,192,114223,1,0,0:0:0:70:Kick 01.wav
64,192,114223,1,0,0:0:0:0:
192,192,114223,1,0,0:0:0:0:
448,192,114395,1,0,0:0:0:0:
320,192,114395,1,0,0:0:0:0:
192,192,114395,1,0,0:0:0:0:
64,192,114395,1,0,0:0:0:70:Snare 01.wav
448,192,114568,1,0,0:0:0:0:
320,192,114740,1,0,0:0:0:0:
192,192,114740,1,0,0:0:0:70:Kick 01.wav
64,192,114740,1,0,0:0:0:0:
448,192,114913,1,0,0:0:0:0:
64,192,114913,1,0,0:0:0:0:
448,192,115085,1,0,0:0:0:70:Snare 01.wav
320,192,115085,1,0,0:0:0:0:
192,192,115085,1,0,0:0:0:0:
64,192,115085,1,0,0:0:0:0:
320,192,115258,1,0,0:0:0:0:
448,192,115430,1,0,0:0:0:0:
64,192,115430,1,0,0:0:0:0:
448,192,115602,1,0,0:0:0:70:Kick 01.wav
320,192,115602,1,0,0:0:0:0:
192,192,115602,1,0,0:0:0:0:
448,192,115775,1,0,0:0:0:0:
192,192,115775,1,0,0:0:0:0:
320,192,115775,1,0,0:0:0:0:
64,192,115775,1,0,0:0:0:70:Snare 01.wav
64,192,115947,1,0,0:0:0:0:
448,192,116120,1,0,0:0:0:0:
320,192,116120,1,0,0:0:0:70:Kick 01.wav
192,192,116120,1,0,0:0:0:0:
448,192,116292,1,0,0:0:0:0:
320,192,116292,1,0,0:0:0:0:
448,192,116464,1,0,0:0:0:70:Snare 01.wav
320,192,116464,1,0,0:0:0:0:
192,192,116464,1,0,0:0:0:0:
64,192,116464,1,0,0:0:0:0:
320,192,116637,1,0,0:0:0:0:
64,192,116637,1,0,0:0:0:0:
192,192,116809,1,0,0:0:0:0:
448,192,116809,1,0,0:0:0:0:
448,192,116982,1,0,0:0:0:0:
320,192,116982,1,0,0:0:0:70:Kick 01.wav
64,192,116982,1,0,0:0:0:0:
448,192,117154,1,0,0:0:0:0:
320,192,117154,1,0,0:0:0:0:
192,192,117154,1,0,0:0:0:0:
64,192,117154,1,0,0:0:0:70:Snare 01.wav
192,192,117326,1,0,0:0:0:0:
320,192,117499,1,0,0:0:0:0:
192,192,117499,1,0,0:0:0:70:Kick 01.wav
64,192,117499,1,0,0:0:0:0:
320,192,117671,1,0,0:0:0:0:
448,192,117671,1,0,0:0:0:0:
448,192,117844,1,0,0:0:0:70:Snare 01.wav
320,192,117844,1,0,0:0:0:0:
192,192,117844,1,0,0:0:0:0:
64,192,117844,1,0,0:0:0:0:
192,192,118016,1,0,0:0:0:0:
448,192,118189,1,0,0:0:0:0:
64,192,118189,1,0,0:0:0:0:
448,192,118361,1,0,0:0:0:0:
192,192,118361,1,0,0:0:0:70:Kick 01.wav
64,192,118361,1,0,0:0:0:0:
448,192,118533,1,0,0:0:0:0:
320,192,118533,1,0,0:0:0:0:
192,192,118533,1,0,0:0:0:0:
64,192,118533,1,0,0:0:0:70:Snare 01.wav
320,192,118706,1,0,0:0:0:0:
192,192,118878,1,0,0:0:0:0:
320,192,118878,1,0,0:0:0:0:
448,192,118878,1,0,0:0:0:70:Kick 01.wav
64,192,119051,1,0,0:0:0:0:
448,192,119051,1,0,0:0:0:0:
448,192,119223,1,0,0:0:0:70:Snare 01.wav
320,192,119223,1,0,0:0:0:0:
192,192,119223,1,0,0:0:0:0:
64,192,119223,1,0,0:0:0:0:
320,192,119395,1,0,0:0:0:0:
192,192,119395,1,0,0:0:0:0:
448,192,119568,1,0,0:0:0:0:
64,192,119568,1,0,0:0:0:0:
320,192,119740,1,0,0:0:0:0:
192,192,119740,1,0,0:0:0:70:Kick 01.wav
64,192,119740,1,0,0:0:0:0:
448,192,119913,1,0,0:0:0:0:
320,192,119913,1,0,0:0:0:0:
192,192,119913,1,0,0:0:0:0:
64,192,119913,1,0,0:0:0:70:Snare 01.wav
320,192,120085,1,0,0:0:0:0:
192,192,120258,1,0,0:0:0:0:
64,192,120258,1,0,0:0:0:0:
448,192,120258,1,0,0:0:0:70:Kick 01.wav
320,192,120430,1,0,0:0:0:0:
64,192,120430,1,0,0:0:0:0:
448,192,120602,1,0,0:0:0:70:Snare 01.wav
320,192,120602,1,0,0:0:0:0:
192,192,120602,1,0,0:0:0:0:
64,192,120602,1,0,0:0:0:0:
192,192,120775,1,0,0:0:0:0:
448,192,120947,1,0,0:0:0:0:
320,192,120947,1,0,0:0:0:0:
64,192,121120,1,0,0:0:0:0:
320,192,121120,1,0,0:0:0:0:
192,192,121120,1,0,0:0:0:70:Kick 01.wav
448,192,121292,1,0,0:0:0:0:
320,192,121292,1,0,0:0:0:0:
192,192,121292,1,0,0:0:0:0:
64,192,121292,1,0,0:0:0:70:Snare 01.wav
448,192,121464,1,0,0:0:0:70:Kick 01.wav
64,192,121464,1,0,0:0:0:0:
320,192,121551,1,0,0:0:0:70:Kick 01.wav
192,192,121637,1,0,0:0:0:0:
64,192,121637,1,0,0:0:0:70:cymbal06.wav
448,192,121637,1,0,0:0:0:70:Kick 01.wav
192,192,121809,1,0,0:0:0:0:
448,192,121982,1,0,0:0:0:70:Snare 01.wav
320,192,121982,1,0,0:0:0:0:
192,192,121982,1,0,0:0:0:0:
64,192,121982,1,0,0:0:0:0:
448,192,122154,1,0,0:0:0:0:
320,192,122154,1,0,0:0:0:0:
192,192,122326,1,0,0:0:0:0:
320,192,122499,1,0,0:0:0:70:Kick 01.wav
448,192,122499,1,0,0:0:0:0:
64,192,122499,1,0,0:0:0:0:
448,192,122671,1,0,0:0:0:0:
320,192,122671,1,0,0:0:0:0:
192,192,122671,1,0,0:0:0:0:
64,192,122671,1,0,0:0:0:70:Snare 01.wav
192,192,122844,1,0,0:0:0:0:
320,192,123016,1,0,0:0:0:0:
192,192,123016,1,0,0:0:0:0:
448,192,123016,1,0,0:0:0:70:Kick 01.wav
448,192,123189,1,0,0:0:0:0:
320,192,123189,1,0,0:0:0:0:
448,192,123361,1,0,0:0:0:70:Snare 01.wav
320,192,123361,1,0,0:0:0:0:
192,192,123361,1,0,0:0:0:0:
64,192,123361,1,0,0:0:0:0:
64,192,123533,1,0,0:0:0:0:
448,192,123706,1,0,0:0:0:0:
192,192,123706,1,0,0:0:0:0:
320,192,123878,1,0,0:0:0:0:
192,192,123878,1,0,0:0:0:70:Kick 01.wav
448,192,123878,1,0,0:0:0:0:
448,192,124051,1,0,0:0:0:0:
320,192,124051,1,0,0:0:0:0:
192,192,124051,1,0,0:0:0:0:
64,192,124051,1,0,0:0:0:70:Snare 01.wav
64,192,124223,1,0,0:0:0:0:
448,192,124395,1,0,0:0:0:0:
320,192,124395,1,0,0:0:0:70:Kick 01.wav
192,192,124395,1,0,0:0:0:0:
320,192,124568,1,0,0:0:0:0:
64,192,124740,1,0,0:0:0:0:
192,192,124740,1,0,0:0:0:0:
448,192,124740,1,0,0:0:0:70:Snare 01.wav
320,192,124740,1,0,0:0:0:0:
192,192,124913,1,0,0:0:0:0:
64,192,124913,1,0,0:0:0:0:
448,192,125085,1,0,0:0:0:0:
192,192,125258,1,0,0:0:0:70:Kick 01.wav
64,192,125258,1,0,0:0:0:0:
320,192,125258,1,0,0:0:0:0:
192,192,125430,1,0,0:0:0:0:
64,192,125430,1,0,0:0:0:70:Snare 01.wav
448,192,125430,1,0,0:0:0:0:
320,192,125430,1,0,0:0:0:0:
448,192,125602,1,0,0:0:0:0:
64,192,125775,1,0,0:0:0:0:
192,192,125775,1,0,0:0:0:0:
320,192,125775,1,0,0:0:0:70:Kick 01.wav
192,192,125947,1,0,0:0:0:0:
64,192,125947,1,0,0:0:0:0:
192,192,126120,1,0,0:0:0:0:
64,192,126120,1,0,0:0:0:0:
448,192,126120,1,0,0:0:0:70:Snare 01.wav
320,192,126120,1,0,0:0:0:0:
320,192,126292,1,0,0:0:0:0:
64,192,126464,1,0,0:0:0:0:
448,192,126464,1,0,0:0:0:0:
192,192,126637,1,0,0:0:0:0:
320,192,126637,1,0,0:0:0:70:Kick 01.wav
448,192,126637,1,0,0:0:0:0:
320,192,126809,1,0,0:0:0:0:
64,192,126809,1,0,0:0:0:70:Snare 01.wav
448,192,126809,1,0,0:0:0:0:
192,192,126809,1,0,0:0:0:0:
64,192,126982,1,0,0:0:0:0:
192,192,127154,1,0,0:0:0:0:
320,192,127154,1,0,0:0:0:70:Kick 01.wav
448,192,127154,1,0,0:0:0:0:
448,192,127326,1,0,0:0:0:0:
64,192,127326,1,0,0:0:0:0:
192,192,127499,1,0,0:0:0:0:
64,192,127499,1,0,0:0:0:0:
448,192,127499,1,0,0:0:0:70:Snare 01.wav
320,192,127499,1,0,0:0:0:0:
64,192,127671,1,0,0:0:0:0:
320,192,127671,1,0,0:0:0:0:
192,192,127844,1,0,0:0:0:0:
448,192,127844,1,0,0:0:0:0:
64,192,128016,1,0,0:0:0:0:
320,192,128016,1,0,0:0:0:0:
448,192,128016,1,0,0:0:0:70:Kick 01.wav
192,192,128189,1,0,0:0:0:0:
64,192,128189,1,0,0:0:0:70:Snare 01.wav
448,192,128189,1,0,0:0:0:0:
320,192,128189,1,0,0:0:0:0:
448,192,128361,1,0,0:0:0:0:
192,192,128361,1,0,0:0:0:0:
64,192,128533,1,0,0:0:0:70:Kick 01.wav
192,192,128533,1,0,0:0:0:0:
320,192,128533,1,0,0:0:0:0:
448,192,128706,1,0,0:0:0:0:
320,192,128706,1,0,0:0:0:0:
192,192,128878,1,0,0:0:0:0:
64,192,128878,1,0,0:0:0:0:
448,192,128878,1,0,0:0:0:70:Snare 01.wav
320,192,128878,1,0,0:0:0:0:
192,192,129051,1,0,0:0:0:0:
320,192,129051,1,0,0:0:0:0:
64,192,129223,1,0,0:0:0:0:
448,192,129223,1,0,0:0:0:0:
64,192,129395,1,0,0:0:0:0:
192,192,129395,1,0,0:0:0:0:
448,192,129395,1,0,0:0:0:70:Kick 01.wav
192,192,129568,1,0,0:0:0:0:
64,192,129568,1,0,0:0:0:70:Snare 01.wav
448,192,129568,1,0,0:0:0:0:
320,192,129568,1,0,0:0:0:0:
320,192,129740,1,0,0:0:0:0:
448,192,129913,1,0,0:0:0:0:
320,192,129913,1,0,0:0:0:0:
192,192,129913,1,0,0:0:0:70:Kick 01.wav
64,192,130430,1,0,0:0:0:0:
448,192,130430,1,0,0:0:0:0:
192,192,130947,1,0,0:0:0:0:
320,192,130947,1,0,0:0:0:0:
320,192,131464,1,0,0:0:0:0:
448,192,131464,1,0,0:0:0:0:
64,192,131982,1,0,0:0:0:0:
192,192,131982,1,0,0:0:0:0:
448,192,132326,1,0,0:0:0:0:
64,192,132499,1,0,0:0:0:0:
192,192,132499,1,0,0:0:0:70:Kick 01.wav
320,192,132585,1,0,0:0:0:70:Kick 01.wav
64,192,132671,1,0,0:0:0:70:cymbal06.wav
448,192,132671,1,0,0:0:0:70:Kick 01.wav
192,192,132671,1,0,0:0:0:0:
320,192,132844,1,0,0:0:0:0:
192,192,132844,1,0,0:0:0:0:
448,192,133016,1,0,0:0:0:70:Snare 01.wav
320,192,133016,1,0,0:0:0:0:
192,192,133016,1,0,0:0:0:0:
64,192,133016,1,0,0:0:0:0:
64,192,133189,1,0,0:0:0:0:
192,192,133361,1,0,0:0:0:0:
448,192,133361,1,0,0:0:0:0:
448,192,133533,1,0,0:0:0:70:Kick 01.wav
320,192,133533,1,0,0:0:0:0:
64,192,133533,1,0,0:0:0:0:
448,192,133706,1,0,0:0:0:0:
192,192,133706,1,0,0:0:0:0:
320,192,133706,1,0,0:0:0:0:
64,192,133706,1,0,0:0:0:70:Snare 01.wav
192,192,133878,1,0,0:0:0:0:
448,192,134051,1,0,0:0:0:0:
192,192,134051,1,0,0:0:0:70:Kick 01.wav
64,192,134051,1,0,0:0:0:0:
64,192,134223,1,0,0:0:0:0:
448,192,134395,1,0,0:0:0:70:Snare 01.wav
320,192,134395,1,0,0:0:0:0:
192,192,134395,1,0,0:0:0:0:
64,192,134395,1,0,0:0:0:0:
192,192,134568,1,0,0:0:0:0:
320,192,134740,1,0,0:0:0:0:
64,192,134740,1,0,0:0:0:0:
448,192,134913,1,0,0:0:0:0:
192,192,134913,1,0,0:0:0:0:
64,192,134913,1,0,0:0:0:70:Kick 01.wav
448,192,135085,1,0,0:0:0:0:
320,192,135085,1,0,0:0:0:0:
192,192,135085,1,0,0:0:0:0:
64,192,135085,1,0,0:0:0:70:Snare 01.wav
320,192,135258,1,0,0:0:0:0:
64,192,135430,1,0,0:0:0:0:
448,192,135430,1,0,0:0:0:70:Kick 01.wav
320,192,135430,1,0,0:0:0:0:
192,192,135602,1,0,0:0:0:0:
320,192,135775,1,0,0:0:0:0:
192,192,135775,1,0,0:0:0:0:
64,192,135775,1,0,0:0:0:0:
448,192,135775,1,0,0:0:0:70:Snare 01.wav
64,192,135947,1,0,0:0:0:0:
320,192,136120,1,0,0:0:0:0:
448,192,136120,1,0,0:0:0:0:
320,192,136292,1,0,0:0:0:0:
192,192,136292,1,0,0:0:0:70:Kick 01.wav
448,192,136292,1,0,0:0:0:0:
448,192,136464,1,0,0:0:0:0:
320,192,136464,1,0,0:0:0:0:
192,192,136464,1,0,0:0:0:0:
64,192,136464,1,0,0:0:0:70:Snare 01.wav
64,192,136637,1,0,0:0:0:0:
448,192,136809,1,0,0:0:0:0:
320,192,136809,1,0,0:0:0:70:Kick 01.wav
192,192,136809,1,0,0:0:0:0:
192,192,136982,1,0,0:0:0:0:
448,192,137154,1,0,0:0:0:70:Snare 01.wav
320,192,137154,1,0,0:0:0:0:
192,192,137154,1,0,0:0:0:0:
64,192,137154,1,0,0:0:0:0:
320,192,137326,1,0,0:0:0:0:
64,192,137499,1,0,0:0:0:0:
192,192,137499,1,0,0:0:0:0:
448,192,137671,1,0,0:0:0:70:Kick 01.wav
320,192,137671,1,0,0:0:0:0:
64,192,137671,1,0,0:0:0:0:
448,192,137844,1,0,0:0:0:0:
320,192,137844,1,0,0:0:0:0:
192,192,137844,1,0,0:0:0:0:
64,192,137844,1,0,0:0:0:70:Snare 01.wav
192,192,138016,1,0,0:0:0:0:
320,192,138189,1,0,0:0:0:0:
192,192,138189,1,0,0:0:0:0:
64,192,138189,1,0,0:0:0:70:Kick 01.wav
448,192,138361,1,0,0:0:0:0:
448,192,138533,1,0,0:0:0:70:Snare 01.wav
320,192,138533,1,0,0:0:0:0:
192,192,138533,1,0,0:0:0:0:
64,192,138533,1,0,0:0:0:0:
320,192,138706,1,0,0:0:0:0:
64,192,138878,1,0,0:0:0:0:
448,192,138878,1,0,0:0:0:0:
448,192,139051,1,0,0:0:0:70:Kick 01.wav
320,192,139051,1,0,0:0:0:0:
192,192,139051,1,0,0:0:0:0:
448,192,139223,1,0,0:0:0:0:
320,192,139223,1,0,0:0:0:0:
192,192,139223,1,0,0:0:0:0:
64,192,139223,1,0,0:0:0:70:Snare 01.wav
192,192,139395,1,0,0:0:0:0:
64,192,139568,1,0,0:0:0:0:
320,192,139568,1,0,0:0:0:70:Kick 01.wav
448,192,139568,1,0,0:0:0:0:
192,192,139740,1,0,0:0:0:0:
448,192,139913,1,0,0:0:0:70:Snare 01.wav
64,192,139913,1,0,0:0:0:0:
320,192,139913,1,0,0:0:0:0:
192,192,139913,1,0,0:0:0:0:
64,192,140085,1,0,0:0:0:0:
448,192,140258,1,0,0:0:0:0:
192,192,140258,1,0,0:0:0:0:
320,192,140430,1,0,0:0:0:0:
192,192,140430,1,0,0:0:0:70:Kick 01.wav
64,192,140430,1,0,0:0:0:0:
448,192,140602,1,0,0:0:0:0:
320,192,140602,1,0,0:0:0:0:
64,192,140602,1,0,0:0:0:70:Snare 01.wav
192,192,140602,1,0,0:0:0:0:
448,192,140775,1,0,0:0:0:0:
320,192,140947,1,0,0:0:0:70:Kick 01.wav
192,192,140947,1,0,0:0:0:0:
64,192,140947,1,0,0:0:0:0:
192,192,141120,1,0,0:0:0:0:
448,192,141292,1,0,0:0:0:70:Snare 01.wav
320,192,141292,1,0,0:0:0:0:
192,192,141292,1,0,0:0:0:0:
64,192,141292,1,0,0:0:0:0:
320,192,141464,1,0,0:0:0:0:
448,192,141637,1,0,0:0:0:0:
192,192,141637,1,0,0:0:0:0:
448,192,141809,1,0,0:0:0:70:Kick 01.wav
320,192,141809,1,0,0:0:0:0:
64,192,141809,1,0,0:0:0:0:
448,192,141982,1,0,0:0:0:0:
320,192,141982,1,0,0:0:0:0:
192,192,141982,1,0,0:0:0:0:
64,192,141982,1,0,0:0:0:70:Snare 01.wav
192,192,142154,1,0,0:0:0:0:
448,192,142326,1,0,0:0:0:0:
320,192,142326,1,0,0:0:0:0:
64,192,142326,1,0,0:0:0:70:Kick 01.wav
192,192,142499,1,0,0:0:0:0:
448,192,142671,1,0,0:0:0:70:Snare 01.wav
320,192,142671,1,0,0:0:0:0:
192,192,142671,1,0,0:0:0:0:
64,192,142671,1,0,0:0:0:0:
448,192,142844,1,0,0:0:0:0:
320,192,143016,1,0,0:0:0:0:
64,192,143016,1,0,0:0:0:0:
448,192,143189,1,0,0:0:0:70:Kick 01.wav
192,192,143189,1,0,0:0:0:0:
64,192,143189,1,0,0:0:0:0:
448,192,143361,1,0,0:0:0:0:
320,192,143361,1,0,0:0:0:0:
192,192,143361,1,0,0:0:0:0:
64,192,143361,1,0,0:0:0:70:Snare 01.wav
448,192,143706,1,0,0:0:0:70:Kick 01.wav
320,192,143706,1,0,0:0:0:0:
64,192,143706,1,0,0:0:0:70:cymbal06.wav
192,192,143706,1,0,0:0:0:0:
320,192,143878,1,0,0:0:0:0:
448,192,144051,1,0,0:0:0:70:Snare 01.wav
320,192,144051,1,0,0:0:0:0:
192,192,144051,1,0,0:0:0:0:
64,192,144051,1,0,0:0:0:0:
64,192,144223,1,0,0:0:0:0:
320,192,144395,1,0,0:0:0:0:
192,192,144395,1,0,0:0:0:0:
448,192,144568,1,0,0:0:0:0:
320,192,144568,1,0,0:0:0:70:Kick 01.wav
64,192,144568,1,0,0:0:0:0:
448,192,144740,1,0,0:0:0:0:
192,192,144740,1,0,0:0:0:0:
320,192,144740,1,0,0:0:0:0:
64,192,144740,1,0,0:0:0:70:Snare 01.wav
192,192,144913,1,0,0:0:0:0:
448,192,145085,1,0,0:0:0:70:Kick 01.wav
192,192,145085,1,0,0:0:0:0:
64,192,145085,1,0,0:0:0:0:
64,192,145258,1,0,0:0:0:0:
448,192,145430,1,0,0:0:0:70:Snare 01.wav
320,192,145430,1,0,0:0:0:0:
192,192,145430,1,0,0:0:0:0:
64,192,145430,1,0,0:0:0:0:
192,192,145602,1,0,0:0:0:0:
320,192,145775,1,0,0:0:0:0:
448,192,145775,1,0,0:0:0:0:
448,192,145947,1,0,0:0:0:0:
192,192,145947,1,0,0:0:0:0:
64,192,145947,1,0,0:0:0:70:Kick 01.wav
448,192,146120,1,0,0:0:0:0:
320,192,146120,1,0,0:0:0:0:
192,192,146120,1,0,0:0:0:0:
64,192,146120,1,0,0:0:0:70:Snare 01.wav
320,192,146292,1,0,0:0:0:0:
64,192,146464,1,0,0:0:0:0:
448,192,146464,1,0,0:0:0:0:
320,192,146464,1,0,0:0:0:70:Kick 01.wav
192,192,146637,1,0,0:0:0:0:
320,192,146809,1,0,0:0:0:0:
192,192,146809,1,0,0:0:0:0:
64,192,146809,1,0,0:0:0:0:
448,192,146809,1,0,0:0:0:70:Snare 01.wav
64,192,146982,1,0,0:0:0:0:
320,192,147154,1,0,0:0:0:0:
192,192,147154,1,0,0:0:0:0:
320,192,147326,1,0,0:0:0:0:
192,192,147326,1,0,0:0:0:70:Kick 01.wav
448,192,147326,1,0,0:0:0:0:
448,192,147499,1,0,0:0:0:0:
320,192,147499,1,0,0:0:0:0:
192,192,147499,1,0,0:0:0:0:
64,192,147499,1,0,0:0:0:70:Snare 01.wav
64,192,147671,1,0,0:0:0:0:
448,192,147844,1,0,0:0:0:70:Kick 01.wav
320,192,147844,1,0,0:0:0:0:
192,192,147844,1,0,0:0:0:0:
192,192,148016,1,0,0:0:0:0:
448,192,148189,1,0,0:0:0:70:Snare 01.wav
320,192,148189,1,0,0:0:0:0:
192,192,148189,1,0,0:0:0:0:
64,192,148189,1,0,0:0:0:0:
320,192,148361,1,0,0:0:0:0:
64,192,148533,1,0,0:0:0:0:
448,192,148533,1,0,0:0:0:0:
448,192,148706,1,0,0:0:0:70:Kick 01.wav
320,192,148706,1,0,0:0:0:0:
64,192,148706,1,0,0:0:0:0:
448,192,148878,1,0,0:0:0:0:
320,192,148878,1,0,0:0:0:0:
192,192,148878,1,0,0:0:0:0:
64,192,148878,1,0,0:0:0:70:Snare 01.wav
192,192,149051,1,0,0:0:0:0:
320,192,149223,1,0,0:0:0:0:
192,192,149223,1,0,0:0:0:70:Kick 01.wav
64,192,149223,1,0,0:0:0:0:
448,192,149395,1,0,0:0:0:0:
448,192,149568,1,0,0:0:0:70:Snare 01.wav
320,192,149568,1,0,0:0:0:0:
192,192,149568,1,0,0:0:0:0:
64,192,149568,1,0,0:0:0:0:
320,192,149740,1,0,0:0:0:0:
64,192,149913,1,0,0:0:0:0:
192,192,149913,1,0,0:0:0:0:
448,192,150085,1,0,0:0:0:0:
320,192,150085,1,0,0:0:0:70:Kick 01.wav
192,192,150085,1,0,0:0:0:0:
448,192,150258,1,0,0:0:0:0:
320,192,150258,1,0,0:0:0:0:
192,192,150258,1,0,0:0:0:0:
64,192,150258,1,0,0:0:0:70:Snare 01.wav
192,192,150430,1,0,0:0:0:0:
64,192,150602,1,0,0:0:0:70:Kick 01.wav
320,192,150602,1,0,0:0:0:0:
448,192,150602,1,0,0:0:0:0:
192,192,150775,1,0,0:0:0:0:
448,192,150947,1,0,0:0:0:70:Snare 01.wav
64,192,150947,1,0,0:0:0:0:
320,192,150947,1,0,0:0:0:0:
192,192,150947,1,0,0:0:0:0:
64,192,151120,1,0,0:0:0:0:
448,192,151292,1,0,0:0:0:0:
192,192,151292,1,0,0:0:0:0:
320,192,151464,1,0,0:0:0:0:
192,192,151464,1,0,0:0:0:70:Kick 01.wav
64,192,151464,1,0,0:0:0:0:
448,192,151637,1,0,0:0:0:0:
320,192,151637,1,0,0:0:0:0:
64,192,151637,1,0,0:0:0:70:Snare 01.wav
192,192,151637,1,0,0:0:0:0:
448,192,151809,1,0,0:0:0:0:
320,192,151982,1,0,0:0:0:0:
192,192,151982,1,0,0:0:0:70:Kick 01.wav
64,192,151982,1,0,0:0:0:0:
64,192,152154,1,0,0:0:0:0:
192,192,152326,1,0,0:0:0:0:
320,192,152326,1,0,0:0:0:70:Kick 01.wav
448,192,152326,1,0,0:0:0:0:
448,192,152499,1,0,0:0:0:0:
64,192,152671,1,0,0:0:0:0:
192,192,152671,1,0,0:0:0:70:Kick 01.wav
320,192,152671,1,0,0:0:0:0:
64,192,152844,1,0,0:0:0:0:
320,192,153016,1,0,0:0:0:70:Kick 01.wav
448,192,153016,1,0,0:0:0:0:
192,192,153016,1,0,0:0:0:0:
448,192,153189,1,0,0:0:0:0:
64,192,153361,1,0,0:0:0:0:
192,192,153361,1,0,0:0:0:70:Kick 01.wav
320,192,153361,1,0,0:0:0:0:
64,192,153533,1,0,0:0:0:0:
192,192,153533,1,0,0:0:0:70:Kick 01.wav
320,192,153533,1,0,0:0:0:0:
64,192,153706,1,0,0:0:0:0:
192,192,153706,1,0,0:0:0:70:Kick 01.wav
320,192,153706,1,0,0:0:0:0:
64,192,153878,1,0,0:0:0:0:
192,192,153878,1,0,0:0:0:70:Kick 01.wav
320,192,153878,1,0,0:0:0:0:
448,192,154051,1,0,0:0:0:0:
320,192,154051,1,0,0:0:0:70:Kick 01.wav
192,192,154051,1,0,0:0:0:0:
448,192,154223,1,0,0:0:0:0:
320,192,154223,1,0,0:0:0:70:Kick 01.wav
192,192,154223,1,0,0:0:0:0:
448,192,154395,1,0,0:0:0:0:
320,192,154395,1,0,0:0:0:70:Kick 01.wav
192,192,154395,1,0,0:0:0:0:
448,192,154568,1,0,0:0:0:0:
320,192,154568,1,0,0:0:0:70:Kick 01.wav
192,192,154568,1,0,0:0:0:0:
192,192,154740,1,0,0:0:0:70:Kick 01.wav
320,192,154740,1,0,0:0:0:0:
64,192,154740,128,0,160258:0:0:0:0:
448,192,154740,128,0,158878:0:0:0:0:
320,192,157154,1,0,0:0:0:0:
192,192,157326,1,0,0:0:0:0:
320,192,157499,1,0,0:0:0:0:
192,192,158878,128,0,160258:0:0:0:0:
448,192,159913,1,0,0:0:0:0:
320,192,160085,1,0,0:0:0:0:
448,192,160258,128,0,165775:0:0:0:0:
192,192,162671,1,0,0:0:0:0:
64,192,162844,1,0,0:0:0:0:
320,192,163016,1,0,0:0:0:0:
192,192,164395,1,0,0:0:0:0:
320,192,165430,1,0,0:0:0:0:
192,192,165602,1,0,0:0:0:0:
64,192,165775,128,0,171292:0:0:0:0:
448,192,168189,1,0,0:0:0:0:
320,192,168361,1,0,0:0:0:0:
448,192,168533,128,0,171292:0:0:0:0:
320,192,170947,1,0,0:0:0:0:
192,192,171120,1,0,0:0:0:0:
320,192,171292,128,0,174051:0:0:0:0:
64,192,173706,1,0,0:0:0:0:
192,192,173878,1,0,0:0:0:0:
448,192,174051,128,0,176637:0:0:0:0:
64,192,175430,1,0,0:0:0:0:
192,192,176464,1,0,0:0:0:0:
64,192,176637,1,0,0:0:0:0:
320,192,176809,128,0,177499:0:0:0:70:cymbal06.wav
448,192,176809,128,0,180947:0:0:0:0:
192,192,176809,1,0,0:0:0:70:Kick 01.wav
192,192,177844,128,0,178792:0:0:0:0:
320,192,178792,128,0,179395:0:0:0:0:
192,192,179223,1,0,0:0:0:0:
64,192,179395,1,0,0:0:0:0:
192,192,179568,128,0,180085:0:0:0:0:
64,192,180085,128,0,180602:0:0:0:0:
320,192,180602,128,0,181292:0:0:0:0:
192,192,181292,128,0,181809:0:0:0:0:
320,192,181809,128,0,182326:0:0:0:0:
448,192,181982,1,0,0:0:0:0:
64,192,182154,1,0,0:0:0:0:
448,192,182326,128,0,182844:0:0:0:0:
192,192,182326,128,0,184913:0:0:0:0:
64,192,182844,128,0,183361:0:0:0:0:
320,192,183361,128,0,183878:0:0:0:0:
448,192,184137,128,0,184568:0:0:0:0:
64,192,184568,128,0,184913:0:0:0:0:
320,192,184740,1,0,0:0:0:0:
448,192,184913,1,0,0:0:0:0:
320,192,185085,128,0,185602:0:0:0:0:
64,192,185085,128,0,187154:0:0:0:0:
192,192,185602,128,0,186120:0:0:0:0:
320,192,186120,128,0,186809:0:0:0:0:
448,192,186464,1,0,0:0:0:0:
448,192,186809,128,0,187671:0:0:0:0:
320,192,187499,1,0,0:0:0:0:
192,192,187671,1,0,0:0:0:0:
64,192,187844,128,0,188361:0:0:0:0:
320,192,187844,128,0,190430:0:0:0:0:
448,192,189568,128,0,190085:0:0:0:0:
192,192,190085,128,0,190430:0:0:0:0:
448,192,190258,1,0,0:0:0:0:
64,192,190430,1,0,0:0:0:0:
192,192,190602,128,0,190947:0:0:0:0:
448,192,190602,128,0,191982:0:0:0:0:
64,192,191120,128,0,191464:0:0:0:0:
192,192,191464,1,0,0:0:0:0:
320,192,191637,128,0,192326:0:0:0:0:
192,192,192326,128,0,192844:0:0:0:0:
320,192,192844,128,0,193361:0:0:0:0:
64,192,193016,1,0,0:0:0:0:
448,192,193189,1,0,0:0:0:0:
448,192,193361,128,0,193878:0:0:0:0:
192,192,193361,128,0,195947:0:0:0:0:
320,192,193878,128,0,194395:0:0:0:0:
64,192,194395,128,0,194826:0:0:0:0:
320,192,195171,128,0,195602:0:0:0:0:
448,192,195602,128,0,195947:0:0:0:0:
64,192,195775,1,0,0:0:0:0:
320,192,195947,1,0,0:0:0:0:
64,192,196120,128,0,198706:0:0:0:0:
448,192,196120,128,0,196637:0:0:0:0:
192,192,196637,128,0,196982:0:0:0:0:
448,192,197154,128,0,197844:0:0:0:0:
320,192,197499,1,0,0:0:0:0:
192,192,197844,128,0,198189:0:0:0:0:
320,192,198189,128,0,198878:0:0:0:0:
192,192,198533,1,0,0:0:0:0:
448,192,198706,1,0,0:0:0:0:
64,192,198878,1,0,0:0:0:0:
192,192,198878,1,0,0:0:0:70:Kick 01.wav
448,192,198878,1,0,0:0:0:0:
64,192,199223,1,0,0:0:0:0:
192,192,199223,1,0,0:0:0:70:Kick 01.wav
320,192,199223,1,0,0:0:0:0:
448,192,199395,1,0,0:0:0:0:
64,192,199568,1,0,0:0:0:0:
192,192,199568,1,0,0:0:0:70:Kick 01.wav
320,192,199568,1,0,0:0:0:0:
64,192,199913,1,0,0:0:0:0:
192,192,199913,1,0,0:0:0:70:Kick 01.wav
448,192,199913,1,0,0:0:0:0:
64,192,200258,1,0,0:0:0:0:
192,192,200258,1,0,0:0:0:70:Kick 01.wav
320,192,200258,1,0,0:0:0:0:
448,192,200430,1,0,0:0:0:0:
64,192,200602,1,0,0:0:0:0:
192,192,200602,1,0,0:0:0:70:Kick 01.wav
320,192,200602,1,0,0:0:0:0:
320,192,200947,1,0,0:0:0:70:Kick 01.wav
64,192,200947,1,0,0:0:0:0:
448,192,200947,1,0,0:0:0:0:
192,192,201292,1,0,0:0:0:70:Kick 01.wav
64,192,201292,1,0,0:0:0:0:
448,192,201292,1,0,0:0:0:0:
64,192,201637,1,0,0:0:0:0:
320,192,201637,1,0,0:0:0:70:Kick 01.wav
448,192,201637,1,0,0:0:0:0:
192,192,201982,1,0,0:0:0:0:
320,192,201982,1,0,0:0:0:70:Kick 01.wav
448,192,201982,1,0,0:0:0:0:
64,192,202154,1,0,0:0:0:0:
192,192,202326,1,0,0:0:0:0:
320,192,202326,1,0,0:0:0:70:Kick 01.wav
448,192,202326,1,0,0:0:0:0:
64,192,202671,1,0,0:0:0:0:
320,192,202671,1,0,0:0:0:70:Kick 01.wav
448,192,202671,1,0,0:0:0:0:
192,192,203016,1,0,0:0:0:0:
448,192,203016,1,0,0:0:0:0:
320,192,203016,1,0,0:0:0:70:Kick 01.wav
64,192,203189,1,0,0:0:0:0:
192,192,203361,1,0,0:0:0:0:
448,192,203361,1,0,0:0:0:0:
320,192,203361,1,0,0:0:0:70:Kick 01.wav
64,192,203706,1,0,0:0:0:0:
320,192,203706,1,0,0:0:0:70:Kick 01.wav
448,192,203706,1,0,0:0:0:0:
64,192,204051,1,0,0:0:0:0:
192,192,204051,1,0,0:0:0:70:Kick 01.wav
448,192,204051,1,0,0:0:0:0:
64,192,204395,1,0,0:0:0:0:
192,192,204395,1,0,0:0:0:0:
320,192,204395,1,0,0:0:0:70:Kick 01.wav
64,192,204740,1,0,0:0:0:0:
192,192,204740,1,0,0:0:0:0:
448,192,204740,1,0,0:0:0:70:Kick 01.wav
320,192,204913,1,0,0:0:0:0:
448,192,205085,1,0,0:0:0:70:Kick 01.wav
192,192,205085,1,0,0:0:0:0:
64,192,205085,1,0,0:0:0:0:
64,192,205430,1,0,0:0:0:0:
192,192,205430,1,0,0:0:0:0:
320,192,205430,1,0,0:0:0:70:Kick 01.wav
64,192,205775,1,0,0:0:0:0:
192,192,205775,1,0,0:0:0:0:
448,192,205775,1,0,0:0:0:70:Kick 01.wav
320,192,205947,1,0,0:0:0:0:
64,192,206120,1,0,0:0:0:0:
192,192,206120,1,0,0:0:0:0:
448,192,206120,1,0,0:0:0:70:Kick 01.wav
448,192,206464,1,0,0:0:0:0:
192,192,206464,1,0,0:0:0:70:Kick 01.wav
320,192,206464,1,0,0:0:0:0:
64,192,206809,1,0,0:0:0:0:
192,192,206809,1,0,0:0:0:0:
320,192,206809,1,0,0:0:0:70:Kick 01.wav
192,192,207154,1,0,0:0:0:70:Kick 01.wav
320,192,207154,1,0,0:0:0:0:
448,192,207154,1,0,0:0:0:0:
64,192,207499,1,0,0:0:0:70:Kick 01.wav
320,192,207499,1,0,0:0:0:0:
448,192,207499,1,0,0:0:0:0:
192,192,207671,1,0,0:0:0:0:
64,192,207844,1,0,0:0:0:70:Kick 01.wav
320,192,207844,1,0,0:0:0:0:
448,192,207844,1,0,0:0:0:0:
192,192,208189,1,0,0:0:0:70:Kick 01.wav
320,192,208189,1,0,0:0:0:0:
448,192,208189,1,0,0:0:0:0:
64,192,208533,5,0,0:0:0:70:Kick 01.wav
320,192,208533,1,0,0:0:0:0:
448,192,208533,1,0,0:0:0:0:
192,192,208706,1,0,0:0:0:0:
64,192,208878,1,0,0:0:0:70:Kick 01.wav
320,192,208878,1,0,0:0:0:0:
448,192,208878,1,0,0:0:0:0:
320,192,209223,1,0,0:0:0:0:
192,192,209223,1,0,0:0:0:70:Kick 01.wav
448,192,209223,1,0,0:0:0:0:
192,192,209568,5,0,0:0:0:0:
64,192,209568,1,0,0:0:0:70:Snare 01.wav
448,192,209568,1,0,0:0:0:0:
320,192,209568,1,0,0:0:0:0:
192,192,209913,1,0,0:0:0:0:
64,192,209913,1,0,0:0:0:70:cymbal06.wav
448,192,209913,1,0,0:0:0:70:Kick 01.wav
320,192,209913,1,0,0:0:0:0:
64,192,210085,1,0,0:0:0:0:
448,192,210085,1,0,0:0:0:70:Kick 01.wav
64,192,210258,1,0,0:0:0:0:
448,192,210258,1,0,0:0:0:70:Kick 01.wav
192,192,210430,1,0,0:0:0:0:
320,192,210430,1,0,0:0:0:70:Kick 01.wav
64,192,210602,1,0,0:0:0:70:Kick 01.wav
448,192,210602,1,0,0:0:0:0:
64,192,210775,1,0,0:0:0:70:Kick 01.wav
448,192,210775,1,0,0:0:0:0:
192,192,210947,1,0,0:0:0:70:Kick 01.wav
320,192,210947,1,0,0:0:0:0:
64,192,211120,1,0,0:0:0:0:
448,192,211120,1,0,0:0:0:70:Kick 01.wav
320,192,211292,1,0,0:0:0:0:
448,192,211292,1,0,0:0:0:70:Kick 01.wav
64,192,211464,1,0,0:0:0:0:
192,192,211464,1,0,0:0:0:70:Kick 01.wav
64,192,211637,1,0,0:0:0:0:
192,192,211637,1,0,0:0:0:70:Kick 01.wav
320,192,211809,1,0,0:0:0:70:Kick 01.wav
448,192,211809,1,0,0:0:0:0:
64,192,211982,1,0,0:0:0:0:
192,192,211982,1,0,0:0:0:70:Kick 01.wav
64,192,212154,1,0,0:0:0:0:
192,192,212154,1,0,0:0:0:70:Kick 01.wav
320,192,212326,1,0,0:0:0:70:Kick 01.wav
448,192,212326,1,0,0:0:0:0:
64,192,212499,1,0,0:0:0:70:Kick 01.wav
192,192,212499,1,0,0:0:0:0:
64,192,212671,1,0,0:0:0:0:
192,192,212671,1,0,0:0:0:70:Kick 01.wav
320,192,212844,1,0,0:0:0:0:
448,192,212844,1,0,0:0:0:70:Kick 01.wav
320,192,213016,1,0,0:0:0:0:
448,192,213016,1,0,0:0:0:70:Kick 01.wav
64,192,213189,1,0,0:0:0:70:Kick 01.wav
192,192,213189,1,0,0:0:0:0:
320,192,213361,1,0,0:0:0:0:
448,192,213361,1,0,0:0:0:70:Kick 01.wav
320,192,213533,1,0,0:0:0:0:
448,192,213533,1,0,0:0:0:70:Kick 01.wav
64,192,213706,1,0,0:0:0:70:Kick 01.wav
192,192,213706,1,0,0:0:0:0:
320,192,213878,1,0,0:0:0:0:
448,192,213878,1,0,0:0:0:70:Kick 01.wav
192,192,214051,1,0,0:0:0:70:Kick 01.wav
320,192,214051,1,0,0:0:0:0:
64,192,214223,1,0,0:0:0:0:
448,192,214223,1,0,0:0:0:70:Kick 01.wav
64,192,214395,1,0,0:0:0:70:Kick 01.wav
448,192,214395,1,0,0:0:0:0:
192,192,214568,1,0,0:0:0:70:Kick 01.wav
320,192,214568,1,0,0:0:0:0:
64,192,214740,1,0,0:0:0:0:
448,192,214740,1,0,0:0:0:70:Kick 01.wav
64,192,214913,1,0,0:0:0:70:Kick 01.wav
448,192,214913,1,0,0:0:0:0:
192,192,215085,1,0,0:0:0:0:
320,192,215085,1,0,0:0:0:70:Kick 01.wav
64,192,215258,1,0,0:0:0:70:Kick 01.wav
448,192,215258,1,0,0:0:0:0:
320,192,215430,1,0,0:0:0:70:Kick 01.wav
448,192,215430,1,0,0:0:0:0:
64,192,215516,1,0,0:0:0:0:
192,192,215516,1,0,0:0:0:70:Kick 01.wav
448,192,215602,1,0,0:0:0:0:
320,192,215602,1,0,0:0:0:70:Kick 01.wav
64,192,215689,1,0,0:0:0:0:
192,192,215689,1,0,0:0:0:70:Kick 01.wav
448,192,215775,1,0,0:0:0:0:
320,192,215775,1,0,0:0:0:70:Kick 01.wav
64,192,215861,1,0,0:0:0:0:
192,192,215861,1,0,0:0:0:70:Kick 01.wav
448,192,215947,1,0,0:0:0:0:
320,192,215947,1,0,0:0:0:70:Kick 01.wav
64,192,216033,1,0,0:0:0:0:
192,192,216033,1,0,0:0:0:70:Kick 01.wav
448,192,216120,1,0,0:0:0:0:
320,192,216120,1,0,0:0:0:70:Kick 01.wav
64,192,216206,1,0,0:0:0:0:
192,192,216206,1,0,0:0:0:70:Kick 01.wav
448,192,216292,1,0,0:0:0:0:
320,192,216292,1,0,0:0:0:70:Kick 01.wav
64,192,216378,1,0,0:0:0:0:
192,192,216378,1,0,0:0:0:70:Kick 01.wav
448,192,216464,1,0,0:0:0:0:
320,192,216464,1,0,0:0:0:70:Kick 01.wav
64,192,216551,1,0,0:0:0:0:
192,192,216551,1,0,0:0:0:70:Kick 01.wav
320,192,216637,1,0,0:0:0:70:Kick 01.wav
448,192,216637,1,0,0:0:0:0:
64,192,216723,1,0,0:0:0:0:
192,192,216723,1,0,0:0:0:70:Kick 01.wav
448,192,216809,1,0,0:0:0:0:
320,192,216809,1,0,0:0:0:70:Kick 01.wav
64,192,216895,1,0,0:0:0:0:
192,192,216895,1,0,0:0:0:70:Kick 01.wav
448,192,216982,1,0,0:0:0:0:
320,192,216982,1,0,0:0:0:70:Kick 01.wav
64,192,217068,1,0,0:0:0:0:
192,192,217068,1,0,0:0:0:70:Kick 01.wav
448,192,217154,1,0,0:0:0:0:
320,192,217154,1,0,0:0:0:70:Kick 01.wav
64,192,217240,1,0,0:0:0:0:
192,192,217240,1,0,0:0:0:70:Kick 01.wav
448,192,217326,1,0,0:0:0:0:
320,192,217326,1,0,0:0:0:70:Kick 01.wav
64,192,217413,1,0,0:0:0:0:
192,192,217413,1,0,0:0:0:70:Kick 01.wav
448,192,217499,1,0,0:0:0:70:Kick 01.wav
64,192,217585,1,0,0:0:0:70:Kick 01.wav
448,192,217671,1,0,0:0:0:70:Kick 01.wav
64,192,217758,1,0,0:0:0:70:Kick 01.wav
320,192,217844,1,0,0:0:0:70:Kick 01.wav
192,192,217930,1,0,0:0:0:70:Kick 01.wav
320,192,218016,1,0,0:0:0:70:Kick 01.wav
192,192,218102,1,0,0:0:0:0:
320,192,218189,1,0,0:0:0:70:Kick 01.wav
448,192,218189,1,0,0:0:0:0:
64,192,218189,1,0,0:0:0:0:
192,192,220602,1,0,0:0:0:0:
64,192,220602,1,0,0:0:0:70:Snare 01.wav
320,192,220602,1,0,0:0:0:0:
448,192,220602,1,0,0:0:0:0:
448,192,220947,1,0,0:0:0:70:Kick 01.wav
320,192,220947,1,0,0:0:0:0:
192,192,220947,1,0,0:0:0:0:
64,192,220947,1,0,0:0:0:70:cymbal06.wav
320,192,221120,1,0,0:0:0:0:
448,192,221292,1,0,0:0:0:70:Snare 01.wav
320,192,221292,1,0,0:0:0:0:
64,192,221292,1,0,0:0:0:0:
192,192,221292,1,0,0:0:0:0:
64,192,221464,1,0,0:0:0:0:
192,192,221464,1,0,0:0:0:0:
448,192,221637,1,0,0:0:0:0:
320,192,221637,1,0,0:0:0:0:
320,192,221809,1,0,0:0:0:0:
64,192,221809,1,0,0:0:0:70:Kick 01.wav
192,192,221809,1,0,0:0:0:0:
448,192,221982,1,0,0:0:0:0:
320,192,221982,1,0,0:0:0:0:
192,192,221982,1,0,0:0:0:0:
64,192,221982,1,0,0:0:0:70:Snare 01.wav
448,192,222154,1,0,0:0:0:0:
320,192,222326,1,0,0:0:0:0:
192,192,222326,1,0,0:0:0:70:Kick 01.wav
64,192,222326,1,0,0:0:0:0:
448,192,222499,1,0,0:0:0:0:
64,192,222499,1,0,0:0:0:0:
448,192,222671,1,0,0:0:0:70:Snare 01.wav
320,192,222671,1,0,0:0:0:0:
192,192,222671,1,0,0:0:0:0:
64,192,222671,1,0,0:0:0:0:
320,192,222844,1,0,0:0:0:0:
448,192,223016,1,0,0:0:0:0:
64,192,223016,1,0,0:0:0:0:
448,192,223189,1,0,0:0:0:0:
320,192,223189,1,0,0:0:0:70:Kick 01.wav
192,192,223189,1,0,0:0:0:0:
448,192,223361,1,0,0:0:0:0:
192,192,223361,1,0,0:0:0:0:
320,192,223361,1,0,0:0:0:0:
64,192,223361,1,0,0:0:0:70:Snare 01.wav
64,192,223533,1,0,0:0:0:0:
448,192,223706,1,0,0:0:0:70:Kick 01.wav
320,192,223706,1,0,0:0:0:0:
192,192,223706,1,0,0:0:0:0:
448,192,223878,1,0,0:0:0:0:
448,192,224051,1,0,0:0:0:70:Snare 01.wav
320,192,224051,1,0,0:0:0:0:
192,192,224051,1,0,0:0:0:0:
64,192,224051,1,0,0:0:0:0:
320,192,224223,1,0,0:0:0:0:
64,192,224223,1,0,0:0:0:0:
192,192,224395,1,0,0:0:0:0:
448,192,224395,1,0,0:0:0:0:
448,192,224568,1,0,0:0:0:0:
320,192,224568,1,0,0:0:0:0:
64,192,224568,1,0,0:0:0:70:Kick 01.wav
448,192,224740,1,0,0:0:0:0:
320,192,224740,1,0,0:0:0:0:
192,192,224740,1,0,0:0:0:0:
64,192,224740,1,0,0:0:0:70:Snare 01.wav
192,192,224913,1,0,0:0:0:0:
320,192,225085,1,0,0:0:0:0:
192,192,225085,1,0,0:0:0:70:Kick 01.wav
64,192,225085,1,0,0:0:0:0:
320,192,225258,1,0,0:0:0:0:
448,192,225258,1,0,0:0:0:0:
448,192,225430,1,0,0:0:0:70:Snare 01.wav
320,192,225430,1,0,0:0:0:0:
192,192,225430,1,0,0:0:0:0:
64,192,225430,1,0,0:0:0:0:
192,192,225602,1,0,0:0:0:0:
448,192,225775,1,0,0:0:0:0:
64,192,225775,1,0,0:0:0:0:
448,192,225947,1,0,0:0:0:70:Kick 01.wav
192,192,225947,1,0,0:0:0:0:
64,192,225947,1,0,0:0:0:0:
448,192,226120,1,0,0:0:0:0:
320,192,226120,1,0,0:0:0:0:
192,192,226120,1,0,0:0:0:0:
64,192,226120,1,0,0:0:0:70:Snare 01.wav
320,192,226292,1,0,0:0:0:0:
192,192,226464,1,0,0:0:0:0:
320,192,226464,1,0,0:0:0:70:Kick 01.wav
448,192,226464,1,0,0:0:0:0:
64,192,226637,1,0,0:0:0:0:
448,192,226809,1,0,0:0:0:70:Snare 01.wav
320,192,226809,1,0,0:0:0:0:
192,192,226809,1,0,0:0:0:0:
64,192,226809,1,0,0:0:0:0:
320,192,226982,1,0,0:0:0:0:
192,192,226982,1,0,0:0:0:0:
448,192,227154,1,0,0:0:0:0:
64,192,227154,1,0,0:0:0:0:
320,192,227326,1,0,0:0:0:0:
192,192,227326,1,0,0:0:0:70:Kick 01.wav
64,192,227326,1,0,0:0:0:0:
448,192,227499,1,0,0:0:0:0:
320,192,227499,1,0,0:0:0:0:
192,192,227499,1,0,0:0:0:0:
64,192,227499,1,0,0:0:0:70:Snare 01.wav
448,192,227671,1,0,0:0:0:0:
192,192,227844,1,0,0:0:0:0:
64,192,227844,1,0,0:0:0:70:Kick 01.wav
448,192,227844,1,0,0:0:0:0:
320,192,228016,1,0,0:0:0:0:
64,192,228016,1,0,0:0:0:0:
448,192,228189,1,0,0:0:0:70:Snare 01.wav
320,192,228189,1,0,0:0:0:0:
192,192,228189,1,0,0:0:0:0:
64,192,228189,1,0,0:0:0:0:
192,192,228361,1,0,0:0:0:0:
448,192,228533,1,0,0:0:0:0:
320,192,228533,1,0,0:0:0:0:
64,192,228706,1,0,0:0:0:0:
320,192,228706,1,0,0:0:0:70:Kick 01.wav
192,192,228706,1,0,0:0:0:0:
448,192,228878,1,0,0:0:0:0:
320,192,228878,1,0,0:0:0:0:
192,192,228878,1,0,0:0:0:0:
64,192,228878,1,0,0:0:0:70:Snare 01.wav
448,192,229051,1,0,0:0:0:0:
320,192,229223,1,0,0:0:0:0:
192,192,229223,1,0,0:0:0:70:Kick 01.wav
64,192,229223,1,0,0:0:0:0:
192,192,229395,1,0,0:0:0:0:
448,192,229568,1,0,0:0:0:70:Snare 01.wav
320,192,229568,1,0,0:0:0:0:
192,192,229568,1,0,0:0:0:0:
64,192,229568,1,0,0:0:0:0:
448,192,229740,1,0,0:0:0:0:
320,192,229740,1,0,0:0:0:0:
192,192,229913,1,0,0:0:0:0:
64,192,229913,1,0,0:0:0:0:
320,192,230085,1,0,0:0:0:70:Kick 01.wav
448,192,230085,1,0,0:0:0:0:
64,192,230085,1,0,0:0:0:0:
448,192,230258,1,0,0:0:0:0:
320,192,230258,1,0,0:0:0:0:
192,192,230258,1,0,0:0:0:0:
64,192,230258,1,0,0:0:0:70:Snare 01.wav
192,192,230430,1,0,0:0:0:0:
320,192,230602,1,0,0:0:0:0:
192,192,230602,1,0,0:0:0:0:
448,192,230602,1,0,0:0:0:70:Kick 01.wav
448,192,230775,1,0,0:0:0:0:
320,192,230775,1,0,0:0:0:0:
448,192,230947,1,0,0:0:0:70:Snare 01.wav
320,192,230947,1,0,0:0:0:0:
192,192,230947,1,0,0:0:0:0:
64,192,230947,1,0,0:0:0:0:
64,192,231120,1,0,0:0:0:0:
448,192,231292,1,0,0:0:0:0:
192,192,231292,1,0,0:0:0:0:
320,192,231464,1,0,0:0:0:0:
192,192,231464,1,0,0:0:0:70:Kick 01.wav
448,192,231464,1,0,0:0:0:0:
448,192,231637,1,0,0:0:0:0:
320,192,231637,1,0,0:0:0:0:
192,192,231637,1,0,0:0:0:0:
64,192,231637,1,0,0:0:0:70:Snare 01.wav
64,192,231809,1,0,0:0:0:0:
448,192,231982,1,0,0:0:0:70:Kick 01.wav
320,192,231982,1,0,0:0:0:0:
64,192,231982,1,0,0:0:0:70:cymbal06.wav
192,192,231982,1,0,0:0:0:0:
320,192,232154,1,0,0:0:0:0:
64,192,232326,1,0,0:0:0:0:
192,192,232326,1,0,0:0:0:0:
448,192,232326,1,0,0:0:0:70:Snare 01.wav
320,192,232326,1,0,0:0:0:0:
192,192,232499,1,0,0:0:0:0:
64,192,232499,1,0,0:0:0:0:
448,192,232671,1,0,0:0:0:0:
320,192,232671,1,0,0:0:0:0:
192,192,232844,1,0,0:0:0:70:Kick 01.wav
64,192,232844,1,0,0:0:0:0:
320,192,232844,1,0,0:0:0:0:
192,192,233016,1,0,0:0:0:0:
64,192,233016,1,0,0:0:0:70:Snare 01.wav
448,192,233016,1,0,0:0:0:0:
320,192,233016,1,0,0:0:0:0:
448,192,233189,1,0,0:0:0:0:
64,192,233361,1,0,0:0:0:0:
192,192,233361,1,0,0:0:0:0:
320,192,233361,1,0,0:0:0:70:Kick 01.wav
192,192,233533,1,0,0:0:0:0:
64,192,233533,1,0,0:0:0:0:
192,192,233706,1,0,0:0:0:0:
64,192,233706,1,0,0:0:0:0:
448,192,233706,1,0,0:0:0:70:Snare 01.wav
320,192,233706,1,0,0:0:0:0:
320,192,233878,1,0,0:0:0:0:
64,192,234051,1,0,0:0:0:0:
448,192,234051,1,0,0:0:0:0:
192,192,234223,1,0,0:0:0:0:
320,192,234223,1,0,0:0:0:70:Kick 01.wav
448,192,234223,1,0,0:0:0:0:
320,192,234395,1,0,0:0:0:0:
64,192,234395,1,0,0:0:0:70:Snare 01.wav
448,192,234395,1,0,0:0:0:0:
192,192,234395,1,0,0:0:0:0:
64,192,234568,1,0,0:0:0:0:
192,192,234740,1,0,0:0:0:0:
320,192,234740,1,0,0:0:0:0:
448,192,234740,1,0,0:0:0:70:Kick 01.wav
448,192,234913,1,0,0:0:0:0:
192,192,235085,1,0,0:0:0:0:
64,192,235085,1,0,0:0:0:0:
448,192,235085,1,0,0:0:0:70:Snare 01.wav
320,192,235085,1,0,0:0:0:0:
64,192,235258,1,0,0:0:0:0:
320,192,235258,1,0,0:0:0:0:
192,192,235430,1,0,0:0:0:0:
448,192,235430,1,0,0:0:0:0:
64,192,235602,1,0,0:0:0:0:
320,192,235602,1,0,0:0:0:70:Kick 01.wav
448,192,235602,1,0,0:0:0:0:
192,192,235775,1,0,0:0:0:0:
64,192,235775,1,0,0:0:0:70:Snare 01.wav
448,192,235775,1,0,0:0:0:0:
320,192,235775,1,0,0:0:0:0:
192,192,235947,1,0,0:0:0:0:
64,192,236120,1,0,0:0:0:70:Kick 01.wav
192,192,236120,1,0,0:0:0:0:
320,192,236120,1,0,0:0:0:0:
448,192,236292,1,0,0:0:0:0:
320,192,236292,1,0,0:0:0:0:
192,192,236464,1,0,0:0:0:0:
64,192,236464,1,0,0:0:0:0:
448,192,236464,1,0,0:0:0:70:Snare 01.wav
320,192,236464,1,0,0:0:0:0:
192,192,236637,1,0,0:0:0:0:
64,192,236809,1,0,0:0:0:0:
448,192,236809,1,0,0:0:0:0:
64,192,236982,1,0,0:0:0:0:
192,192,236982,1,0,0:0:0:0:
448,192,236982,1,0,0:0:0:70:Kick 01.wav
192,192,237154,1,0,0:0:0:0:
64,192,237154,1,0,0:0:0:70:Snare 01.wav
448,192,237154,1,0,0:0:0:0:
320,192,237154,1,0,0:0:0:0:
320,192,237326,1,0,0:0:0:0:
448,192,237499,1,0,0:0:0:0:
320,192,237499,1,0,0:0:0:0:
192,192,237499,1,0,0:0:0:70:Kick 01.wav
64,192,237671,1,0,0:0:0:0:
192,192,237844,1,0,0:0:0:0:
64,192,237844,1,0,0:0:0:0:
448,192,237844,1,0,0:0:0:70:Snare 01.wav
320,192,237844,1,0,0:0:0:0:
192,192,238016,1,0,0:0:0:0:
320,192,238016,1,0,0:0:0:0:
448,192,238189,1,0,0:0:0:0:
64,192,238189,1,0,0:0:0:0:
64,192,238361,1,0,0:0:0:0:
192,192,238361,1,0,0:0:0:70:Kick 01.wav
320,192,238361,1,0,0:0:0:0:
192,192,238533,1,0,0:0:0:0:
64,192,238533,1,0,0:0:0:70:Snare 01.wav
448,192,238533,1,0,0:0:0:0:
320,192,238533,1,0,0:0:0:0:
448,192,238706,1,0,0:0:0:0:
448,192,238878,1,0,0:0:0:0:
64,192,238878,1,0,0:0:0:70:Kick 01.wav
192,192,238878,1,0,0:0:0:0:
64,192,239051,1,0,0:0:0:0:
320,192,239051,1,0,0:0:0:0:
192,192,239223,1,0,0:0:0:0:
64,192,239223,1,0,0:0:0:0:
448,192,239223,1,0,0:0:0:70:Snare 01.wav
320,192,239223,1,0,0:0:0:0:
192,192,239395,1,0,0:0:0:0:
320,192,239568,1,0,0:0:0:0:
448,192,239568,1,0,0:0:0:0:
192,192,239740,1,0,0:0:0:70:Kick 01.wav
320,192,239740,1,0,0:0:0:0:
64,192,239740,1,0,0:0:0:0:
192,192,239913,1,0,0:0:0:0:
64,192,239913,1,0,0:0:0:70:Snare 01.wav
448,192,239913,1,0,0:0:0:0:
320,192,239913,1,0,0:0:0:0:
448,192,240085,1,0,0:0:0:0:
64,192,240258,1,0,0:0:0:0:
320,192,240258,1,0,0:0:0:70:Kick 01.wav
192,192,240430,1,0,0:0:0:0:
192,192,240602,1,0,0:0:0:0:
64,192,240602,1,0,0:0:0:0:
320,192,240602,1,0,0:0:0:70:Snare 01.wav
320,192,240775,1,0,0:0:0:0:
448,192,240775,1,0,0:0:0:0:
192,192,240947,1,0,0:0:0:0:
448,192,241120,1,0,0:0:0:70:Kick 01.wav
320,192,241120,1,0,0:0:0:0:
192,192,241292,1,0,0:0:0:70:Snare 01.wav
448,192,241292,1,0,0:0:0:0:
320,192,241292,1,0,0:0:0:0:
192,192,241809,1,0,0:0:0:0:
64,192,241809,1,0,0:0:0:0:
448,192,242326,1,0,0:0:0:0:
320,192,242326,1,0,0:0:0:0:
192,192,242499,1,0,0:0:0:70:Kick 01.wav
64,192,242499,1,0,0:0:0:0:
320,192,242585,1,0,0:0:0:70:Kick 01.wav
448,192,242671,1,0,0:0:0:70:Kick 01.wav
64,192,242671,1,0,0:0:0:0:
192,192,242758,1,0,0:0:0:70:Kick 01.wav
448,192,242844,1,0,0:0:0:70:Kick 01.wav
320,192,242844,1,0,0:0:0:0:
192,192,242930,1,0,0:0:0:70:Kick 01.wav
448,192,243016,1,0,0:0:0:70:Kick 01.wav
64,192,243016,1,0,0:0:0:70:cymbal06.wav
320,192,243016,1,0,0:0:0:0:
192,192,243361,1,0,0:0:0:0:
64,192,243361,1,0,0:0:0:0:
448,192,243361,1,0,0:0:0:70:Snare 01.wav
320,192,243361,1,0,0:0:0:0:
64,192,243533,1,0,0:0:0:0:
192,192,243533,1,0,0:0:0:0:
320,192,243706,1,0,0:0:0:0:
64,192,243878,1,0,0:0:0:0:
320,192,243878,1,0,0:0:0:70:Kick 01.wav
448,192,243878,1,0,0:0:0:0:
320,192,244051,1,0,0:0:0:0:
64,192,244051,1,0,0:0:0:70:Snare 01.wav
448,192,244051,1,0,0:0:0:0:
192,192,244051,1,0,0:0:0:0:
192,192,244223,1,0,0:0:0:0:
320,192,244223,1,0,0:0:0:0:
64,192,244395,1,0,0:0:0:0:
192,192,244395,1,0,0:0:0:70:Kick 01.wav
448,192,244395,1,0,0:0:0:0:
64,192,244568,1,0,0:0:0:0:
320,192,244568,1,0,0:0:0:0:
192,192,244740,1,0,0:0:0:0:
64,192,244740,1,0,0:0:0:0:
448,192,244740,1,0,0:0:0:70:Snare 01.wav
320,192,244740,1,0,0:0:0:0:
192,192,244913,1,0,0:0:0:0:
64,192,244913,1,0,0:0:0:0:
320,192,245085,1,0,0:0:0:0:
448,192,245085,1,0,0:0:0:0:
64,192,245258,1,0,0:0:0:0:
192,192,245258,1,0,0:0:0:0:
448,192,245258,1,0,0:0:0:70:Kick 01.wav
192,192,245430,1,0,0:0:0:0:
64,192,245430,1,0,0:0:0:70:Snare 01.wav
448,192,245430,1,0,0:0:0:0:
320,192,245430,1,0,0:0:0:0:
320,192,245602,1,0,0:0:0:0:
320,192,245775,1,0,0:0:0:0:
448,192,245775,1,0,0:0:0:0:
64,192,245775,1,0,0:0:0:70:Kick 01.wav
192,192,245947,1,0,0:0:0:0:
64,192,245947,1,0,0:0:0:0:
64,192,246120,1,0,0:0:0:0:
448,192,246120,1,0,0:0:0:70:Snare 01.wav
320,192,246120,1,0,0:0:0:0:
192,192,246120,1,0,0:0:0:0:
448,192,246292,1,0,0:0:0:0:
64,192,246292,1,0,0:0:0:0:
320,192,246464,1,0,0:0:0:0:
192,192,246464,1,0,0:0:0:0:
448,192,246637,1,0,0:0:0:70:Kick 01.wav
192,192,246637,1,0,0:0:0:0:
320,192,246637,1,0,0:0:0:0:
192,192,246809,1,0,0:0:0:0:
64,192,246809,1,0,0:0:0:70:Snare 01.wav
448,192,246809,1,0,0:0:0:0:
320,192,246809,1,0,0:0:0:0:
64,192,246982,1,0,0:0:0:0:
192,192,247154,1,0,0:0:0:0:
320,192,247154,1,0,0:0:0:70:Kick 01.wav
448,192,247154,1,0,0:0:0:0:
192,192,247326,1,0,0:0:0:0:
448,192,247326,1,0,0:0:0:0:
192,192,247499,1,0,0:0:0:0:
64,192,247499,1,0,0:0:0:0:
448,192,247499,1,0,0:0:0:70:Snare 01.wav
320,192,247499,1,0,0:0:0:0:
320,192,247671,1,0,0:0:0:0:
64,192,247844,1,0,0:0:0:0:
192,192,247844,1,0,0:0:0:0:
64,192,248016,1,0,0:0:0:70:Kick 01.wav
320,192,248016,1,0,0:0:0:0:
448,192,248016,1,0,0:0:0:0:
192,192,248189,1,0,0:0:0:0:
64,192,248189,1,0,0:0:0:70:Snare 01.wav
448,192,248189,1,0,0:0:0:0:
320,192,248189,1,0,0:0:0:0:
192,192,248361,1,0,0:0:0:0:
64,192,248533,1,0,0:0:0:0:
192,192,248533,1,0,0:0:0:0:
320,192,248533,1,0,0:0:0:70:Kick 01.wav
448,192,248706,1,0,0:0:0:0:
192,192,248878,1,0,0:0:0:0:
64,192,248878,1,0,0:0:0:0:
448,192,248878,1,0,0:0:0:70:Snare 01.wav
320,192,248878,1,0,0:0:0:0:
192,192,249051,1,0,0:0:0:0:
320,192,249051,1,0,0:0:0:0:
64,192,249223,1,0,0:0:0:0:
192,192,249395,1,0,0:0:0:0:
320,192,249395,1,0,0:0:0:0:
448,192,249395,1,0,0:0:0:70:Kick 01.wav
192,192,249568,1,0,0:0:0:0:
64,192,249568,1,0,0:0:0:70:Snare 01.wav
448,192,249568,1,0,0:0:0:0:
320,192,249568,1,0,0:0:0:0:
192,192,249740,1,0,0:0:0:0:
64,192,249740,1,0,0:0:0:0:
448,192,249913,1,0,0:0:0:0:
320,192,249913,1,0,0:0:0:70:Kick 01.wav
64,192,249913,1,0,0:0:0:0:
192,192,250085,1,0,0:0:0:0:
320,192,250085,1,0,0:0:0:0:
320,192,250258,1,0,0:0:0:0:
192,192,250258,1,0,0:0:0:0:
448,192,250258,1,0,0:0:0:70:Snare 01.wav
64,192,250258,1,0,0:0:0:0:
64,192,250430,1,0,0:0:0:0:
448,192,250430,1,0,0:0:0:0:
448,192,250602,1,0,0:0:0:0:
320,192,250602,1,0,0:0:0:0:
64,192,250775,1,0,0:0:0:70:Kick 01.wav
192,192,250775,1,0,0:0:0:0:
320,192,250775,1,0,0:0:0:0:
64,192,250947,1,0,0:0:0:70:Snare 01.wav
192,192,250947,1,0,0:0:0:0:
448,192,250947,1,0,0:0:0:0:
320,192,250947,1,0,0:0:0:0:
448,192,251120,1,0,0:0:0:0:
64,192,251292,1,0,0:0:0:0:
192,192,251292,1,0,0:0:0:0:
320,192,251292,1,0,0:0:0:70:Kick 01.wav
192,192,251464,1,0,0:0:0:0:
64,192,251464,1,0,0:0:0:0:
192,192,251637,1,0,0:0:0:0:
64,192,251637,1,0,0:0:0:0:
448,192,251637,1,0,0:0:0:70:Snare 01.wav
320,192,251637,1,0,0:0:0:0:
320,192,251809,1,0,0:0:0:0:
448,192,251809,1,0,0:0:0:0:
192,192,251982,1,0,0:0:0:0:
64,192,251982,1,0,0:0:0:0:
64,192,252154,1,0,0:0:0:0:
320,192,252154,1,0,0:0:0:0:
448,192,252154,1,0,0:0:0:70:Kick 01.wav
192,192,252326,1,0,0:0:0:0:
64,192,252326,1,0,0:0:0:70:Snare 01.wav
448,192,252326,1,0,0:0:0:0:
320,192,252326,1,0,0:0:0:0:
192,192,252499,1,0,0:0:0:0:
64,192,252671,1,0,0:0:0:0:
320,192,252671,1,0,0:0:0:70:Kick 01.wav
448,192,252671,1,0,0:0:0:0:
64,192,252844,1,0,0:0:0:0:
192,192,252844,1,0,0:0:0:0:
192,192,253016,1,0,0:0:0:0:
64,192,253016,1,0,0:0:0:0:
448,192,253016,1,0,0:0:0:70:Snare 01.wav
320,192,253016,1,0,0:0:0:0:
448,192,253189,1,0,0:0:0:0:
192,192,253361,1,0,0:0:0:0:
320,192,253361,1,0,0:0:0:0:
64,192,253533,1,0,0:0:0:0:
192,192,253533,1,0,0:0:0:70:Kick 01.wav
448,192,253533,1,0,0:0:0:0:
192,192,253706,1,0,0:0:0:0:
64,192,253706,1,0,0:0:0:70:Snare 01.wav
448,192,253706,1,0,0:0:0:0:
320,192,253706,1,0,0:0:0:0:
320,192,253878,1,0,0:0:0:70:Kick 01.wav
448,192,253878,1,0,0:0:0:0:
192,192,253964,1,0,0:0:0:70:Kick 01.wav
64,192,254051,1,0,0:0:0:70:cymbal06.wav
320,192,254051,1,0,0:0:0:0:
448,192,254051,1,0,0:0:0:70:Kick 01.wav
192,192,254395,1,0,0:0:0:0:
64,192,254395,1,0,0:0:0:0:
448,192,254395,1,0,0:0:0:70:Snare 01.wav
320,192,254395,1,0,0:0:0:0:
64,192,254568,1,0,0:0:0:0:
192,192,254568,1,0,0:0:0:0:
320,192,254740,1,0,0:0:0:0:
64,192,254913,1,0,0:0:0:0:
320,192,254913,1,0,0:0:0:0:
448,192,254913,1,0,0:0:0:70:Kick 01.wav
320,192,255085,1,0,0:0:0:0:
64,192,255085,1,0,0:0:0:70:Snare 01.wav
448,192,255085,1,0,0:0:0:0:
192,192,255085,1,0,0:0:0:0:
192,192,255258,1,0,0:0:0:0:
320,192,255258,1,0,0:0:0:0:
64,192,255430,1,0,0:0:0:0:
192,192,255430,1,0,0:0:0:70:Kick 01.wav
448,192,255430,1,0,0:0:0:0:
64,192,255602,1,0,0:0:0:0:
320,192,255602,1,0,0:0:0:0:
192,192,255775,1,0,0:0:0:0:
64,192,255775,1,0,0:0:0:0:
448,192,255775,1,0,0:0:0:70:Snare 01.wav
320,192,255775,1,0,0:0:0:0:
192,192,255947,1,0,0:0:0:0:
64,192,255947,1,0,0:0:0:0:
320,192,256120,1,0,0:0:0:0:
448,192,256120,1,0,0:0:0:0:
64,192,256292,1,0,0:0:0:70:Kick 01.wav
192,192,256292,1,0,0:0:0:0:
448,192,256292,1,0,0:0:0:0:
192,192,256464,1,0,0:0:0:0:
64,192,256464,1,0,0:0:0:70:Snare 01.wav
448,192,256464,1,0,0:0:0:0:
320,192,256464,1,0,0:0:0:0:
320,192,256637,1,0,0:0:0:0:
320,192,256809,1,0,0:0:0:0:
448,192,256809,1,0,0:0:0:70:Kick 01.wav
64,192,256809,1,0,0:0:0:0:
192,192,256982,1,0,0:0:0:0:
64,192,256982,1,0,0:0:0:0:
64,192,257154,1,0,0:0:0:0:
448,192,257154,1,0,0:0:0:70:Snare 01.wav
320,192,257154,1,0,0:0:0:0:
192,192,257154,1,0,0:0:0:0:
448,192,257326,1,0,0:0:0:0:
64,192,257326,1,0,0:0:0:0:
320,192,257499,1,0,0:0:0:0:
192,192,257499,1,0,0:0:0:0:
448,192,257671,1,0,0:0:0:0:
192,192,257671,1,0,0:0:0:0:
320,192,257671,1,0,0:0:0:70:Kick 01.wav
192,192,257844,1,0,0:0:0:0:
64,192,257844,1,0,0:0:0:70:Snare 01.wav
448,192,257844,1,0,0:0:0:0:
320,192,257844,1,0,0:0:0:0:
64,192,258016,1,0,0:0:0:0:
192,192,258189,1,0,0:0:0:0:
320,192,258189,1,0,0:0:0:70:Kick 01.wav
448,192,258189,1,0,0:0:0:0:
192,192,258361,1,0,0:0:0:0:
448,192,258361,1,0,0:0:0:0:
192,192,258533,1,0,0:0:0:0:
64,192,258533,1,0,0:0:0:0:
448,192,258533,1,0,0:0:0:70:Snare 01.wav
320,192,258533,1,0,0:0:0:0:
320,192,258706,1,0,0:0:0:0:
64,192,258878,1,0,0:0:0:0:
192,192,258878,1,0,0:0:0:0:
64,192,259051,1,0,0:0:0:0:
320,192,259051,1,0,0:0:0:0:
448,192,259051,1,0,0:0:0:70:Kick 01.wav
192,192,259223,1,0,0:0:0:0:
64,192,259223,1,0,0:0:0:70:Snare 01.wav
448,192,259223,1,0,0:0:0:0:
320,192,259223,1,0,0:0:0:0:
192,192,259395,1,0,0:0:0:0:
320,192,259568,1,0,0:0:0:70:Kick 01.wav
448,192,259568,1,0,0:0:0:0:
64,192,259654,1,0,0:0:0:0:
192,192,259740,1,0,0:0:0:0:
320,192,259826,1,0,0:0:0:0:
448,192,259913,1,0,0:0:0:0:
192,192,259913,1,0,0:0:0:0:
64,192,259913,1,0,0:0:0:70:Snare 01.wav
320,192,259999,1,0,0:0:0:0:
448,192,260085,1,0,0:0:0:0:
64,192,260085,1,0,0:0:0:0:
192,192,260171,1,0,0:0:0:0:
320,192,260258,1,0,0:0:0:0:
448,192,260344,1,0,0:0:0:0:
64,192,260430,1,0,0:0:0:70:Kick 01.wav
192,192,260430,1,0,0:0:0:0:
320,192,260516,1,0,0:0:0:0:
448,192,260602,1,0,0:0:0:70:Snare 01.wav
192,192,260602,1,0,0:0:0:0:
64,192,260602,1,0,0:0:0:0:
320,192,260689,1,0,0:0:0:0:
192,192,260775,1,0,0:0:0:0:
64,192,260775,1,0,0:0:0:0:
448,192,260861,1,0,0:0:0:0:
64,192,260947,1,0,0:0:0:70:Kick 01.wav
320,192,260947,1,0,0:0:0:0:
192,192,261033,1,0,0:0:0:0:
320,192,261120,1,0,0:0:0:0:
448,192,261120,1,0,0:0:0:0:
192,192,261206,1,0,0:0:0:0:
448,192,261292,1,0,0:0:0:0:
64,192,261292,1,0,0:0:0:70:Snare 01.wav
320,192,261292,1,0,0:0:0:0:
192,192,261378,1,0,0:0:0:0:
64,192,261464,1,0,0:0:0:0:
448,192,261464,1,0,0:0:0:0:
320,192,261551,1,0,0:0:0:0:
192,192,261637,1,0,0:0:0:0:
64,192,261637,1,0,0:0:0:0:
448,192,261723,1,0,0:0:0:0:
320,192,261809,1,0,0:0:0:0:
192,192,261809,1,0,0:0:0:70:Kick 01.wav
64,192,261895,1,0,0:0:0:0:
448,192,261982,1,0,0:0:0:70:Snare 01.wav
320,192,261982,1,0,0:0:0:0:
192,192,261982,1,0,0:0:0:0:
64,192,262068,1,0,0:0:0:0:
448,192,262154,1,0,0:0:0:0:
320,192,262240,1,0,0:0:0:0:
192,192,262326,1,0,0:0:0:70:Kick 01.wav
64,192,262326,1,0,0:0:0:0:
320,192,262413,1,0,0:0:0:0:
64,192,262499,1,0,0:0:0:0:
448,192,262499,1,0,0:0:0:0:
192,192,262585,1,0,0:0:0:0:
448,192,262671,1,0,0:0:0:0:
320,192,262671,1,0,0:0:0:70:Kick 01.wav
64,192,262758,1,0,0:0:0:0:
320,192,262844,1,0,0:0:0:0:
192,192,262844,1,0,0:0:0:0:
448,192,262930,1,0,0:0:0:0:
192,192,263016,1,0,0:0:0:70:Kick 01.wav
64,192,263016,1,0,0:0:0:0:
320,192,263102,1,0,0:0:0:0:
448,192,263189,1,0,0:0:0:0:
64,192,263189,1,0,0:0:0:0:
192,192,263275,1,0,0:0:0:0:
448,192,263361,1,0,0:0:0:0:
320,192,263361,1,0,0:0:0:70:Kick 01.wav
64,192,263447,1,0,0:0:0:0:
192,192,263533,1,0,0:0:0:0:
320,192,263620,1,0,0:0:0:0:
448,192,263706,1,0,0:0:0:0:
64,192,263706,1,0,0:0:0:70:Kick 01.wav
64,192,263878,1,0,0:0:0:0:
192,192,263878,1,0,0:0:0:70:Kick 01.wav
320,192,264051,1,0,0:0:0:70:Kick 01.wav
448,192,264051,1,0,0:0:0:0:
64,192,264223,1,0,0:0:0:0:
448,192,264223,1,0,0:0:0:70:Kick 01.wav
64,192,264395,1,0,0:0:0:0:
192,192,264395,1,0,0:0:0:70:Kick 01.wav
320,192,264482,1,0,0:0:0:70:Kick 01.wav
448,192,264482,1,0,0:0:0:0:
64,192,264568,1,0,0:0:0:0:
192,192,264568,1,0,0:0:0:70:Kick 01.wav
448,192,264654,1,0,0:0:0:0:
320,192,264654,1,0,0:0:0:70:Kick 01.wav
64,192,264740,1,0,0:0:0:0:
192,192,264740,1,0,0:0:0:70:Kick 01.wav
448,192,264826,1,0,0:0:0:0:
320,192,264826,1,0,0:0:0:70:Kick 01.wav
64,192,264913,1,0,0:0:0:0:
192,192,264913,1,0,0:0:0:70:Kick 01.wav
320,192,264999,1,0,0:0:0:70:Kick 01.wav
192,192,265085,1,0,0:0:0:0:
64,192,265085,1,0,0:0:0:70:cymbal06.wav
448,192,265085,1,0,0:0:0:70:Kick 01.wav
64,192,265430,1,0,0:0:0:0:
192,192,265430,1,0,0:0:0:0:
320,192,265430,1,0,0:0:0:0:
448,192,265430,1,0,0:0:0:70:Snare 01.wav
448,192,265602,1,0,0:0:0:0:
192,192,265775,1,0,0:0:0:0:
64,192,265947,1,0,0:0:0:0:
192,192,265947,1,0,0:0:0:70:Kick 01.wav
448,192,265947,1,0,0:0:0:0:
64,192,266120,1,0,0:0:0:70:Snare 01.wav
320,192,266120,1,0,0:0:0:0:
192,192,266120,1,0,0:0:0:0:
448,192,266120,1,0,0:0:0:0:
320,192,266292,1,0,0:0:0:0:
192,192,266292,1,0,0:0:0:0:
64,192,266464,1,0,0:0:0:0:
320,192,266464,1,0,0:0:0:0:
448,192,266464,1,0,0:0:0:70:Kick 01.wav
448,192,266637,1,0,0:0:0:0:
64,192,266809,1,0,0:0:0:0:
192,192,266809,1,0,0:0:0:0:
320,192,266809,1,0,0:0:0:0:
448,192,266809,1,0,0:0:0:70:Snare 01.wav
320,192,266982,1,0,0:0:0:0:
64,192,266982,1,0,0:0:0:0:
192,192,267154,1,0,0:0:0:0:
64,192,267326,1,0,0:0:0:0:
320,192,267326,1,0,0:0:0:70:Kick 01.wav
448,192,267326,1,0,0:0:0:0:
64,192,267499,1,0,0:0:0:70:Snare 01.wav
192,192,267499,1,0,0:0:0:0:
320,192,267499,1,0,0:0:0:0:
448,192,267499,1,0,0:0:0:0:
192,192,267671,1,0,0:0:0:0:
448,192,267844,1,0,0:0:0:0:
64,192,267844,1,0,0:0:0:70:Kick 01.wav
192,192,267844,1,0,0:0:0:0:
320,192,268016,1,0,0:0:0:0:
192,192,268189,1,0,0:0:0:0:
320,192,268189,1,0,0:0:0:0:
448,192,268189,1,0,0:0:0:70:Snare 01.wav
64,192,268189,1,0,0:0:0:0:
448,192,268361,1,0,0:0:0:0:
192,192,268533,1,0,0:0:0:0:
192,192,268706,1,0,0:0:0:0:
320,192,268706,1,0,0:0:0:70:Kick 01.wav
64,192,268706,1,0,0:0:0:0:
64,192,268878,1,0,0:0:0:70:Snare 01.wav
192,192,268878,1,0,0:0:0:0:
320,192,268878,1,0,0:0:0:0:
448,192,268878,1,0,0:0:0:0:
448,192,269051,1,0,0:0:0:0:
64,192,269051,1,0,0:0:0:0:
64,192,269223,1,0,0:0:0:70:Kick 01.wav
192,192,269223,1,0,0:0:0:0:
320,192,269223,1,0,0:0:0:0:
320,192,269395,1,0,0:0:0:0:
64,192,269568,1,0,0:0:0:0:
192,192,269568,1,0,0:0:0:0:
320,192,269568,1,0,0:0:0:0:
448,192,269568,1,0,0:0:0:70:Snare 01.wav
192,192,269740,1,0,0:0:0:0:
64,192,269740,1,0,0:0:0:0:
448,192,269913,1,0,0:0:0:0:
64,192,270085,1,0,0:0:0:0:
192,192,270085,1,0,0:0:0:0:
448,192,270085,1,0,0:0:0:70:Kick 01.wav
64,192,270258,1,0,0:0:0:70:Snare 01.wav
192,192,270258,1,0,0:0:0:0:
320,192,270258,1,0,0:0:0:0:
448,192,270258,1,0,0:0:0:0:
320,192,270430,1,0,0:0:0:0:
192,192,270602,1,0,0:0:0:70:Kick 01.wav
320,192,270602,1,0,0:0:0:0:
448,192,270602,1,0,0:0:0:0:
64,192,270775,1,0,0:0:0:0:
64,192,270947,1,0,0:0:0:0:
192,192,270947,1,0,0:0:0:0:
320,192,270947,1,0,0:0:0:0:
448,192,270947,1,0,0:0:0:70:Snare 01.wav
192,192,271120,1,0,0:0:0:0:
448,192,271292,1,0,0:0:0:0:
64,192,271464,1,0,0:0:0:0:
192,192,271464,1,0,0:0:0:0:
320,192,271464,1,0,0:0:0:70:Kick 01.wav
64,192,271637,1,0,0:0:0:70:Snare 01.wav
192,192,271637,1,0,0:0:0:0:
320,192,271637,1,0,0:0:0:0:
448,192,271637,1,0,0:0:0:0:
320,192,271809,1,0,0:0:0:0:
64,192,271809,1,0,0:0:0:0:
448,192,271982,1,0,0:0:0:0:
192,192,271982,1,0,0:0:0:0:
64,192,271982,1,0,0:0:0:70:Kick 01.wav
320,192,272154,1,0,0:0:0:0:
64,192,272326,1,0,0:0:0:0:
448,192,272326,1,0,0:0:0:70:Snare 01.wav
192,192,272326,1,0,0:0:0:0:
320,192,272326,1,0,0:0:0:0:
448,192,272499,1,0,0:0:0:0:
192,192,272499,1,0,0:0:0:0:
64,192,272671,1,0,0:0:0:0:
192,192,272844,1,0,0:0:0:0:
320,192,272844,1,0,0:0:0:0:
448,192,272844,1,0,0:0:0:70:Kick 01.wav
64,192,273016,1,0,0:0:0:70:Snare 01.wav
192,192,273016,1,0,0:0:0:0:
448,192,273016,1,0,0:0:0:0:
320,192,273016,1,0,0:0:0:0:
64,192,273189,1,0,0:0:0:0:
192,192,273361,1,0,0:0:0:70:Kick 01.wav
320,192,273361,1,0,0:0:0:0:
448,192,273361,1,0,0:0:0:0:
320,192,273533,1,0,0:0:0:0:
64,192,273706,1,0,0:0:0:0:
192,192,273706,1,0,0:0:0:0:
320,192,273706,1,0,0:0:0:0:
448,192,273706,1,0,0:0:0:70:Snare 01.wav
192,192,273878,1,0,0:0:0:0:
64,192,274051,1,0,0:0:0:0:
64,192,274223,1,0,0:0:0:0:
192,192,274223,1,0,0:0:0:0:
448,192,274223,1,0,0:0:0:70:Kick 01.wav
64,192,274395,1,0,0:0:0:70:Snare 01.wav
192,192,274395,1,0,0:0:0:0:
320,192,274395,1,0,0:0:0:0:
448,192,274395,1,0,0:0:0:0:
320,192,274568,1,0,0:0:0:0:
192,192,274568,1,0,0:0:0:0:
64,192,274740,1,0,0:0:0:0:
192,192,274740,1,0,0:0:0:70:Kick 01.wav
448,192,274740,1,0,0:0:0:0:
320,192,274913,1,0,0:0:0:0:
64,192,275085,1,0,0:0:0:0:
192,192,275085,1,0,0:0:0:0:
320,192,275085,1,0,0:0:0:0:
448,192,275085,1,0,0:0:0:70:Snare 01.wav
64,192,275258,1,0,0:0:0:0:
448,192,275258,1,0,0:0:0:0:
192,192,275430,1,0,0:0:0:0:
64,192,275602,1,0,0:0:0:0:
320,192,275602,1,0,0:0:0:70:Kick 01.wav
448,192,275602,1,0,0:0:0:0:
64,192,275775,1,0,0:0:0:70:Snare 01.wav
192,192,275775,1,0,0:0:0:0:
320,192,275775,1,0,0:0:0:0:
448,192,275775,1,0,0:0:0:0:
64,192,276120,1,0,0:0:0:70:cymbal06.wav
192,192,276120,1,0,0:0:0:0:
448,192,276120,1,0,0:0:0:70:Kick 01.wav
320,192,276120,1,0,0:0:0:0:
192,192,276292,1,0,0:0:0:0:
64,192,276464,1,0,0:0:0:0:
192,192,276464,1,0,0:0:0:0:
320,192,276464,1,0,0:0:0:0:
448,192,276464,1,0,0:0:0:70:Snare 01.wav
448,192,276637,1,0,0:0:0:0:
192,192,276809,1,0,0:0:0:0:
64,192,276982,1,0,0:0:0:70:Kick 01.wav
192,192,276982,1,0,0:0:0:0:
448,192,276982,1,0,0:0:0:0:
64,192,277154,1,0,0:0:0:70:Snare 01.wav
320,192,277154,1,0,0:0:0:0:
192,192,277154,1,0,0:0:0:0:
448,192,277154,1,0,0:0:0:0:
320,192,277326,1,0,0:0:0:0:
192,192,277326,1,0,0:0:0:0:
64,192,277499,1,0,0:0:0:0:
320,192,277499,1,0,0:0:0:0:
448,192,277499,1,0,0:0:0:70:Kick 01.wav
448,192,277671,1,0,0:0:0:0:
64,192,277844,1,0,0:0:0:0:
192,192,277844,1,0,0:0:0:0:
320,192,277844,1,0,0:0:0:0:
448,192,277844,1,0,0:0:0:70:Snare 01.wav
320,192,278016,1,0,0:0:0:0:
64,192,278016,1,0,0:0:0:0:
192,192,278189,1,0,0:0:0:0:
64,192,278361,1,0,0:0:0:0:
320,192,278361,1,0,0:0:0:70:Kick 01.wav
448,192,278361,1,0,0:0:0:0:
64,192,278533,1,0,0:0:0:70:Snare 01.wav
192,192,278533,1,0,0:0:0:0:
320,192,278533,1,0,0:0:0:0:
448,192,278533,1,0,0:0:0:0:
192,192,278706,1,0,0:0:0:0:
448,192,278878,1,0,0:0:0:70:Kick 01.wav
64,192,278878,1,0,0:0:0:0:
192,192,278878,1,0,0:0:0:0:
320,192,279051,1,0,0:0:0:0:
192,192,279223,1,0,0:0:0:0:
320,192,279223,1,0,0:0:0:0:
448,192,279223,1,0,0:0:0:70:Snare 01.wav
64,192,279223,1,0,0:0:0:0:
448,192,279395,1,0,0:0:0:0:
192,192,279568,1,0,0:0:0:0:
192,192,279740,1,0,0:0:0:70:Kick 01.wav
320,192,279740,1,0,0:0:0:0:
64,192,279740,1,0,0:0:0:0:
64,192,279913,1,0,0:0:0:70:Snare 01.wav
192,192,279913,1,0,0:0:0:0:
320,192,279913,1,0,0:0:0:0:
448,192,279913,1,0,0:0:0:0:
448,192,280085,1,0,0:0:0:0:
64,192,280085,1,0,0:0:0:0:
64,192,280258,1,0,0:0:0:70:Kick 01.wav
192,192,280258,1,0,0:0:0:0:
320,192,280258,1,0,0:0:0:0:
320,192,280430,1,0,0:0:0:0:
64,192,280602,1,0,0:0:0:0:
192,192,280602,1,0,0:0:0:0:
320,192,280602,1,0,0:0:0:0:
448,192,280602,1,0,0:0:0:70:Snare 01.wav
192,192,280775,1,0,0:0:0:0:
64,192,280775,1,0,0:0:0:0:
448,192,280947,1,0,0:0:0:0:
64,192,281120,1,0,0:0:0:0:
192,192,281120,1,0,0:0:0:0:
448,192,281120,1,0,0:0:0:70:Kick 01.wav
64,192,281292,1,0,0:0:0:70:Snare 01.wav
192,192,281292,1,0,0:0:0:0:
320,192,281292,1,0,0:0:0:0:
448,192,281292,1,0,0:0:0:0:
320,192,281464,1,0,0:0:0:0:
192,192,281637,1,0,0:0:0:70:Kick 01.wav
320,192,281637,1,0,0:0:0:0:
448,192,281637,1,0,0:0:0:0:
64,192,281809,1,0,0:0:0:0:
64,192,281982,1,0,0:0:0:0:
192,192,281982,1,0,0:0:0:0:
320,192,281982,1,0,0:0:0:0:
448,192,281982,1,0,0:0:0:70:Snare 01.wav
192,192,282154,1,0,0:0:0:0:
448,192,282326,1,0,0:0:0:0:
64,192,282499,1,0,0:0:0:0:
192,192,282499,1,0,0:0:0:0:
320,192,282499,1,0,0:0:0:70:Kick 01.wav
64,192,282671,1,0,0:0:0:70:Snare 01.wav
192,192,282671,1,0,0:0:0:0:
320,192,282671,1,0,0:0:0:0:
448,192,282671,1,0,0:0:0:0:
320,192,282844,1,0,0:0:0:0:
448,192,282844,1,0,0:0:0:0:
448,192,283016,1,0,0:0:0:0:
192,192,283016,1,0,0:0:0:0:
64,192,283016,1,0,0:0:0:70:Kick 01.wav
320,192,283189,1,0,0:0:0:0:
64,192,283361,1,0,0:0:0:0:
448,192,283361,1,0,0:0:0:70:Snare 01.wav
192,192,283361,1,0,0:0:0:0:
320,192,283361,1,0,0:0:0:0:
448,192,283533,1,0,0:0:0:0:
192,192,283533,1,0,0:0:0:0:
64,192,283706,1,0,0:0:0:0:
192,192,283878,1,0,0:0:0:0:
320,192,283878,1,0,0:0:0:0:
448,192,283878,1,0,0:0:0:70:Kick 01.wav
64,192,284051,1,0,0:0:0:70:Snare 01.wav
192,192,284051,1,0,0:0:0:0:
448,192,284051,1,0,0:0:0:0:
320,192,284051,1,0,0:0:0:0:
64,192,284223,1,0,0:0:0:0:
192,192,284395,1,0,0:0:0:0:
320,192,284395,1,0,0:0:0:70:Kick 01.wav
448,192,284395,1,0,0:0:0:0:
448,192,284568,1,0,0:0:0:0:
320,192,284740,1,0,0:0:0:0:
192,192,284740,1,0,0:0:0:70:Kick 01.wav
64,192,284740,1,0,0:0:0:0:
64,192,284913,1,0,0:0:0:0:
448,192,285085,1,0,0:0:0:0:
320,192,285085,1,0,0:0:0:70:Kick 01.wav
192,192,285085,1,0,0:0:0:0:
448,192,285258,1,0,0:0:0:0:
192,192,285430,1,0,0:0:0:70:Kick 01.wav
64,192,285430,1,0,0:0:0:0:
320,192,285430,1,0,0:0:0:0:
64,192,285602,1,0,0:0:0:0:
448,192,285775,1,0,0:0:0:0:
320,192,285775,1,0,0:0:0:70:Kick 01.wav
192,192,285775,1,0,0:0:0:0:
448,192,285947,1,0,0:0:0:0:
320,192,285947,1,0,0:0:0:70:Kick 01.wav
192,192,285947,1,0,0:0:0:0:
448,192,286120,1,0,0:0:0:0:
320,192,286120,1,0,0:0:0:70:Kick 01.wav
192,192,286120,1,0,0:0:0:0:
448,192,286292,1,0,0:0:0:0:
320,192,286292,1,0,0:0:0:70:Kick 01.wav
192,192,286292,1,0,0:0:0:0:
64,192,286464,1,0,0:0:0:0:
192,192,286464,1,0,0:0:0:70:Kick 01.wav
320,192,286464,1,0,0:0:0:0:
64,192,286637,1,0,0:0:0:0:
192,192,286637,1,0,0:0:0:70:Kick 01.wav
320,192,286637,1,0,0:0:0:0:
64,192,286809,1,0,0:0:0:0:
192,192,286809,1,0,0:0:0:70:Kick 01.wav
320,192,286809,1,0,0:0:0:0:
64,192,286982,1,0,0:0:0:0:
192,192,286982,1,0,0:0:0:70:Kick 01.wav
320,192,286982,1,0,0:0:0:0:
64,192,287154,128,0,295602:0:0:0:0:
448,192,287154,128,0,289913:0:0:0:0:
320,192,287154,1,0,0:0:0:70:Kick 01.wav
192,192,292671,128,0,298189:0:0:0:0:
320,192,295085,128,0,298189:0:0:0:0:
64,192,298189,1,0,0:0:0:0:
448,192,298189,1,0,0:0:0:0:
