osu file format v14

[General]
AudioFilename: audio.mp3
AudioLeadIn: 0
PreviewTime: 23392
Countdown: 0
SampleSet: Soft
StackLeniency: 0.7
Mode: 0
LetterboxInBreaks: 0
WidescreenStoryboard: 1

[Editor]
Bookmarks: 23478,45547,67616,89685,111754
DistanceSpacing: 1.5
BeatDivisor: 4
GridSize: 32
TimelineZoom: 1.8

[Metadata]
Title:Stardust (feat. Miyoki) (Cut Ver.)
TitleUnicode:Stardust (feat. Miyoki) (Cut Ver.)
Artist:T & Sugah x NCT
ArtistUnicode:T & Sugah x NCT
Creator:Sylas
Version:Asphyxia's Hard
Source:
Tags:asphyxia and altai electronic english dnb drum and bass short version ncs nocopyrightsounds
BeatmapID:3109887
BeatmapSetID:1518291

[Difficulty]
HPDrainRate:4
CircleSize:3.7
OverallDifficulty:7
ApproachRate:8
SliderMultiplier:1.3
SliderTickRate:1

[Events]
//Background and Video events
0,0,"anime_stars_blue_hair_constellations_blue_eyes-1918653.jpg",0,0
//Break Periods
//Storyboard Layer 0 (Background)
//Storyboard Layer 1 (Fail)
//Storyboard Layer 2 (Pass)
//Storyboard Layer 3 (Foreground)
//Storyboard Layer 4 (Overlay)
//Storyboard Sound Samples

[TimingPoints]
1410,344.827586206897,4,2,1,50,1,0
1410,-125,4,2,1,50,0,0
1496,-125,4,2,2,50,0,0
6927,-125,4,2,2,50,0,0
8306,-125,4,2,2,50,0,0
9685,-125,4,2,2,50,0,0
11065,-125,4,2,2,50,0,0
17961,-125,4,2,2,50,0,0
19340,-125,4,2,2,50,0,0
20719,-125,4,2,2,50,0,0
22099,-125,4,2,1,50,0,0
23478,-111.111111111111,4,2,1,70,0,0
45547,-100,4,2,1,80,0,0
56582,-100,4,2,1,80,0,0
67272,-125,4,2,1,80,0,0
67530,-125,4,2,1,5,0,0
67616,-90.9090909090909,4,2,1,85,0,1
70289,-90.9090909090909,4,2,1,5,0,1
70375,-90.9090909090909,4,2,1,85,0,1
73047,-90.9090909090909,4,2,1,5,0,1
73134,-90.9090909090909,4,2,1,85,0,1
75806,-90.9090909090909,4,2,1,5,0,1
75892,-90.9090909090909,4,2,1,85,0,1
77961,-90.9090909090909,4,2,1,85,0,0
78651,-90.9090909090909,4,2,1,85,0,1
86582,-90.9090909090909,4,2,1,85,0,1
88478,-90.9090909090909,4,2,1,85,0,1
89685,-90.9090909090909,4,2,1,85,0,0
112013,-100,4,2,1,5,0,0

[Colours]
Combo1 : 237,210,118
Combo2 : 64,149,181
Combo3 : 94,88,160

[HitObjects]
462,113,1410,6,0,L|439:283,1,156,6|0,1:2|0:0,0:0:0:0:
364,281,2099,2,0,L|391:74,2,208,2|8|2,0:0|0:0|0:0,0:0:0:0:
149,340,4168,6,0,P|114:353|22:292,1,156,8|0,0:0|0:0,0:0:0:0:
26,215,4858,2,0,P|122:194|186:269,2,208,2|8|2,0:0|0:0|0:0,0:0:0:0:
26,215,6582,2,0,L|20:159,1,52,2|0,0:0|0:0,0:0:0:0:
24,85,6927,6,0,L|148:108,1,104,10|0,0:0|0:0,0:0:0:0:
200,79,7444,2,0,B|291:64|257:115|353:102,1,156
487,24,8306,5,8,0:0:0:0:
487,24,8651,1,0,0:0:0:0:
422,166,8996,1,0,0:0:0:0:
503,299,9341,2,0,L|497:350,1,52,2|0,0:0|0:0,0:0:0:0:
420,335,9685,6,0,L|317:353,1,104,10|0,0:0|0:0,0:0:0:0:
240,336,10203,2,0,P|185:301|85:313,1,156,2|0,0:0|0:0,0:0:0:0:
25,167,11065,5,8,0:0:0:0:
25,167,11410,1,0,0:0:0:0:
176,200,11754,1,2,0:0:0:0:
107,162,11927,2,0,P|98:127|128:67,1,104,2|0,0:0|0:0,0:0:0:0:
199,41,12444,6,0,P|250:66|366:67,1,156,10|0,1:2|0:0,0:0:0:0:
357,149,13134,2,0,P|250:148|152:106,2,208,2|8|2,0:0|0:0|0:0,0:0:0:0:
91,312,15203,6,0,P|119:296|249:306,1,156,8|0,0:0|0:0,0:0:0:0:
308,266,15892,2,0,P|382:334|483:331,2,208,2|8|2,0:0|0:0|0:0,0:0:0:0:
308,266,17616,2,0,L|313:214,1,52,2|0,0:0|0:0,0:0:0:0:
373,164,17961,6,0,P|356:130|363:50,1,104,8|0,0:0|0:0,0:0:0:0:
432,43,18478,2,0,P|346:53|288:-2,1,156,2|0,0:0|0:0,0:0:0:0:
148,67,19341,5,8,0:0:0:0:
148,67,19685,1,0,0:0:0:0:
2,10,20030,1,0,0:0:0:0:
86,140,20375,2,0,L|81:192,1,52,2|0,0:0|0:0,0:0:0:0:
105,266,20720,6,0,P|142:249|214:255,1,104,10|0,0:0|0:0,0:0:0:0:
253,311,21237,2,0,P|289:349|324:277,1,156,2|0,0:0|0:0,0:0:0:0:
328,281,22099,5,0,1:2:0:0:
280,225,22272,1,0,1:2:0:0:
280,225,22444,2,0,L|285:173,1,52,0|0,1:2|1:2,0:0:0:0:
359,149,22789,2,0,L|364:97,1,52,8|0,1:2|1:2,0:0:0:0:
389,22,23134,1,8,1:2:0:0:
389,22,23306,1,8,1:2:0:0:
304,44,23478,6,0,B|243:27|181:58|228:94|166:125|90:101,1,233.999992858887,6|0,1:2|0:0,0:0:0:0:
94,103,24513,2,0,B|155:86|217:117|170:153|232:184|308:160,1,233.999992858887,2|0,0:0|0:0,0:0:0:0:
410,282,25547,2,0,B|374:257|380:203|380:203|348:247|307:247,1,175.499994644165,2|0,0:0|0:0,0:0:0:0:
248,310,26237,6,0,P|259:271|211:196,1,116.999996429443,2|0,0:0|0:0,0:0:0:0:
140,220,26754,2,0,P|129:259|177:334,1,116.999996429443,2|0,0:0|0:0,0:0:0:0:
248,310,27272,2,0,P|288:316|326:325,1,58.4999982147217,2|0,0:0|1:2,0:0:0:0:
331,331,27530,1,0,1:2:0:0:
331,331,27616,6,0,P|380:323|466:318,2,116.999996429443,0|2|0,1:2|1:2|1:2,0:0:0:0:
330,227,28478,2,0,P|387:236|446:239,1,116.999996429443,2|0,1:2|1:2,0:0:0:0:
493,164,28996,6,0,P|483:133|522:50,1,116.999996429443,6|0,1:2|0:0,0:0:0:0:
445,0,29513,2,0,P|395:28|338:19,1,116.999996429443,2|0,0:0|0:0,0:0:0:0:
286,90,30030,2,0,P|233:46|130:60,1,175.499994644165,2|0,0:0|0:0,0:0:0:0:
46,79,30720,6,0,P|57:119|66:198,1,116.999996429443,2|0,0:0|0:0,0:0:0:0:
153,195,31237,2,0,P|142:235|133:314,1,116.999996429443,2|0,0:0|0:0,0:0:0:0:
212,347,31754,6,0,P|239:320|338:328,1,116.999996429443,6|0,1:2|0:0,0:0:0:0:
397,345,32272,2,0,P|424:372|523:364,1,116.999996429443,2|0,0:0|0:0,0:0:0:0:
469,295,32789,2,0,P|472:240|484:62,1,233.999992858887,2|2,0:0|0:0,0:0:0:0:
484,61,33823,5,0,1:2:0:0:
401,92,33996,1,0,1:2:0:0:
367,11,34168,1,8,0:0:0:0:
311,79,34341,1,0,1:2:0:0:
237,32,34513,5,6,1:2:0:0:
285,45,36237,6,0,P|247:52|147:58,1,116.999996429443,2|0,0:0|0:0,0:0:0:0:
133,138,36754,2,0,P|190:147|249:151,1,116.999996429443,2|0,0:0|0:0,0:0:0:0:
337,157,37272,6,0,P|322:193|394:225,1,116.999996429443,6|0,1:2|0:0,0:0:0:0:
455,195,37789,2,0,P|470:159|398:127,1,116.999996429443,2|0,0:0|0:0,0:0:0:0:
337,157,38306,2,0,P|329:220|321:291,1,116.999996429443,2|0,0:0|0:0,0:0:0:0:
286,357,38823,5,0,1:2:0:0:
286,357,38910,1,0,1:2:0:0:
286,357,38996,2,0,P|257:351|228:347,1,58.4999982147217,2|0,1:2|0:0,0:0:0:0:
183,266,39341,1,0,1:2:0:0:
183,266,39513,2,0,P|211:262|240:256,2,58.4999982147217,2|0|0,1:2|1:2|1:2,0:0:0:0:
124,200,40030,6,0,P|135:164|86:87,1,116.999996429443,6|0,1:2|0:0,0:0:0:0:
15,118,40547,2,0,P|6:174|37:222,1,116.999996429443,2|0,0:0|0:0,0:0:0:0:
124,200,41065,2,0,P|180:210|260:233,1,116.999996429443,2|0,0:0|0:0,0:0:0:0:
380,59,41754,6,0,P|371:115|403:163,1,116.999996429443,2|0,0:0|0:0,0:0:0:0:
487,145,42272,2,0,P|496:89|465:41,1,116.999996429443,2|0,0:0|0:0,0:0:0:0:
380,59,42789,6,0,P|322:48|265:33,1,116.999996429443,6|0,1:2|0:0,0:0:0:0:
178,29,43306,2,0,P|197:84|212:140,1,116.999996429443,2|0,0:0|0:0,0:0:0:0:
251,219,43823,2,0,P|288:174|330:133,1,116.999996429443,2|0,0:0|0:0,0:0:0:0:
329,133,44513,6,0,P|333:161|338:190,1,58.4999982147217,2|0,0:0|0:0,0:0:0:0:
422,215,44858,2,0,P|437:308|362:351,1,175.499994644165,2|0,0:0|0:0,0:0:0:0:
288,359,45547,6,0,P|253:344|218:346,1,65,6|0,1:2|0:0,0:0:0:0:
139,356,45892,1,0,1:2:0:0:
139,356,46065,2,0,P|140:323|153:294,1,65,2|2,0:0|1:2,0:0:0:0:
152,294,46582,2,0,P|155:230|120:168,1,130,2|0,1:2|1:2,0:0:0:0:
40,138,47099,1,2,0:0:0:0:
106,74,47272,2,0,P|169:70|231:105,2,130,2|2|2,1:2|1:2|1:2,0:0:0:0:
106,74,48306,6,0,P|138:72|167:59,1,65,2|0,1:2|0:0,0:0:0:0:
260,42,48651,1,0,1:2:0:0:
260,42,48823,2,0,P|258:74|245:103,1,65,2|2,0:0|1:2,0:0:0:0:
244,103,49341,2,0,P|274:159|271:223,1,130,2|0,1:2|1:2,0:0:0:0:
210,291,49858,1,2,0:0:0:0:
121,272,50030,2,0,P|90:215|93:151,2,130,2|2|2,1:2|1:2|1:2,0:0:0:0:
121,272,51065,6,0,P|118:304|105:333,2,65,2|0|0,1:2|0:0|1:2,0:0:0:0:
207,301,51582,2,0,P|193:330|190:362,2,65,2|2|0,0:0|1:2|0:0,0:0:0:0:
274,362,52099,2,0,P|324:360|409:333,1,130,2|0,1:2|1:2,0:0:0:0:
493,357,52616,1,2,0:0:0:0:
493,357,52789,2,0,P|473:295|468:230,2,130,2|2|2,1:2|1:2|1:2,0:0:0:0:
394,137,53823,6,0,P|390:169|377:198,2,65,2|0|0,1:2|0:0|1:2,0:0:0:0:
310,112,54341,2,0,P|296:141|293:173,2,65,2|2|0,0:0|1:2|0:0,0:0:0:0:
366,40,54858,2,0,P|304:60|239:64,1,130,2|0,1:2|1:2,0:0:0:0:
155,29,55375,1,2,0:0:0:0:
129,116,55547,2,0,P|132:148|145:177,1,65,2|0,1:2|0:0,0:0:0:0:
221,228,55892,2,0,P|246:268|205:319,1,97.5,2|0,1:2|0:0,0:0:0:0:
183,326,56237,1,8,1:2:0:0:
183,326,56582,6,0,P|215:329|244:342,1,65,14|0,1:2|1:2,0:0:0:0:
334,316,56927,1,0,1:2:0:0:
334,316,57099,2,0,P|366:313|395:300,1,65,2|0,1:2|1:2,0:0:0:0:
474,346,57444,1,0,1:2:0:0:
474,346,57616,2,0,L|483:280,1,65,2|0,1:2|1:2,0:0:0:0:
418,153,57961,6,0,L|426:217,1,65,2|0,1:2|1:2,0:0:0:0:
470,82,58306,1,0,1:2:0:0:
470,82,58478,2,0,P|440:68|408:65,1,65,2|0,1:2|1:2,0:0:0:0:
323,49,58823,1,0,1:2:0:0:
323,49,58995,2,0,P|293:63|261:66,1,65,2|0,1:2|1:2,0:0:0:0:
132,106,59341,6,0,P|164:109|193:123,1,65,2|0,1:2|1:2,0:0:0:0:
222,214,59685,1,0,1:2:0:0:
222,214,59858,2,0,P|203:240|176:258,1,65,2|0,1:2|1:2,0:0:0:0:
93,235,60203,1,0,1:2:0:0:
93,235,60376,2,0,P|79:205|77:173,1,65,2|0,1:2|1:2,0:0:0:0:
36,30,60720,6,0,L|22:93,1,65,2|0,1:2|1:2,0:0:0:0:
133,11,61065,1,0,1:2:0:0:
133,11,61237,2,0,L|146:74,1,65,2|0,1:2|1:2,0:0:0:0:
254,66,61582,1,0,1:2:0:0:
254,66,61754,2,0,L|240:129,1,65,2|0,1:2|1:2,0:0:0:0:
298,200,62099,6,0,P|351:209|429:174,1,130,2|0,1:2|1:2,0:0:0:0:
454,97,62616,1,2,1:2:0:0:
454,97,62703,1,0,1:2:0:0:
454,97,62789,2,0,L|468:34,1,65,0|0,1:2|1:2,0:0:0:0:
377,44,63134,2,0,P|344:41|315:27,1,65,2|0,1:2|1:2,0:0:0:0:
243,83,63478,5,2,1:2:0:0:
196,8,63651,1,2,1:2:0:0:
196,8,63737,1,0,1:2:0:0:
196,8,63823,1,2,1:2:0:0:
130,71,63996,1,2,1:2:0:0:
178,147,64168,2,0,L|131:157,3,32.5,2|0|2|0,1:2|1:2|1:2|1:2,0:0:0:0:
116,183,64513,2,0,L|69:193,3,32.5,2|2|2|2,1:2|1:2|1:2|1:2,0:0:0:0:
43,203,64858,5,0,1:2:0:0:
101,164,67272,6,0,L|88:250,1,78,8|0,0:0|0:0,0:0:0:0:
80,290,67616,6,0,P|126:250|219:263,1,143.000004364014,6|8,1:2|0:0,0:0:0:0:
287,209,68134,2,0,P|243:263|250:333,1,143.000004364014,2|0,0:0|1:2,0:0:0:0:
337,363,68651,2,0,L|406:347,1,71.5000021820069,10|0,0:0|0:0,0:0:0:0:
498,332,68996,1,0,1:2:0:0:
437,261,69168,1,2,0:0:0:0:
504,196,69341,2,0,P|502:158|485:126,1,71.5000021820069,10|0,0:0|0:0,0:0:0:0:
421,30,69685,2,0,P|419:65|404:97,1,71.5000021820069,2|0,0:0|1:2,0:0:0:0:
281,186,70030,2,0,P|287:128|310:75,1,107.25000327301,10|0,0:0|0:0,0:0:0:0:
333,44,70375,6,0,P|271:80|181:56,1,143.000004364014,2|8,1:2|0:0,0:0:0:0:
132,9,70892,2,0,L|104:183,1,143.000004364014,2|0,0:0|1:2,0:0:0:0:
33,205,71410,2,0,P|17:173|16:137,1,71.5000021820069,10|0,0:0|0:0,0:0:0:0:
119,239,71754,1,0,1:2:0:0:
48,299,71927,1,2,0:0:0:0:
132,337,72099,2,0,P|164:353|200:354,1,71.5000021820069,10|0,0:0|0:0,0:0:0:0:
345,278,72444,2,0,P|309:279|277:295,1,71.5000021820069,2|0,0:0|1:2,0:0:0:0:
336,367,72789,2,0,P|388:378|463:372,1,107.25000327301,10|0,0:0|0:0,0:0:0:0:
487,366,73134,6,0,P|451:309|469:217,1,143.000004364014,2|8,1:2|0:0,0:0:0:0:
500,153,73651,2,0,P|507:83|470:23,1,143.000004364014,2|0,0:0|1:2,0:0:0:0:
387,65,74168,2,0,L|318:49,1,71.5000021820069,10|0,0:0|0:0,0:0:0:0:
319,146,74513,1,0,1:2:0:0:
231,175,74685,1,2,0:0:0:0:
186,92,74858,2,0,L|202:23,1,71.5000021820069,10|0,0:0|0:0,0:0:0:0:
43,52,75203,2,0,P|78:50|110:35,1,71.5000021820069,2|0,0:0|1:2,0:0:0:0:
121,162,75547,2,0,P|136:212|140:291,1,107.25000327301,10|0,0:0|0:0,0:0:0:0:
122,309,75892,6,0,P|36:317|29:247,1,143.000004364014,2|8,1:2|0:0,0:0:0:0:
156,214,76410,2,0,P|207:231|307:240,1,143.000004364014,2|0,0:0|1:2,0:0:0:0:
387,256,76927,2,0,P|385:221|370:189,1,71.5000021820069,10|0,0:0|0:0,0:0:0:0:
288,141,77272,1,0,1:2:0:0:
437,101,77444,1,2,0:0:0:0:
437,101,77616,2,0,L|368:85,1,71.5000021820069,10|0,0:0|0:0,0:0:0:0:
324,2,77961,2,0,L|255:18,1,71.5000021820069,2|0,0:0|1:2,0:0:0:0:
195,178,78306,2,0,L|126:162,1,71.5000021820069,10|2,0:0|0:0,0:0:0:0:
80,147,78565,1,0,1:2:0:0:
80,147,78651,6,0,L|102:315,1,143.000004364014,6|8,1:2|0:0,0:0:0:0:
45,365,79168,2,0,P|7:353|12:254,1,143.000004364014,2|0,0:0|1:2,0:0:0:0:
176,261,79685,2,0,L|245:277,1,71.5000021820069,10|0,0:0|0:0,0:0:0:0:
285,367,80030,1,0,1:2:0:0:
285,367,80203,1,2,0:0:0:0:
341,293,80375,2,0,P|339:257|324:225,1,71.5000021820069,10|0,0:0|0:0,0:0:0:0:
249,170,80720,1,2,0:0:0:0:
329,123,80892,1,0,1:2:0:0:
203,90,81065,2,0,L|219:21,1,71.5000021820069,10|0,0:0|0:0,0:0:0:0:
265,23,81323,1,0,1:2:0:0:
265,23,81410,6,0,P|310:21|413:-2,1,143.000004364014,2|8,1:2|0:0,0:0:0:0:
426,118,81927,2,0,P|381:120|278:143,1,143.000004364014,2|0,0:0|1:2,0:0:0:0:
227,212,82444,2,0,P|259:226|294:228,1,71.5000021820069,10|0,0:0|0:0,0:0:0:0:
369,287,82789,1,0,1:2:0:0:
382,196,82961,1,2,0:0:0:0:
457,250,83134,2,0,L|473:319,1,71.5000021820069,10|0,0:0|0:0,0:0:0:0:
381,372,83478,2,0,P|345:370|313:355,1,71.5000021820069,2|0,0:0|1:2,0:0:0:0:
137,323,83823,2,0,P|169:308|204:306,1,71.5000021820069,10|2,0:0|0:0,0:0:0:0:
243,326,84082,1,0,1:2:0:0:
243,326,84168,6,0,P|175:336|99:283,1,143.000004364014,2|8,1:2|0:0,0:0:0:0:
25,334,84685,2,0,L|54:165,1,143.000004364014,2|0,0:0|1:2,0:0:0:0:
130,146,85203,2,0,L|118:76,1,71.5000021820069,10|0,0:0|0:0,0:0:0:0:
189,17,85547,1,0,1:2:0:0:
270,62,85720,1,2,0:0:0:0:
347,11,85892,2,0,P|382:12|414:27,1,71.5000021820069,10|0,0:0|0:0,0:0:0:0:
346,164,86237,2,0,P|360:131|362:96,1,71.5000021820069,2|0,0:0|1:2,0:0:0:0:
361,254,86582,2,0,P|325:251|292:238,1,71.5000021820069,10|0,0:0|0:0,0:0:0:0:
261,208,86841,1,0,1:2:0:0:
261,208,86927,6,0,P|259:243|244:275,2,71.5000021820069,2|0|8,1:2|0:0|0:0,0:0:0:0:
137,244,87444,2,0,P|138:208|153:176,2,71.5000021820069,2|0|0,0:0|0:0|1:2,0:0:0:0:
158,334,87961,2,0,P|115:357|6:353,1,143.000004364014,10|0,0:0|0:0,0:0:0:0:
137,244,88478,2,0,P|207:240|272:268,1,143.000004364014,2|0,0:0|0:0,0:0:0:0:
344,221,88996,1,2,0:0:0:0:
405,295,89168,1,0,1:2:0:0:
405,295,89254,1,0,1:2:0:0:
405,295,89341,2,0,L|397:330,3,35.7500010910034,0|0|0|0,1:2|1:2|1:2|1:2,0:0:0:0:
431,355,89685,6,0,P|482:348|483:252,1,143.000004364014,6|8,1:2|0:0,0:0:0:0:
446,190,90203,2,0,L|458:120,1,71.5000021820069,2|0,0:0|0:0,0:0:0:0:
369,133,90547,1,0,1:2:0:0:
477,34,90720,2,0,P|441:36|409:51,1,71.5000021820069,10|0,0:0|0:0,0:0:0:0:
369,133,91065,1,0,1:2:0:0:
314,57,91237,1,2,0:0:0:0:
243,117,91410,2,0,L|231:187,1,71.5000021820069,10|0,0:0|0:0,0:0:0:0:
215,278,91754,2,0,P|251:276|283:261,1,71.5000021820069,2|0,0:0|1:2,0:0:0:0:
151,212,92099,2,0,P|115:214|83:229,1,71.5000021820069,10|0,0:0|0:0,0:0:0:0:
19,296,92444,6,0,P|47:231|43:160,1,143.000004364014,2|8,1:2|0:0,0:0:0:0:
6,74,92961,2,0,L|76:62,1,71.5000021820069,2|0,0:0|0:0,0:0:0:0:
145,124,93306,1,0,1:2:0:0:
216,24,93478,2,0,L|286:36,1,71.5000021820069,10|0,0:0|0:0,0:0:0:0:
376,61,93823,1,0,1:2:0:0:
308,125,93996,1,2,0:0:0:0:
364,198,94168,2,0,L|294:210,1,71.5000021820069,10|0,0:0|0:0,0:0:0:0:
201,224,94513,1,2,0:0:0:0:
259,295,94685,1,0,1:2:0:0:
174,335,94858,2,0,P|138:333|106:318,1,71.5000021820069,10|2,0:0|0:0,0:0:0:0:
259,295,95203,6,0,P|329:297|392:330,1,143.000004364014,2|8,1:2|0:0,0:0:0:0:
462,269,95720,2,0,L|450:199,1,71.5000021820069,2|0,0:0|0:0,0:0:0:0:
429,107,96065,1,0,1:2:0:0:
364,173,96237,2,0,P|328:171|296:156,1,71.5000021820069,10|0,0:0|0:0,0:0:0:0:
282,63,96582,2,0,P|212:65|149:98,1,143.000004364014,0|10,1:2|0:0,0:0:0:0:
123,188,97099,1,0,0:0:0:0:
45,136,97272,2,0,L|57:66,1,71.5000021820069,2|0,0:0|1:2,0:0:0:0:
123,188,97616,2,0,L|111:258,1,71.5000021820069,10|0,0:0|0:0,0:0:0:0:
92,349,97961,5,2,1:2:0:0:
181,324,98134,2,0,L|251:312,2,71.5000021820069,0|8|2,0:0|0:0|0:0,0:0:0:0:
291,228,98651,1,0,0:0:0:0:
291,228,98823,2,0,L|221:216,2,71.5000021820069,0|10|0,1:2|0:0|0:0,0:0:0:0:
179,128,99341,1,0,1:2:0:0:
179,128,99513,2,0,L|249:116,2,71.5000021820069,2|10|0,0:0|0:0|0:0,0:0:0:0:
295,37,100030,1,2,0:0:0:0:
295,37,100202,2,0,L|225:25,1,71.5000021820069,0|10,1:2|0:0,0:0:0:0:
132,41,100547,1,0,1:2:0:0:
132,41,100634,1,0,1:2:0:0:
132,41,100720,6,0,P|81:48|80:144,1,143.000004364014,6|8,1:2|0:0,0:0:0:0:
53,220,101237,2,0,P|89:218|121:203,1,71.5000021820069,2|0,0:0|0:0,0:0:0:0:
180,131,101582,1,0,1:2:0:0:
220,214,101754,2,0,P|234:246|236:281,1,71.5000021820069,10|0,0:0|0:0,0:0:0:0:
167,343,102099,1,0,1:2:0:0:
254,376,102272,1,2,0:0:0:0:
323,314,102444,2,0,P|355:299|390:297,1,71.5000021820069,10|0,0:0|0:0,0:0:0:0:
512,376,102789,2,0,P|483:355|463:326,1,71.5000021820069,2|0,0:0|1:2,0:0:0:0:
472,184,103134,2,0,P|468:219|453:250,1,71.5000021820069,10|0,0:0|0:0,0:0:0:0:
378,195,103478,6,0,P|386:124|425:65,1,143.000004364014,2|8,1:2|0:0,0:0:0:0:
339,28,103996,2,0,L|269:16,1,71.5000021820069,2|0,0:0|0:0,0:0:0:0:
176,1,104341,1,0,1:2:0:0:
150,105,104513,2,0,L|220:93,1,71.5000021820069,10|0,0:0|0:0,0:0:0:0:
286,159,104858,1,0,1:2:0:0:
224,229,105031,1,2,0:0:0:0:
313,254,105203,2,0,L|301:324,1,71.5000021820069,10|0,0:0|0:0,0:0:0:0:
209,311,105547,1,2,0:0:0:0:
140,374,105720,1,0,1:2:0:0:
74,308,105892,2,0,L|86:238,1,71.5000021820069,10|2,0:0|0:0,0:0:0:0:
24,167,106237,6,0,P|83:128|153:120,1,143.000004364014,2|8,1:2|0:0,0:0:0:0:
238,80,106754,1,2,0:0:0:0:
497,129,107099,1,0,1:2:0:0:
499,41,107272,2,0,L|493:5,2,35.7500010910034,10|0|0,0:0|0:0|0:0,0:0:0:0:
422,94,107616,2,0,P|357:74|354:7,1,143.000004364014,0|10,1:2|0:0,0:0:0:0:
497,128,108134,2,0,L|485:198,1,71.5000021820069,0|2,0:0|0:0,0:0:0:0:
394,218,108478,1,0,1:2:0:0:
454,288,108651,2,0,L|459:323,2,35.7500010910034,10|0|0,0:0|0:0|0:0,0:0:0:0:
363,311,108996,6,0,P|308:310|219:270,1,143.000004364014,6|0,1:2|1:2,0:0:0:0:
258,183,109513,1,2,0:0:0:0:
258,183,109599,1,0,0:0:0:0:
258,183,109685,2,0,P|313:184|402:224,1,143.000004364014,0|2,1:2|1:2,0:0:0:0:
446,140,110203,1,0,0:0:0:0:
446,140,110375,1,0,1:2:0:0:
478,53,110547,1,2,1:2:0:0:
391,18,110720,2,0,P|355:19|322:33,1,71.5000021820069,2|0,1:2|1:2,0:0:0:0:
232,10,111065,2,0,L|227:45,3,35.7500010910034,2|0|0|0,1:2|1:2|1:2|1:2,0:0:0:0:
254,83,111410,2,0,L|249:118,3,35.7500010910034,0|0|0|0,1:2|1:2|1:2|1:2,0:0:0:0:
239,163,111754,5,6,1:2:0:0:
256,192,111841,12,0,117272,0:0:0:0:
