osu file format v14

[General]
AudioFilename: audio.mp3
AudioLeadIn: 0
PreviewTime: 63736
Countdown: 0
SampleSet: Soft
StackLeniency: 0.7
Mode: 0
LetterboxInBreaks: 0
WidescreenStoryboard: 0

[Editor]
Bookmarks: 44409,54754,198892,209237
DistanceSpacing: 1
BeatDivisor: 4
GridSize: 4
TimelineZoom: 2.1

[Metadata]
Title:Stardust (feat. Miyoki)
TitleUnicode:Stardust (feat. Miyoki)
Artist:T & Sugah x NCT
ArtistUnicode:T & Sugah x NCT
Creator:[Kamiya]
Version:Smoke lingers after fire
Source:
Tags:English REMIX dnb drum&bass marathon
BeatmapID:1130904
BeatmapSetID:533827

[Difficulty]
HPDrainRate:6
CircleSize:4
OverallDifficulty:9
ApproachRate:9.3
SliderMultiplier:1.74
SliderTickRate:1

[Events]
//Background and Video events
0,0,"BG.jpg",0,0
//Break Periods
//Storyboard Layer 0 (Background)
//Storyboard Layer 1 (Fail)
//Storyboard Layer 2 (Pass)
//Storyboard Layer 3 (Foreground)
//Storyboard Layer 4 (Overlay)
//Storyboard Sound Samples

[TimingPoints]
272,344.827586206897,4,2,5,50,1,0
272,-200,4,2,5,50,0,0
20961,-200,4,2,5,50,0,0
21651,-200,4,2,3,50,0,0
21996,-200,4,2,4,50,0,0
22340,-200,4,2,0,50,0,0
26478,-200,4,2,3,50,0,0
28892,-200,4,2,0,50,0,0
30616,-200,4,2,3,50,0,0
32340,-200,4,2,0,50,0,0
32685,-200,4,2,3,50,0,0
34754,-200,4,2,0,50,0,0
37858,-200,4,2,3,50,0,0
40272,-200,4,2,0,50,0,0
41651,-200,4,2,3,50,0,0
42340,-200,4,2,0,50,0,0
44409,-100,4,2,1,50,0,0
55099,-100,4,2,10,50,0,0
55444,-100,4,2,1,60,0,0
63720,-200,4,2,0,70,0,0
66134,-100,4,2,0,70,0,0
66478,-100,4,2,1,80,0,1
77513,-100,4,2,1,80,0,1
87168,-200,4,2,0,80,0,1
88030,-100,4,2,3,80,0,1
88203,-100,4,2,2,80,0,1
88547,-100,4,2,1,80,0,1
107858,-100,4,2,1,80,0,1
109237,-100,4,2,1,80,0,1
110272,-100,4,2,1,80,0,1
110616,-200,4,2,0,80,0,0
113289,-200,4,2,2,80,0,0
113375,-100,4,2,1,80,0,1
129927,-100,4,2,1,80,0,0
132513,-100,4,2,1,80,0,1
151996,-100,4,2,0,50,0,0
153375,-100,4,2,3,50,0,0
154754,-200,4,2,0,50,0,0
198892,-100,4,2,1,60,0,0
209582,-100,4,2,10,60,0,0
209927,-100,4,2,1,70,0,0
218203,-200,4,2,1,50,0,0
220616,-100,4,2,1,50,0,0
220961,-100,4,2,1,80,0,1
242685,-100,4,2,1,80,0,1
243375,-100,4,2,1,80,0,1
265099,-100,4,2,1,50,0,0
285789,-100,4,2,1,50,0,0
287168,-200,4,2,1,30,0,0
292685,-200,4,2,1,30,0,0

[Colours]
Combo1 : 128,255,255
Combo2 : 255,140,198
Combo3 : 156,140,204
Combo4 : 32,143,255
Combo5 : 255,168,81
Combo6 : 255,255,128

[HitObjects]
96,68,272,70,0,B|136:128|108:224|108:224|184:160|208:84|208:84|240:208|344:208,1,522,10|0,0:0|0:0,0:0:0:0:
388,72,2685,1,0,0:0:0:0:
512,144,3030,6,0,B|472:124|436:140|436:140|400:164|336:140|336:140|388:244|284:280|284:280|388:244|436:312,1,522,2|0,0:0|0:0,0:0:0:0:
432,306,5444,1,0,0:0:0:0:
376,208,5789,86,0,P|344:128|376:48,1,174,2|0,0:0|0:0,0:0:0:0:
268,92,6823,1,0,0:0:0:0:
288,204,7168,1,0,0:0:0:0:
176,188,7513,1,0,0:0:0:0:
200,76,7858,1,0,0:0:0:0:
88,88,8203,1,0,0:0:0:0:
144,188,8547,70,0,P|172:268|136:352,1,174,2|0,0:0|0:0,0:0:0:0:
272,284,9582,1,0,0:0:0:0:
232,176,9927,1,0,0:0:0:0:
156,260,10272,1,0,0:0:0:0:
408,336,10616,22,0,L|396:272,1,58
480,244,11306,54,0,B|420:160|328:220|328:220|364:136|312:68|312:68|272:148|196:128|196:128|168:176,1,522,2|0,0:0|0:0,0:0:0:0:
184,296,13720,1,0,0:0:0:0:
68,236,14065,6,0,B|-24:156|28:88|28:88|80:172|176:164|176:164|168:88|136:76|136:76|100:64|104:12,1,522,2|0,0:0|0:0,0:0:0:0:
232,24,16478,69,0,0:0:0:0:
280,132,16823,2,0,P|328:200|412:220,1,174,2|0,0:0|0:0,0:0:0:0:
404,104,17858,1,0,0:0:0:0:
336,200,18203,1,0,0:0:0:0:
468,200,18547,1,0,0:0:0:0:
424,312,18892,1,0,0:0:0:0:
304,344,19237,1,0,0:0:0:0:
260,232,19582,6,0,P|220:156|124:140,1,174,2|0,0:0|0:0,0:0:0:0:
228,56,20616,1,0,0:0:0:0:
392,44,20961,5,8,0:0:0:0:
308,68,21134,1,8,0:0:0:0:
292,152,21306,1,8,0:0:0:0:
348,220,21478,1,8,0:0:0:0:
456,144,21651,5,0,0:1:0:0:
348,220,21823,1,0,0:1:0:0:
388,344,21996,1,8,0:0:0:0:
264,300,22168,1,8,0:0:0:0:
470,346,22340,38,0,B|474:266|426:222|426:222|378:242|338:214|338:214,1,217.5,4|0,1:0|0:0,0:0:0:0:
300,148,23375,6,0,P|256:228|296:292,1,174
164,336,24409,70,0,P|104:364|48:336,1,130.5
104,276,25099,6,0,B|72:220|112:152|112:152|112:200|144:232|144:232|168:208|208:208|208:208|216:240|248:264,1,348,2|0,0:0|0:0,0:0:0:0:
412,272,26823,5,0,0:0:0:0:
112,152,27168,1,0,0:0:0:0:
200,212,27340,1,0,0:0:0:0:
464,152,27685,1,0,0:0:0:0:
376,128,27858,54,0,B|312:100|316:24|316:24|312:100|236:116,1,261,6|0,0:0|0:0,0:0:0:0:
152,284,29582,6,0,B|128:228|60:212|60:212|76:164|134:164,1,217.5
160,76,30616,6,0,B|236:100|228:196|228:196|256:128|304:120|304:120|292:172|312:212|312:212|352:188|404:212,1,435,6|0,0:0|0:0,0:0:0:0:
448,344,32685,5,0,0:0:0:0:
366,293,32858,1,0,0:0:0:0:
304,120,33030,1,0,0:0:0:0:
248,280,33203,1,0,0:0:0:0:
248,280,33375,6,0,B|280:176|180:144|180:144|153:183|168:240|168:240|124:224|88:240,1,348,4|0,0:0|0:0,0:0:0:0:
32,112,35099,38,0,P|56:72|96:52,1,87,2|0,0:0|0:0,0:0:0:0:
184,84,35616,2,0,P|232:96|272:88,1,87
392,28,36134,54,0,B|428:84|396:152|396:152|436:104|516:116|516:116|464:164|456:196|456:196,1,348,4|0,0:0|0:0,0:0:0:0:
220,40,37858,21,0,0:0:0:0:
220,40,38030,1,0,0:0:0:0:
136,80,38203,1,0,0:0:0:0:
120,168,38375,1,0,0:0:0:0:
276,252,38547,5,0,0:0:0:0:
176,248,38720,1,0,0:0:0:0:
326,131,38892,54,0,B|270:115|209:163|209:163|274:200|277:252|277:252|225:225|168:251,1,348,4|0,0:0|0:0,0:0:0:0:
32,224,40616,6,0,P|20:176|36:136,1,87,2|0,0:0|0:0,0:0:0:0:
88,72,41134,2,0,P|120:104|128:152,1,87,2|0,0:0|0:0,0:0:0:0:
184,286,41651,54,0,P|228:229|157:221,1,174,12|0,0:0|0:0,0:0:0:0:
256,192,42685,12,0,44065,0:0:0:0:
116,104,44409,21,8,0:1:0:0:
376,116,44754,2,0,P|396:164|388:204,1,87
356,276,45099,1,0,0:1:0:0:
116,104,45444,1,8,0:1:0:0:
104,272,45789,6,0,P|84:232|96:180,1,87
116,104,46134,1,0,0:1:0:0:
376,116,46478,1,8,0:1:0:0:
168,336,46823,1,0,0:1:0:0:
152,28,47168,5,8,0:1:0:0:
316,152,47513,2,0,P|264:168|228:156,1,87
160,112,47858,1,0,0:1:0:0:
380,328,48203,5,8,0:1:0:0:
208,304,48547,2,0,P|252:292|292:300,1,87
380,328,48892,1,0,0:1:0:0:
84,260,49237,1,8,0:1:0:0:
380,328,49582,1,0,0:0:0:0:
320,120,49927,53,8,0:1:0:0:
380,328,50272,2,0,P|372:280|380:240,1,87
404,160,50616,1,0,0:1:0:0:
132,316,50961,5,8,0:1:0:0:
144,144,51306,2,0,P|152:192|144:236,1,87
132,316,51651,1,0,0:1:0:0:
100,64,51996,1,8,0:1:0:0:
132,316,52340,1,0,0:1:0:0:
352,88,52685,5,8,0:1:0:0:
100,64,53030,2,0,P|152:52|192:64,1,87
260,104,53375,1,0,0:1:0:0:
156,312,53720,37,8,0:1:0:0:
268,196,54065,2,0,P|220:212|200:240,1,87
156,312,54409,1,0,0:1:0:0:
388,296,54754,5,8,0:0:0:0:
100,60,55099,6,0,P|164:44|228:60,1,130.5,8|0,0:0|0:0,0:0:0:0:
316,104,55444,5,8,0:0:0:0:
224,160,55616,1,0,0:0:0:0:
225,58,55789,1,0,0:0:0:0:
312,204,55961,5,8,0:0:0:0:
224,160,56134,1,0,0:0:0:0:
316,104,56306,1,0,0:0:0:0:
224,260,56478,5,8,0:0:0:0:
225,58,56651,1,0,0:0:0:0:
312,204,56823,5,8,0:0:0:0:
400,160,56996,1,0,0:0:0:0:
316,104,57168,1,0,0:0:0:0:
312,304,57340,5,8,0:0:0:0:
224,260,57513,1,0,0:0:0:0:
312,204,57685,1,0,0:0:0:0:
224,360,57858,5,8,0:0:0:0:
396,248,58030,1,0,0:0:0:0:
140,208,58203,5,8,0:0:0:0:
224,260,58375,1,0,0:0:0:0:
224,160,58547,1,0,0:0:0:0:
140,304,58720,5,8,0:0:0:0:
224,260,58892,1,0,0:0:0:0:
140,208,59065,1,0,0:0:0:0:
224,360,59237,5,8,0:0:0:0:
56,248,59409,1,0,0:0:0:0:
312,304,59582,37,8,0:0:0:0:
224,260,59754,1,0,0:0:0:0:
312,204,59927,1,0,0:0:0:0:
140,304,60099,5,8,0:0:0:0:
224,260,60272,1,0,0:0:0:0:
140,208,60444,1,0,0:0:0:0:
312,304,60616,5,8,0:0:0:0:
224,160,60789,1,0,0:0:0:0:
476,100,60961,5,8,0:0:0:0:
444,112,61047,1,0,0:0:0:0:
412,116,61134,1,0,0:0:0:0:
380,112,61220,1,0,0:0:0:0:
352,100,61306,1,0,0:0:0:0:
324,80,61392,1,0,0:0:0:0:
296,60,61478,5,8,0:0:0:0:
264,64,61565,1,0,0:0:0:0:
244,92,61651,1,0,0:0:0:0:
244,120,61737,1,0,0:0:0:0:
256,156,61823,1,0,0:0:0:0:
276,184,61909,1,0,0:0:0:0:
304,200,61996,5,8,0:0:0:0:
296,236,62082,1,0,0:0:0:0:
272,256,62168,1,0,0:0:0:0:
240,264,62254,1,0,0:0:0:0:
208,260,62340,37,8,0:0:0:0:
180,244,62427,1,0,0:0:0:0:
156,220,62513,1,0,0:0:0:0:
148,192,62599,1,0,0:0:0:0:
156,160,62685,1,0,0:0:0:0:
180,140,62772,1,0,0:0:0:0:
200,116,62858,5,8,0:0:0:0:
200,80,62944,1,0,0:0:0:0:
176,56,63030,1,0,0:0:0:0:
144,60,63116,1,0,0:0:0:0:
116,76,63203,1,0,0:0:0:0:
84,72,63289,1,0,0:0:0:0:
60,52,63375,5,8,0:0:0:0:
32,80,63461,1,0,0:0:0:0:
24,120,63547,1,0,0:0:0:0:
32,156,63634,1,0,0:0:0:0:
60,184,63720,6,4,B|104:232|72:292|72:292|152:264|144:204|144:204|168:244|240:228|240:228|256:264|224:300|224:300|296:292|328:204,1,565.5,0|0,0:0|0:0,0:0:0:0:
155,342,66134,6,0,P|131:294|155:218,1,130.5
204,152,66479,5,6,0:0:0:0:
288,192,66652,1,0,0:0:0:0:
280,100,66824,1,8,0:0:0:0:
84,120,66996,2,0,L|123:101,1,43.5
196,60,67168,1,0,0:0:0:0:
68,220,67340,1,2,0:0:0:0:
59,40,67513,2,0,P|83:84|79:136,1,87,8|0,0:0|0:0,0:0:0:0:
212,248,67858,6,0,B|248:220|248:220|304:220,1,87,2|0,0:0|0:0,0:0:0:0:
384,224,68203,1,8,0:0:0:0:
280,352,68375,2,0,L|252:312,1,43.5
212,248,68547,2,0,P|176:212|132:216,1,87,0|2,0:0|0:0,0:0:0:0:
148,44,68892,2,0,P|196:80|284:40,1,130.5,8|0,0:0|0:0,0:0:0:0:
324,20,69237,6,0,P|340:76|320:120,1,87,2|0,0:0|0:0,0:0:0:0:
211,248,69582,1,8,0:0:0:0:
384,225,69754,2,0,B|200:249,1,174
444,136,70272,2,0,L|348:148,1,87,8|0,0:0|0:0,0:0:0:0:
324,316,70616,5,2,0:0:0:0:
357,146,70789,1,0,0:0:0:0:
211,247,70961,1,8,0:0:0:0:
448,288,71134,1,0,0:0:0:0:
180,152,71306,1,0,0:0:0:0:
211,247,71478,1,2,0:0:0:0:
320,24,71651,1,8,0:0:0:0:
180,152,71823,2,0,L|240:152,1,43.5
312,152,71996,6,0,P|344:116|260:64,1,174,2|8,3:3|0:0,0:0:0:0:
180,152,72513,1,0,0:0:0:0:
290,231,72685,2,0,P|290:183|318:147,1,87,0|2,0:0|0:0,0:0:0:0:
368,288,73030,2,0,P|272:328|208:272,1,174,8|2,0:0|0:0,0:0:0:0:
180,152,73547,1,0,0:0:0:0:
159,240,73720,2,0,P|203:261|220:312,1,87,8|0,0:0|0:0,0:0:0:0:
392,196,74065,1,0,0:0:0:0:
368,288,74237,1,2,0:0:0:0:
264,128,74409,1,8,0:0:0:0:
380,48,74582,5,0,0:0:0:0:
380,48,74668,1,0,0:0:0:0:
380,48,74754,2,0,P|328:24|280:56,1,87,2|0,0:0|0:0,0:0:0:0:
264,128,75099,1,8,0:0:0:0:
392,196,75272,2,0,P|322:200|378:276,1,174,0|2,0:0|0:0,0:0:0:0:
264,128,75789,1,8,0:0:0:0:
144,268,75961,1,0,0:0:0:0:
144,268,76047,1,0,0:0:0:0:
144,268,76134,6,0,P|112:236|64:264,1,87,2|0,0:0|0:0,0:0:0:0:
76,64,76478,1,8,0:0:0:0:
104,156,76651,1,0,0:0:0:0:
292,36,76823,1,0,0:0:0:0:
264,128,76996,1,0,0:0:0:0:
76,64,77168,2,0,B|64:44|48:32|48:32|112:40|144:24,1,130.5,8|0,0:0|0:0,0:0:0:0:
192,80,77513,6,0,B|213:40|213:40|208:-8,1,87,6|0,0:0|0:0,0:0:0:0:
264,128,77858,1,8,0:0:0:0:
211,247,78030,2,0,P|243:211|255:299,1,174,0|2,0:0|0:0,0:0:0:0:
200,340,78547,1,8,0:0:0:0:
282,289,78720,1,0,0:0:0:0:
120,280,78892,6,0,P|112:236|68:220,1,87,2|0,0:0|0:0,0:0:0:0:
264,128,79237,1,8,0:0:0:0:
400,128,79409,2,0,L|348:128,1,43.5
264,128,79582,2,0,P|264:80|300:48,1,87,0|2,0:0|0:0,0:0:0:0:
444,44,79927,1,8,0:0:0:0:
500,120,80099,1,0,0:0:0:0:
353,209,80272,6,0,P|370:248|357:289,1,87,2|0,0:0|0:0,0:0:0:0:
200,340,80616,1,8,0:0:0:0:
358,289,80789,2,0,B|388:248|348:204|348:204|328:160|360:100,1,174,0|2,0:0|0:0,0:0:0:0:
416,60,81306,1,8,0:0:0:0:
282,268,81478,1,0,0:0:0:0:
282,268,81565,1,0,0:0:0:0:
282,268,81651,6,0,P|326:264|366:308,1,87,2|0,0:0|0:0,0:0:0:0:
200,340,81996,2,0,P|176:288|128:364,1,174,8|0,0:0|0:0,0:0:0:0:
292,360,82513,1,2,0:0:0:0:
208,120,82685,1,8,0:0:0:0:
115,348,82858,1,0,0:0:0:0:
115,348,82944,1,0,0:0:0:0:
115,348,83030,6,0,P|88:295|104:275,1,87,2|0,0:0|0:0,0:0:0:0:
212,208,83375,1,8,0:0:0:0:
8,348,83547,2,0,P|20:240|92:188,1,174,0|2,0:0|0:0,0:0:0:0:
312,220,84065,2,0,L|364:320,1,87,8|0,0:0|0:0,0:0:0:0:
444,320,84409,5,2,0:0:0:0:
212,208,84582,1,0,0:0:0:0:
424,220,84754,1,8,0:0:0:0:
276,332,84927,2,0,L|240:268,1,43.5
212,208,85099,2,0,P|164:188|128:216,1,87,0|2,0:0|0:0,0:0:0:0:
312,220,85444,6,0,P|354:273|424:208,1,174,8|2,0:0|0:0,0:0:0:0:
396,128,85961,1,0,0:0:0:0:
168,292,86134,1,8,0:0:0:0:
212,208,86306,1,0,0:0:0:0:
276,332,86478,1,0,0:0:0:0:
363,248,86651,2,0,L|320:248,1,43.5,2|0,0:0|0:0,0:0:0:0:
168,292,86823,2,0,P|136:256|204:260,1,130.5,8|0,0:0|0:0,0:0:0:0:
236,208,87168,22,0,B|228:180|228:180|240:152|228:128|228:128|240:96|240:96|228:76|200:72|192:44|192:44,1,174
120,24,88030,53,0,0:0:0:0:
101,47,88116,1,0,0:0:0:0:
92,72,88203,1,0,0:0:0:0:
92,104,88289,1,0,0:0:0:0:
100,140,88375,1,0,0:0:0:0:
116,176,88461,1,0,0:0:0:0:
140,208,88547,2,0,P|176:224|224:204,1,87,6|0,0:0|0:0,0:0:0:0:
288,144,88892,5,8,0:0:0:0:
388,288,89065,2,0,P|416:208|376:132,1,174,0|2,0:0|0:0,0:0:0:0:
328,60,89582,1,8,0:0:0:0:
288,144,89754,1,0,0:0:0:0:
136,56,89927,38,0,P|108:136|140:224,1,174,2|8,0:0|0:0,0:0:0:0:
216,300,90444,1,0,0:0:0:0:
216,300,90530,1,0,0:0:0:0:
216,300,90616,2,0,P|236:256|236:212,1,87,0|2,0:0|0:0,0:0:0:0:
212,116,90961,1,8,0:0:0:0:
448,72,91134,1,0,0:0:0:0:
448,72,91220,1,0,0:0:0:0:
448,72,91306,6,0,P|468:112|468:156,1,87,2|0,0:0|0:0,0:0:0:0:
428,252,91651,1,8,0:0:0:0:
184,248,91823,5,0,0:0:0:0:
184,248,91909,1,0,0:0:0:0:
184,248,91996,2,0,P|232:232|276:248,1,87
352,296,92340,1,8,0:0:0:0:
76,304,92513,5,0,0:0:0:0:
76,304,92599,1,0,0:0:0:0:
76,304,92685,2,0,P|60:248|68:216,1,87,2|0,0:0|0:0,0:0:0:0:
100,124,93030,1,8,0:0:0:0:
336,92,93203,37,0,0:0:0:0:
336,92,93289,1,0,0:0:0:0:
336,92,93375,2,0,P|276:100|248:92,1,87,0|2,0:0|0:0,0:0:0:0:
160,40,93720,1,8,0:0:0:0:
232,200,93892,1,2,0:0:0:0:
432,80,94065,6,0,P|412:32|372:12,1,87,2|0,0:0|0:0,0:0:0:0:
251,93,94409,1,8,0:0:0:0:
232,200,94582,1,0,0:0:0:0:
348,220,94754,2,0,P|396:232|436:220,1,87,0|2,0:0|0:0,0:0:0:0:
512,140,95099,1,8,0:0:0:0:
488,308,95272,1,0,0:0:0:0:
312,324,95444,6,0,P|268:312|224:324,1,87,2|0,0:0|0:0,0:0:0:0:
116,360,95789,1,8,0:0:0:0:
184,224,95961,1,0,0:0:0:0:
88,64,96134,1,0,0:0:0:0:
80,180,96306,1,2,0:0:0:0:
264,64,96478,1,8,0:0:0:0:
424,152,96651,5,0,0:0:0:0:
424,152,96737,1,0,0:0:0:0:
424,152,96823,2,0,P|408:192|420:232,1,87,2|0,0:0|0:0,0:0:0:0:
472,316,97168,1,8,0:0:0:0:
344,108,97340,37,0,0:0:0:0:
344,108,97427,1,0,0:0:0:0:
344,108,97513,2,0,P|356:60|340:20,1,87,0|2,0:0|0:0,0:0:0:0:
200,20,97858,1,8,0:0:0:0:
148,220,98030,5,0,0:0:0:0:
148,220,98116,1,0,0:0:0:0:
148,220,98203,2,0,P|172:256|224:268,1,87,2|0,0:0|0:0,0:0:0:0:
344,244,98547,1,8,0:0:0:0:
440,124,98720,5,0,0:0:0:0:
232,168,98892,1,0,0:0:0:0:
300,16,99065,1,2,0:0:0:0:
136,132,99237,1,8,0:0:0:0:
388,220,99409,1,8,0:0:0:0:
388,220,99496,1,8,0:0:0:0:
388,220,99582,6,0,P|404:260|396:304,1,87,4|0,0:0|0:0,0:0:0:0:
316,356,99927,1,8,0:0:0:0:
228,312,100099,2,0,B|212:220|212:220|244:144,1,174,0|2,0:0|0:0,0:0:0:0:
288,56,100616,1,8,0:0:0:0:
344,148,100789,1,0,0:0:0:0:
168,120,100961,38,0,P|88:160|16:128,1,174,2|8,0:0|0:0,0:0:0:0:
76,32,101478,1,0,0:0:0:0:
76,32,101651,2,0,P|92:76|88:132,1,87,0|2,0:0|0:0,0:0:0:0:
60,220,101996,1,8,0:0:0:0:
296,232,102168,5,0,0:0:0:0:
296,232,102254,1,0,0:0:0:0:
296,232,102340,2,0,P|340:216|380:228,1,87,2|0,0:0|0:0,0:0:0:0:
464,268,102685,1,8,0:0:0:0:
180,64,102858,5,0,0:0:0:0:
180,64,102944,1,0,0:0:0:0:
180,64,103030,2,0,P|164:112|180:156,1,87,0|2,0:0|0:0,0:0:0:0:
216,240,103375,1,8,0:0:0:0:
272,140,103547,1,0,0:0:0:0:
116,212,103720,6,0,P|72:204|32:216,1,87,2|0,0:0|0:0,0:0:0:0:
32,312,104065,1,8,0:0:0:0:
256,332,104237,1,0,0:0:0:0:
256,332,104323,1,0,0:0:0:0:
256,332,104409,2,0,P|256:280|236:248,1,87,0|2,0:0|0:0,0:0:0:0:
188,160,104754,1,8,0:0:0:0:
116,332,104927,1,0,0:0:0:0:
256,332,105099,38,0,B|320:308|320:308|424:328,1,174,2|8,0:0|0:0,0:0:0:0:
416,240,105616,2,0,P|376:160|412:88,1,174,0|2,0:0|0:0,0:0:0:0:
472,20,106134,1,8,0:0:0:0:
368,20,106306,1,0,0:0:0:0:
256,128,106478,6,0,B|180:164|180:164|72:152,1,174,2|8,0:0|0:0,0:0:0:0:
20,104,106996,2,0,P|0:192|28:272,1,174,0|2,0:0|0:0,0:0:0:0:
104,328,107513,1,8,0:0:0:0:
200,340,107685,1,0,0:0:0:0:
292,216,107858,6,2,P|236:200|200:212,1,87,2|0,0:0|0:0,0:0:0:0:
100,244,108203,1,2,0:0:0:0:
312,44,108547,2,2,P|360:52|400:44,1,87,2|0,0:0|0:0,0:0:0:0:
496,28,108892,1,2,0:0:0:0:
288,128,109237,5,2,0:0:0:0:
448,200,109409,1,2,0:0:0:0:
376,352,109582,1,2,0:0:0:0:
212,280,109754,1,2,0:0:0:0:
288,128,109927,37,2,0:0:0:0:
320,120,110013,1,2,0:0:0:0:
360,128,110099,1,2,0:0:0:0:
384,148,110185,1,2,0:0:0:0:
400,184,110272,5,8,0:0:0:0:
384,220,110358,1,8,0:0:0:0:
400,256,110444,1,8,0:0:0:0:
432,268,110530,1,8,0:0:0:0:
460,252,110616,54,0,B|376:228|300:296|300:296|344:204|324:128|324:128|268:216|188:220|188:220|216:132|184:68,1,674.25
160,32,113375,22,0,P|116:28|72:44,1,87,4|0,0:0|0:0,0:0:0:0:
40,148,113720,1,8,0:0:0:0:
160,264,113892,1,0,0:0:0:0:
160,264,113978,1,0,0:0:0:0:
160,264,114065,2,0,P|204:280|244:268,1,87,0|2,0:0|0:0,0:0:0:0:
332,216,114409,1,8,0:0:0:0:
260,136,114582,1,0,0:0:0:0:
404,68,114754,6,0,P|400:120|416:152,1,87,2|0,0:0|0:0,0:0:0:0:
468,248,115099,1,8,0:0:0:0:
260,136,115272,1,0,0:0:0:0:
260,136,115358,1,0,0:0:0:0:
260,136,115444,2,0,P|272:92|260:52,1,87,0|2,0:0|0:0,0:0:0:0:
324,324,115789,1,8,0:0:0:0:
156,304,115961,1,0,0:0:0:0:
256,240,116134,6,0,P|300:216|352:220,1,87,2|0,0:0|0:0,0:0:0:0:
432,304,116478,1,8,0:0:0:0:
312,108,116651,1,0,0:0:0:0:
312,108,116737,1,0,0:0:0:0:
312,108,116823,2,0,P|300:60|308:24,1,87,0|2,0:0|0:0,0:0:0:0:
436,128,117168,2,0,P|452:172|444:212,1,87,8|0,0:0|0:0,0:0:0:0:
360,336,117513,5,2,0:0:0:0:
496,356,117685,1,0,0:0:0:0:
328,220,117858,1,8,0:0:0:0:
168,288,118030,1,0,0:0:0:0:
168,288,118116,1,0,0:0:0:0:
168,288,118203,1,0,0:0:0:0:
276,348,118375,1,2,0:0:0:0:
184,140,118547,1,8,0:0:0:0:
328,220,118720,1,0,0:0:0:0:
228,56,118892,38,0,P|187:45|145:53,1,87,2|0,0:0|0:0,0:0:0:0:
308,132,119237,1,8,0:0:0:0:
372,24,119409,1,0,0:0:0:0:
372,24,119496,1,0,0:0:0:0:
372,24,119582,1,0,0:0:0:0:
416,192,119754,1,2,0:0:0:0:
296,214,119927,2,0,P|292:166|308:130,1,87,8|0,0:0|0:0,0:0:0:0:
488,144,120272,6,0,P|504:188|496:232,1,87,2|0,0:0|0:0,0:0:0:0:
444,308,120616,1,8,0:0:0:0:
344,296,120789,1,0,0:0:0:0:
296,214,120961,1,0,0:0:0:0:
192,320,121134,1,2,0:0:0:0:
267,92,121306,5,8,0:0:0:0:
140,84,121478,1,8,0:0:0:0:
140,84,121565,1,8,0:0:0:0:
140,84,121651,6,0,P|128:136|136:172,1,87,6|0,0:0|0:0,0:0:0:0:
192,320,121996,1,8,0:0:0:0:
284,176,122168,1,0,0:0:0:0:
452,88,122340,2,0,P|464:128|464:172,1,87,0|2,0:0|0:0,0:0:0:0:
360,280,122685,1,8,0:0:0:0:
284,176,122858,1,0,0:0:0:0:
284,176,122944,1,0,0:0:0:0:
284,176,123030,38,0,P|268:136|268:92,1,87,2|0,0:0|0:0,0:0:0:0:
360,280,123375,1,8,0:0:0:0:
224,320,123547,1,0,0:0:0:0:
200,228,123720,1,0,0:0:0:0:
452,224,123892,2,0,P|472:268|464:320,2,87,2|8|0,0:0|0:0|0:0,0:0:0:0:
388,152,124409,5,2,0:0:0:0:
292,136,124582,1,0,0:0:0:0:
264,268,124754,1,8,0:0:0:0:
67,303,124927,1,0,0:0:0:0:
67,303,125013,1,0,0:0:0:0:
67,303,125099,2,0,P|53:263|56:220,1,87,0|2,0:0|0:0,0:0:0:0:
60,124,125444,1,8,0:0:0:0:
136,68,125616,1,0,0:0:0:0:
312,76,125789,5,2,0:0:0:0:
352,156,125961,1,0,0:0:0:0:
352,156,126134,2,0,P|320:188|268:200,1,87,8|0,0:0|0:0,0:0:0:0:
148,352,126478,1,0,0:0:0:0:
248,348,126651,2,0,P|284:320|332:304,2,87,2|8|0,0:0|0:0|0:0,0:0:0:0:
148,352,127168,5,2,0:0:0:0:
200,272,127340,1,0,0:0:0:0:
256,100,127513,1,8,0:0:0:0:
296,188,127685,1,0,0:0:0:0:
148,352,127858,38,0,P|100:348|56:320,1,87,0|2,0:0|0:0,0:0:0:0:
16,192,128203,1,8,0:0:0:0:
76,64,128375,1,0,0:0:0:0:
76,64,128461,1,0,0:0:0:0:
76,64,128547,6,0,P|120:56|168:40,1,87,2|0,0:0|0:0,0:0:0:0:
336,104,128892,2,0,P|292:108|248:120,1,87,8|0,0:0|0:0,0:0:0:0:
120,232,129237,1,0,0:0:0:0:
156,320,129409,1,2,0:0:0:0:
156,320,129582,2,0,P|200:288|212:244,1,87,8|0,0:0|0:0,0:0:0:0:
228,28,129927,37,0,0:0:0:0:
304,96,130444,1,0,0:0:0:0:
324,192,130961,1,0,0:0:0:0:
252,264,131478,1,0,0:0:0:0:
152,236,131996,1,0,0:0:0:0:
48,320,132340,5,0,0:0:0:0:
48,320,132513,21,0,0:0:0:0:
48,320,132599,1,0,0:0:0:0:
48,320,132685,2,0,P|88:308|136:320,1,87,2|0,0:0|0:0,0:0:0:0:
212,372,133030,1,8,0:0:0:0:
304,340,133203,1,0,0:0:0:0:
324,64,133375,2,0,P|272:76|232:72,1,87,0|2,0:0|0:0,0:0:0:0:
144,64,133720,1,8,0:0:0:0:
200,184,133892,1,0,0:0:0:0:
416,236,134065,5,2,0:0:0:0:
360,144,134237,1,0,0:0:0:0:
200,184,134409,2,0,P|156:179|117:161,1,87,8|0,0:0|0:0,0:0:0:0:
416,236,134754,1,0,0:0:0:0:
435,68,134927,1,2,0:0:0:0:
212,60,135099,2,0,P|192:108|200:148,1,87,8|0,0:0|0:0,0:0:0:0:
244,228,135444,5,2,0:0:0:0:
212,60,135616,1,0,0:0:0:0:
336,112,135789,2,0,P|352:68|340:28,1,87,8|0,0:0|0:0,0:0:0:0:
168,168,136134,2,0,P|124:180|88:208,1,87,0|2,0:0|0:0,0:0:0:0:
28,288,136478,1,8,0:0:0:0:
144,300,136651,1,0,0:0:0:0:
318,190,136823,38,0,P|318:146|294:110,1,87,2|0,0:0|0:0,0:0:0:0:
396,292,137168,2,0,P|448:308|496:296,1,87,8|0,0:0|0:0,0:0:0:0:
296,112,137513,1,0,0:0:0:0:
216,164,137685,2,0,P|160:196|116:220,2,87,2|8|0,0:0|0:0|0:0,0:0:0:0:
296,112,138203,37,2,0:0:0:0:
296,208,138375,1,0,0:0:0:0:
184,80,138547,1,8,0:0:0:0:
396,144,138720,1,0,0:0:0:0:
396,144,138806,1,0,0:0:0:0:
396,144,138892,2,0,P|408:200|404:232,1,87,0|2,0:0|0:0,0:0:0:0:
344,304,139237,1,8,0:0:0:0:
208,272,139409,1,0,0:0:0:0:
156,192,139582,38,0,P|116:176|64:188,1,87,2|0,0:0|0:0,0:0:0:0:
20,336,139927,2,0,P|72:340|116:320,1,87,8|0,0:0|0:0,0:0:0:0:
372,144,140272,1,0,0:0:0:0:
448,200,140444,2,0,P|464:260|452:304,1,87,2|8,0:0|0:0,0:0:0:0:
372,252,140789,1,0,0:0:0:0:
372,144,140961,5,2,0:0:0:0:
264,192,141134,1,0,0:0:0:0:
372,144,141306,1,8,0:0:0:0:
120,72,141478,1,0,0:0:0:0:
212,100,141651,2,0,P|172:156|132:176,1,87,0|2,0:0|0:0,0:0:0:0:
68,204,141996,1,8,0:0:0:0:
148,316,142168,1,0,0:0:0:0:
328,344,142340,6,0,P|312:296|312:256,1,87,2|0,0:0|0:0,0:0:0:0:
384,56,142685,2,0,P|396:100|396:148,1,87,8|0,0:0|0:0,0:0:0:0:
380,236,143030,1,0,0:0:0:0:
128,328,143203,1,2,0:0:0:0:
128,328,143375,2,0,P|112:264|112:232,1,87,8|8,0:0|0:0,0:0:0:0:
124,148,143720,5,6,0:0:0:0:
296,224,143892,1,0,0:0:0:0:
111,243,144065,1,8,0:0:0:0:
336,140,144237,1,0,0:0:0:0:
208,200,144409,2,0,L|200:292,1,87,0|2,0:0|0:0,0:0:0:0:
184,380,144754,1,8,0:0:0:0:
248,116,144927,1,0,0:0:0:0:
296,272,145099,38,0,P|344:260|372:224,1,87,2|0,0:0|0:0,0:0:0:0:
420,152,145444,1,8,0:0:0:0:
364,72,145616,1,0,0:0:0:0:
208,200,145789,1,0,0:0:0:0:
124,148,145961,1,2,0:0:0:0:
340,176,146134,1,8,0:0:0:0:
296,272,146306,1,0,0:0:0:0:
248,128,146478,6,0,P|276:92|316:72,1,87,2|0,0:0|0:0,0:0:0:0:
124,148,146823,1,8,0:0:0:0:
256,52,146996,1,0,0:0:0:0:
256,52,147082,1,0,0:0:0:0:
256,52,147168,2,0,L|168:36,1,87,0|2,0:0|0:0,0:0:0:0:
12,12,147513,1,8,0:0:0:0:
80,92,147685,1,0,0:0:0:0:
136,204,147858,6,0,P|144:248|132:292,1,87,2|0,0:0|0:0,0:0:0:0:
80,368,148203,1,8,0:0:0:0:
368,264,148375,1,0,0:0:0:0:
340,172,148547,2,0,P|332:116|340:76,1,87,0|2,0:0|0:0,0:0:0:0:
440,128,148892,1,8,0:0:0:0:
256,240,149065,1,0,0:0:0:0:
228,32,149237,5,2,0:0:0:0:
364,76,149409,1,0,0:0:0:0:
208,164,149582,2,0,P|176:200|172:248,1,87,8|0,0:0|0:0,0:0:0:0:
344,160,149927,2,0,P|332:116|296:80,1,87,0|2,0:0|0:0,0:0:0:0:
228,32,150272,1,8,0:0:0:0:
36,188,150444,1,0,0:0:0:0:
36,188,150530,1,0,0:0:0:0:
36,188,150616,38,0,P|80:212|120:220,1,87,2|0,0:0|0:0,0:0:0:0:
256,212,150961,1,8,0:0:0:0:
228,32,151134,1,0,0:0:0:0:
116,136,151306,1,0,0:0:0:0:
416,200,151478,1,2,0:0:0:0:
384,88,151651,1,8,0:0:0:0:
176,292,151823,1,0,0:0:0:0:
176,292,151909,1,0,0:0:0:0:
176,292,151996,6,0,P|208:328|248:336,1,87,4|0,0:0|0:0,0:0:0:0:
272,108,152340,2,0,P|224:112|192:140,1,87
356,280,152685,2,0,P|360:228|340:188,1,87
88,216,153030,2,0,P|76:264|92:300,1,87
256,24,153375,5,4,0:1:0:0:
164,184,153547,1,0,0:1:0:0:
344,200,153720,1,0,0:1:0:0:
88,108,153892,1,0,0:1:0:0:
248,248,154065,1,4,0:1:0:0:
256,24,154237,1,0,0:1:0:0:
152,296,154409,1,0,0:1:0:0:
324,88,154582,1,0,0:1:0:0:
168,80,154754,22,0,B|240:52|324:88|324:88|200:132|164:184|164:184|272:132|340:200,1,522,4|0,0:1|0:0,0:0:0:0:
408,352,157168,5,2,0:0:0:0:
324,316,157340,1,2,0:0:0:0:
256,248,157513,2,0,B|200:156|304:88|304:88|224:140|160:72|160:72|224:140|112:212,1,522,2|0,0:0|0:0,0:0:0:0:
68,84,159927,69,2,0:0:0:0:
32,160,160099,1,2,0:0:0:0:
48,252,160272,2,0,B|84:296|72:352|72:352|84:296|112:252|112:252|152:292|152:352|152:352|152:292|192:248|192:248|184:292|224:324,1,522,2|0,0:0|0:0,0:0:0:0:
368,128,162685,5,2,0:0:0:0:
328,204,162858,1,2,0:0:0:0:
328,292,163030,2,0,B|392:296|440:240|440:240|424:164|480:112,1,261,2|0,0:0|0:0,0:0:0:0:
292,56,164409,70,0,P|212:40|120:76,1,174,2|0,0:0|0:0,0:0:0:0:
76,228,165444,5,2,0:0:0:0:
120,312,165616,1,2,0:0:0:0:
200,344,165789,2,0,B|252:332|272:268|272:268|224:176|312:156|312:156|400:176|348:268|348:268|356:328|436:344,1,522,2|0,0:0|0:0,0:0:0:0:
372,40,168203,69,2,0:0:0:0:
300,92,168375,1,2,0:0:0:0:
216,52,168547,2,0,B|152:84|76:60|76:60|80:128|40:196|40:196|84:172|132:164|132:164|92:228|104:316,1,522,2|0,0:0|0:0,0:0:0:0:
264,332,170961,5,2,0:0:0:0:
352,336,171134,1,2,0:0:0:0:
416,280,171306,2,0,B|425:212|385:148|385:148|433:156|477:180|477:180|437:112|441:44|441:44|365:68|301:36,1,522,2|0,0:0|0:0,0:0:0:0:
96,72,173720,69,2,0:0:0:0:
68,152,173892,1,2,0:0:0:0:
108,236,174065,2,0,B|160:192|226:202|226:202|224:280|300:320,1,261,2|0,0:0|0:0,0:0:0:0:
376,72,175444,6,0,P|320:132|328:224,1,174,2|0,0:0|0:0,0:0:0:0:
252,360,176478,69,2,0:0:0:0:
328,312,176651,1,2,0:0:0:0:
325,219,176823,2,0,B|329:139|281:95|281:95|233:115|193:87|193:87,1,217.5,4|0,1:1|0:0,0:0:0:0:
161,19,177858,6,0,P|117:99|157:163,1,174
136,368,178892,70,0,P|152:320|140:284,1,87,0|2,0:0|0:0,0:0:0:0:
104,208,179409,1,2,0:0:0:0:
64,128,179582,6,0,B|32:72|72:4|72:4|72:52|104:84|104:84|128:60|168:60|168:60|176:92|198:108,1,348
256,272,181306,2,0,B|296:240|340:240|340:240|352:288|404:308,1,174,0|2,0:0|0:0,0:0:0:0:
424,220,182168,1,2,0:0:0:0:
388,140,182341,2,0,B|324:112|328:36|328:36|324:112|248:128,1,261,6|0,0:0|0:0,0:0:0:0:
140,332,184065,70,0,B|116:272|52:272|52:272|52:244|84:220,1,174,0|2,0:0|0:0,0:0:0:0:
84,136,184927,1,2,0:0:0:0:
156,84,185099,6,0,B|232:108|224:204|224:204|252:136|300:128|300:128|288:180|308:220|308:220|348:196|400:220,1,435,6|0,0:0|0:0,0:0:0:0:
452,352,187168,2,0,B|408:376|364:352,1,87,0|2,0:0|0:0,0:0:0:0:
344,272,187685,1,2,0:0:0:0:
252,284,187858,70,0,B|284:180|184:148|184:148|157:187|172:244|172:244|128:228|92:244,1,348,6|0,0:0|0:0,0:0:0:0:
44,80,189582,6,0,P|68:40|108:20,1,87
184,52,190099,2,0,L|232:68,1,43.5,0|2,0:0|0:0,0:0:0:0:
308,36,190444,1,2,0:0:0:0:
400,32,190616,70,0,B|392:100|352:132|352:132|392:100|488:88|488:88|432:136|452:228,1,391.5,6|0,0:0|0:0,0:0:0:0:
472,372,192340,2,0,P|484:304|448:208,1,174,0|2,0:0|0:0,0:0:0:0:
488,124,193203,1,2,0:0:0:0:
400,104,193375,6,0,B|343:93|276:124|276:124|356:168|340:228|340:228|304:208|256:232,1,348,6|0,0:0|0:0,0:0:0:0:
156,24,195099,70,0,P|143:65|156:106,1,87,2|0,0:0|0:0,0:0:0:0:
240,148,195616,2,0,B|264:104|264:104|256:60,1,87,0|2,0:0|0:0,0:0:0:0:
348,24,196134,6,0,B|412:72|364:152|364:152|388:200|456:200|456:200|412:220|384:280,1,348,2|0,0:0|0:0,0:0:0:0:
176,264,197858,69,0,0:0:0:0:
308,248,198203,2,0,P|372:216|396:136,1,152.25
396,104,198892,21,8,0:1:0:0:
136,116,199237,1,0,0:0:0:0:
120,200,199409,1,0,0:0:0:0:
100,284,199582,1,2,0:0:0:0:
396,104,199927,1,8,0:1:0:0:
440,332,200272,5,2,0:0:0:0:
460,248,200444,1,0,0:0:0:0:
480,164,200617,1,2,0:0:0:0:
140,112,200961,1,8,0:0:0:0:
344,336,201306,1,0,0:1:0:0:
360,28,201651,5,8,0:1:0:0:
216,160,201996,1,2,0:0:0:0:
292,204,202168,1,0,0:0:0:0:
368,248,202341,1,2,0:0:0:0:
132,328,202686,5,8,0:1:0:0:
356,144,203030,1,2,0:0:0:0:
292,204,203203,1,0,0:0:0:0:
228,260,203375,1,2,0:0:0:0:
472,252,203720,1,8,0:1:0:0:
132,328,204065,1,0,0:0:0:0:
192,92,204410,53,8,0:1:0:0:
132,328,204754,1,2,0:0:0:0:
116,244,204927,1,0,0:0:0:0:
96,160,205099,1,2,0:0:0:0:
380,316,205444,5,8,0:1:0:0:
344,148,205789,1,2,0:0:0:0:
360,232,205962,1,0,0:0:0:0:
380,316,206134,1,2,0:0:0:0:
416,52,206479,1,8,0:1:0:0:
380,316,206823,1,0,0:1:0:0:
160,88,207168,5,8,0:1:0:0:
416,52,207513,1,2,0:0:0:0:
340,92,207685,1,0,0:0:0:0:
260,132,207858,1,2,0:0:0:0:
460,348,208203,37,8,0:1:0:0:
260,132,208547,1,2,0:0:0:0:
304,208,208720,1,0,0:0:0:0:
352,280,208892,1,2,0:0:0:0:
124,296,209237,1,8,0:0:0:0:
412,60,209582,6,0,P|348:44|284:60,1,130.5,8|0,0:0|0:0,0:0:0:0:
196,104,209927,5,8,0:0:0:0:
288,160,210099,1,0,0:0:0:0:
287,58,210272,1,0,0:0:0:0:
200,204,210444,5,8,0:0:0:0:
288,160,210617,1,0,0:0:0:0:
196,104,210789,1,0,0:0:0:0:
288,260,210961,5,8,0:0:0:0:
287,58,211134,1,0,0:0:0:0:
200,204,211306,5,8,0:0:0:0:
112,160,211479,1,0,0:0:0:0:
196,104,211651,1,0,0:0:0:0:
200,304,211823,5,8,0:0:0:0:
288,260,211996,1,0,0:0:0:0:
200,204,212168,1,0,0:0:0:0:
288,360,212341,5,8,0:0:0:0:
112,256,212513,1,0,0:0:0:0:
372,208,212686,5,8,0:0:0:0:
288,260,212858,1,0,0:0:0:0:
288,160,213030,1,0,0:0:0:0:
372,304,213203,5,8,0:0:0:0:
288,260,213375,1,0,0:0:0:0:
372,208,213548,1,0,0:0:0:0:
288,360,213720,5,8,0:0:0:0:
460,256,213892,1,0,0:0:0:0:
200,304,214065,37,8,0:0:0:0:
288,260,214237,1,0,0:0:0:0:
200,204,214410,1,0,0:0:0:0:
372,304,214582,5,8,0:0:0:0:
288,260,214755,1,0,0:0:0:0:
372,208,214927,1,0,0:0:0:0:
200,304,215099,5,8,0:0:0:0:
288,160,215272,1,0,0:0:0:0:
36,76,215444,5,8,0:0:0:0:
64,80,215530,1,0,0:0:0:0:
92,80,215617,1,0,0:0:0:0:
120,76,215703,1,0,0:0:0:0:
140,64,215789,1,0,0:0:0:0:
164,44,215875,1,0,0:0:0:0:
188,28,215961,5,8,0:0:0:0:
220,32,216048,1,0,0:0:0:0:
240,60,216134,1,0,0:0:0:0:
240,88,216220,1,0,0:0:0:0:
228,124,216306,1,0,0:0:0:0:
208,152,216392,1,0,0:0:0:0:
180,168,216479,5,8,0:0:0:0:
188,204,216565,1,0,0:0:0:0:
212,224,216651,1,0,0:0:0:0:
244,232,216737,1,0,0:0:0:0:
276,228,216823,5,8,0:0:0:0:
304,212,216910,1,0,0:0:0:0:
328,188,216996,1,0,0:0:0:0:
336,160,217082,1,0,0:0:0:0:
328,128,217168,1,0,0:0:0:0:
304,108,217255,1,0,0:0:0:0:
284,84,217341,5,8,0:0:0:0:
284,48,217427,1,0,0:0:0:0:
308,24,217513,1,0,0:0:0:0:
340,32,217599,1,0,0:0:0:0:
372,44,217686,1,0,0:0:0:0:
404,40,217772,1,0,0:0:0:0:
428,16,217858,5,8,0:0:0:0:
452,48,217944,1,0,0:0:0:0:
460,92,218030,1,0,0:0:0:0:
448,132,218117,1,0,0:0:0:0:
420,160,218203,70,0,B|376:208|408:268|408:268|328:240|336:180|336:180|312:220|240:204|240:204|224:240|256:276|256:276|184:268|156:192,1,565.5,4|0,0:0|0:0,0:0:0:0:
356,300,220616,6,0,P|368:252|336:180,1,130.5
308,152,220961,5,6,0:0:0:0:
224,192,221134,1,0,0:0:0:0:
232,100,221306,1,8,0:0:0:0:
76,140,221478,1,0,0:0:0:0:
76,140,221565,1,0,0:0:0:0:
76,140,221651,1,0,0:0:0:0:
136,40,221823,1,2,0:0:0:0:
104,248,221996,1,8,0:0:0:0:
396,304,222168,1,0,0:0:0:0:
396,304,222340,6,0,P|404:256|392:212,1,87,2|0,0:0|0:0,0:0:0:0:
360,132,222685,1,8,0:0:0:0:
308,216,222858,1,0,0:0:0:0:
464,68,223030,2,0,P|424:44|380:36,1,87,0|2,0:0|0:0,0:0:0:0:
192,104,223375,2,0,P|228:128|276:136,1,87,8|0,0:0|0:0,0:0:0:0:
84,48,223720,6,0,B|52:128|52:128|60:232,1,174,2|8,0:0|0:0,0:0:0:0:
136,288,224237,1,0,0:0:0:0:
232,160,224409,1,0,0:0:0:0:
60,216,224582,1,2,0:0:0:0:
320,184,224754,2,0,P|320:136|300:104,1,87,8|0,0:0|0:0,0:0:0:0:
200,56,225099,37,2,0:0:0:0:
424,128,225272,1,0,0:0:0:0:
232,160,225444,2,0,P|180:156|132:168,1,87,8|0,0:0|0:0,0:0:0:0:
20,88,225789,1,0,0:0:0:0:
140,260,225961,1,2,0:0:0:0:
200,80,226134,1,8,0:0:0:0:
20,220,226306,1,0,0:0:0:0:
20,220,226392,1,0,0:0:0:0:
20,220,226478,6,0,B|64:200|64:200|104:192,1,87,2|0,0:0|0:0,0:0:0:0:
220,188,226823,1,8,0:0:0:0:
384,64,226996,2,0,B|340:132|340:132|348:236,1,174,0|2,0:0|0:0,0:0:0:0:
440,296,227513,1,8,0:0:0:0:
260,168,227685,1,0,0:0:0:0:
476,180,227858,6,0,P|432:176|384:196,1,87,2|0,0:0|0:0,0:0:0:0:
248,304,228203,1,8,0:0:0:0:
352,348,228375,1,0,0:0:0:0:
260,168,228547,1,0,0:0:0:0:
156,328,228720,1,2,0:0:0:0:
96,76,228892,1,8,0:0:0:0:
168,216,229065,1,0,0:0:0:0:
84,242,229237,6,0,B|64:170|64:170|96:74,1,174,2|8,0:0|0:0,0:0:0:0:
216,48,229754,1,0,0:0:0:0:
172,144,229927,1,0,0:0:0:0:
376,68,230099,1,2,0:0:0:0:
172,144,230272,2,0,P|216:156|256:144,1,87,8|0,0:0|0:0,0:0:0:0:
460,232,230616,38,0,P|416:220|376:228,1,87,2|0,0:0|0:0,0:0:0:0:
280,260,230961,1,8,0:0:0:0:
376,332,231134,1,0,0:0:0:0:
376,332,231220,1,0,0:0:0:0:
376,332,231306,1,0,0:0:0:0:
180,316,231478,1,2,0:0:0:0:
240,84,231651,2,0,P|228:144|256:208,1,130.5,12|0,0:0|0:0,0:0:0:0:
288,228,231996,6,0,P|308:188|296:144,1,87,6|0,0:0|0:0,0:0:0:0:
240,84,232340,1,8,0:0:0:0:
132,144,232513,1,0,0:0:0:0:
300,148,232685,1,0,0:0:0:0:
192,224,232858,1,2,0:0:0:0:
328,56,233030,2,0,P|368:72|408:116,1,87,8|0,0:0|0:0,0:0:0:0:
436,208,233375,5,2,0:0:0:0:
300,148,233547,1,0,0:0:0:0:
456,40,233720,2,0,P|476:84|480:128,1,87,8|0,0:0|0:0,0:0:0:0:
300,244,234065,1,0,0:0:0:0:
400,104,234237,1,2,0:0:0:0:
204,180,234409,1,8,0:0:0:0:
392,216,234582,1,0,0:0:0:0:
160,64,234754,6,0,B|112:116|112:116|88:220,1,174,2|8,0:0|0:0,0:0:0:0:
132,300,235272,1,0,0:0:0:0:
287,180,235444,2,0,B|243:156|195:184,1,87,0|2,0:0|0:0,0:0:0:0:
328,292,235789,38,0,P|392:212|392:136,1,174,8|2,0:0|0:0,0:0:0:0:
336,56,236306,1,0,0:0:0:0:
164,144,236478,1,8,0:0:0:0:
240,216,236651,1,0,0:0:0:0:
240,12,236823,1,0,0:0:0:0:
164,144,236996,1,2,0:0:0:0:
412,40,237168,1,8,0:0:0:0:
240,216,237340,1,0,0:0:0:0:
240,216,237427,1,0,0:0:0:0:
240,216,237513,6,0,B|208:248|208:248|168:272,1,87,2|0,0:0|0:0,0:0:0:0:
68,240,237858,1,8,0:0:0:0:
128,20,238030,1,0,0:0:0:0:
188,104,238203,1,0,0:0:0:0:
44,80,238375,1,2,0:0:0:0:
224,20,238547,2,0,P|260:48|276:92,1,87,8|0,0:0|0:0,0:0:0:0:
236,184,238892,5,2,0:0:0:0:
320,240,239065,1,0,0:0:0:0:
368,28,239237,1,8,0:0:0:0:
275,85,239409,1,0,0:0:0:0:
275,85,239496,1,0,0:0:0:0:
275,85,239582,1,0,0:0:0:0:
424,168,239754,1,2,0:0:0:0:
236,184,239927,2,0,P|192:156|176:112,1,87,8|0,0:0|0:0,0:0:0:0:
76,56,240272,6,0,B|56:120|56:120|72:232,1,174,2|8,0:0|0:0,0:0:0:0:
136,288,240789,1,0,0:0:0:0:
160,200,240961,1,0,0:0:0:0:
71,225,241134,1,2,0:0:0:0:
228,264,241306,2,0,P|252:224|248:180,1,87,8|0,0:0|0:0,0:0:0:0:
188,112,241651,5,0,3:0:0:0:
192,108,241737,1,0,3:0:0:0:
196,104,241823,1,0,3:0:0:0:
200,100,241909,1,0,3:0:0:0:
196,88,241996,5,2,0:0:0:0:
192,80,242082,1,2,0:0:0:0:
188,72,242168,1,2,0:0:0:0:
184,64,242254,1,2,0:0:0:0:
176,52,242340,5,8,3:2:0:0:
184,36,242427,1,8,3:2:0:0:
212,28,242513,1,8,3:2:0:0:
240,36,242599,1,8,3:2:0:0:
268,64,242685,5,8,0:3:0:0:
264,100,242772,1,8,0:3:0:0:
236,128,242858,1,8,0:3:0:0:
192,144,242944,1,8,0:3:0:0:
144,128,243030,2,0,P|100:120|56:132,1,87,6|0,0:0|0:0,0:0:0:0:
8,208,243375,5,8,0:0:0:0:
60,286,243547,2,0,P|92:198|60:130,1,174,0|2,0:0|0:0,0:0:0:0:
8,44,244065,1,8,0:0:0:0:
136,76,244237,1,0,0:0:0:0:
252,12,244409,38,0,B|324:32|324:32|432:24,1,174,2|8,0:0|0:0,0:0:0:0:
408,120,244927,1,0,0:0:0:0:
408,120,245013,1,0,0:0:0:0:
408,120,245099,1,0,0:0:0:0:
328,176,245272,1,2,0:0:0:0:
248,124,245444,6,0,P|220:204|256:296,1,174,8|2,0:0|0:0,0:0:0:0:
360,320,245961,1,0,0:0:0:0:
148,252,246134,2,0,P|108:240|64:252,1,87,8|0,0:0|0:0,0:0:0:0:
120,32,246478,1,0,0:0:0:0:
32,160,246651,1,2,0:0:0:0:
288,132,246823,2,0,P|280:80|252:44,1,87,8|0,0:0|0:0,0:0:0:0:
192,196,247168,5,2,0:0:0:0:
340,292,247340,1,0,0:0:0:0:
371,145,247513,2,0,P|327:129|283:133,1,87,8|0,0:0|0:0,0:0:0:0:
448,24,247858,1,0,0:0:0:0:
228,60,248030,1,2,0:0:0:0:
464,112,248203,1,8,0:0:0:0:
176,128,248375,1,0,0:0:0:0:
332,224,248547,6,0,P|360:176|304:84,1,174,2|8,0:0|0:0,0:0:0:0:
176,128,249065,1,0,0:0:0:0:
72,176,249237,1,0,0:0:0:0:
184,244,249409,1,2,0:0:0:0:
88,92,249582,2,0,P|72:132|72:176,1,87,8|0,0:0|0:0,0:0:0:0:
343,122,249927,38,0,B|291:102|291:102|147:134,1,174,2|8,0:0|0:0,0:0:0:0:
71,175,250444,1,0,0:0:0:0:
168,224,250616,1,0,0:0:0:0:
184,24,250789,1,2,0:0:0:0:
96,72,250961,1,8,0:0:0:0:
288,140,251134,1,0,0:0:0:0:
408,28,251306,37,2,0:0:0:0:
448,196,251478,1,0,0:0:0:0:
288,140,251651,2,0,P|284:88|300:48,1,87,8|0,0:0|0:0,0:0:0:0:
448,196,251996,1,0,0:0:0:0:
336,304,252168,1,2,0:0:0:0:
288,140,252340,2,0,P|324:116|372:108,1,87,8|0,0:0|0:0,0:0:0:0:
212,240,252685,38,0,P|176:272|132:284,1,87,2|0,0:0|0:0,0:0:0:0:
124,84,253030,2,0,P|160:60|212:48,1,87,8|0,0:0|0:0,0:0:0:0:
348,92,253375,5,0,0:0:0:0:
180,176,253547,1,2,0:0:0:0:
368,184,253720,1,8,0:0:0:0:
192,28,253892,1,8,0:0:0:0:
192,28,253978,1,8,0:0:0:0:
192,28,254065,6,0,B|124:44|124:44|40:112,1,174,6|8,0:0|0:0,0:0:0:0:
104,192,254582,1,0,0:0:0:0:
244,264,254754,1,0,0:0:0:0:
188,164,254927,1,2,0:0:0:0:
244,264,255099,2,0,B|276:232|276:232|300:184,1,87,8|0,0:0|0:0,0:0:0:0:
156,296,255444,6,0,P|192:336|308:332,1,174,2|8,0:0|0:0,0:0:0:0:
440,164,255961,1,0,0:0:0:0:
312,176,256134,1,0,0:0:0:0:
388,264,256306,1,2,0:0:0:0:
368,84,256478,2,0,P|324:76|280:84,1,87,8|0,0:0|0:0,0:0:0:0:
112,44,256823,37,2,0:0:0:0:
16,152,256996,1,0,0:0:0:0:
226,225,257168,2,0,L|210:130,1,87,8|0,0:0|0:0,0:0:0:0:
16,152,257513,1,0,0:0:0:0:
84,288,257685,1,2,0:0:0:0:
292,172,257858,2,0,L|201:135,1,87,8|0,0:0|0:0,0:0:0:0:
84,288,258203,5,2,0:0:0:0:
260,292,258375,1,0,0:0:0:0:
280,84,258547,2,0,L|204:145,1,87,8|0,0:0|0:0,0:0:0:0:
260,292,258892,1,0,0:0:0:0:
388,168,259065,1,2,0:0:0:0:
224,208,259237,1,8,0:0:0:0:
412,296,259409,1,0,0:0:0:0:
472,220,259582,6,0,P|472:128|404:72,1,174,2|8,0:0|0:0,0:0:0:0:
312,48,260099,1,0,0:0:0:0:
388,168,260272,1,0,0:0:0:0:
416,76,260444,1,2,0:0:0:0:
224,128,260616,1,8,0:0:0:0:
312,48,260789,1,0,0:0:0:0:
144,32,260961,6,0,B|112:112|112:112|128:208,1,174,2|8,0:0|0:0,0:0:0:0:
208,272,261478,1,0,0:0:0:0:
292,200,261651,2,0,P|316:240|320:300,2,87,0|2|8,0:0|0:0|0:0,0:0:0:0:
224,128,262168,2,0,L|232:60,1,43.5
296,44,262340,38,0,L|340:76,3,43.5,2|0|0|0,0:0|0:0|0:0|0:0,0:0:0:0:
396,28,262685,2,0,L|404:72,3,43.5,2|0|0|0,0:0|0:0|0:0|0:0,0:0:0:0:
484,80,263030,2,0,L|456:128,3,43.5,2|0|0|0,0:0|0:0|0:0|0:0,0:0:0:0:
496,188,263375,2,0,L|452:192,3,43.5,2|0|0|0,0:0|0:0|0:0|0:0,0:0:0:0:
412,200,263720,5,2,0:0:0:0:
204,216,263892,1,2,0:0:0:0:
184,40,264065,1,2,0:0:0:0:
388,16,264237,1,2,0:0:0:0:
412,200,264409,5,2,0:0:0:0:
384,176,264496,1,2,0:0:0:0:
352,168,264582,1,2,0:0:0:0:
320,180,264668,1,2,0:0:0:0:
284,204,264754,5,8,0:0:0:0:
244,216,264840,1,8,0:0:0:0:
200,204,264927,1,8,0:0:0:0:
176,168,265013,1,8,0:0:0:0:
176,124,265099,6,0,B|148:84|172:32|172:32|132:28|92:48,1,174,4|8,0:0|0:0,0:0:0:0:
32,144,265616,1,0,0:0:0:0:
120,216,265789,2,0,P|84:232|56:276,1,87
204,284,266134,2,0,P|244:264|264:224,1,87,8|0,0:0|0:0,0:0:0:0:
372,24,266478,38,0,B|360:88|360:88|388:204,1,174,0|8,0:0|0:0,0:0:0:0:
400,300,266996,1,0,0:0:0:0:
263,227,267168,2,0,P|231:187|227:151,2,87,0|0|8,0:0|0:0|0:0,0:0:0:0:
385,193,267685,1,0,0:0:0:0:
288,72,267858,6,0,P|200:68|132:124,1,174,0|8,0:0|0:0,0:0:0:0:
160,228,268375,1,0,0:0:0:0:
40,164,268547,2,0,P|32:120|48:76,1,87
160,228,268892,2,0,P|172:276|152:320,1,87,8|0,0:0|0:0,0:0:0:0:
344,272,269237,6,0,B|312:208|312:208|328:92,1,174,0|8,0:0|0:0,0:0:0:0:
416,36,269754,1,0,0:0:0:0:
224,68,269927,2,0,B|172:56|172:56|128:68,2,87,0|0|8,0:0|0:0|0:0,0:0:0:0:
328,108,270444,1,0,0:0:0:0:
140,216,270616,6,0,P|52:224|-20:176,1,174,0|8,0:0|0:0,0:0:0:0:
48,104,271134,1,0,0:0:0:0:
140,216,271306,2,0,P|156:256|152:300,1,87
48,104,271651,2,0,P|56:64|96:32,1,87,8|0,0:0|0:0,0:0:0:0:
320,108,271996,38,0,P|236:132|148:112,1,174,0|8,0:0|0:0,0:0:0:0:
89,34,272513,1,0,0:0:0:0:
44,144,272685,2,0,B|28:180|28:180|32:236,2,87,0|0|8,0:0|0:0|0:0,0:0:0:0:
89,34,273203,1,0,0:0:0:0:
208,76,273375,6,0,P|236:168|200:244,1,174,0|8,0:0|0:0,0:0:0:0:
100,272,273892,1,0,0:0:0:0:
208,236,274065,2,0,P|256:228|296:236,1,87
424,324,274409,2,0,P|380:336|328:320,1,87,8|0,0:0|0:0,0:0:0:0:
428,184,274754,5,0,0:0:0:0:
292,236,274927,1,0,0:0:0:0:
276,116,275099,1,8,0:0:0:0:
176,264,275272,1,0,0:0:0:0:
184,92,275444,1,0,0:0:0:0:
276,332,275616,1,0,0:0:0:0:
392,52,275789,2,8,L|288:36,1,87
184,92,276134,5,6,0:0:0:0:
224,184,276306,1,0,0:0:0:0:
92,124,276478,2,0,P|76:80|48:40,1,87,8|0,0:0|0:0,0:0:0:0:
24,176,276823,1,0,0:0:0:0:
232,36,276996,1,0,0:0:0:0:
288,120,277168,2,0,P|320:92|328:48,1,87,8|0,0:0|0:0,0:0:0:0:
432,204,277513,38,0,B|380:196|380:196|248:228,1,174,0|8,0:0|0:0,0:0:0:0:
176,300,278030,1,0,0:0:0:0:
140,200,278203,2,0,B|120:160|120:160|120:112,2,87,0|0|8,0:0|0:0|0:0,0:0:0:0:
52,276,278720,1,0,0:0:0:0:
140,200,278892,6,0,P|216:156|300:168,1,174,0|8,0:0|0:0,0:0:0:0:
368,268,279409,1,0,0:0:0:0:
436,132,279582,2,0,P|444:84|428:36,1,87
298,167,279927,2,0,P|282:207|298:263,1,87,8|0,0:0|0:0,0:0:0:0:
276,56,280272,6,0,B|212:80|212:80|108:64,1,174,0|8,0:0|0:0,0:0:0:0:
20,12,280789,1,0,0:0:0:0:
48,152,280961,2,0,P|32:200|36:240,2,87,0|0|8,0:0|0:0|0:0,0:0:0:0:
107,63,281478,1,0,0:0:0:0:
152,208,281651,6,0,B|204:228|204:228|336:208,1,174,0|8,0:0|0:0,0:0:0:0:
380,126,282168,1,0,0:0:0:0:
204,48,282340,2,0,P|188:92|200:144,1,87
360,24,282685,2,0,P|316:40|292:72,1,87,8|0,0:0|0:0,0:0:0:0:
388,284,283030,38,0,P|416:204|372:120,1,174,0|8,0:0|0:0,0:0:0:0:
292,72,283547,1,0,0:0:0:0:
68,136,283720,1,0,0:0:0:0:
248,156,283892,1,0,0:0:0:0:
128,56,284065,1,8,0:0:0:0:
168,228,284237,1,0,0:0:0:0:
256,328,284409,6,0,L|256:280,3,43.5,2|0|0|0,0:0|0:0|0:0|0:0,0:0:0:0:
340,256,284754,2,0,L|324:204,3,43.5,2|0|0|0,0:0|0:0|0:0|0:0,0:0:0:0:
388,152,285099,2,0,L|352:120,3,43.5,2|0|0|0,0:0|0:0|0:0|0:0,0:0:0:0:
316,56,285444,2,0,L|268:80,3,43.5,2|0|0|0,0:0|0:0|0:0|0:0,0:0:0:0:
104,320,285789,5,6,0:0:0:0:
144,36,285961,1,2,0:0:0:0:
288,172,286134,1,2,0:0:0:0:
28,96,286306,1,2,0:0:0:0:
284,32,286478,1,12,0:0:0:0:
248,264,286651,1,8,0:0:0:0:
52,228,286823,5,8,0:0:0:0:
284,32,286996,1,8,0:0:0:0:
336,308,287168,6,0,B|236:352|168:340|104:320|104:320|244:296|248:264|248:264|112:268|52:228|52:228|168:232|212:204|212:204|124:192|76:148|76:148|28:96|28:96|132:140|212:104|212:104|272:100|312:136|312:136|344:168|328:216,1,1348.5,14|0,0:0|0:0,0:0:0:0:
256,192,292685,12,0,297858,0:0:0:0:
256,192,298203,5,0,0:0:0:0:
256,192,298289,12,0,300616,0:0:0:0:
