osu file format v14

[General]
AudioFilename: audio.mp3
AudioLeadIn: 0
PreviewTime: 110474
Countdown: 1
SampleSet: Normal
StackLeniency: 0.7
Mode: 1
LetterboxInBreaks: 0
WidescreenStoryboard: 0

[Editor]
Bookmarks: 93923,99440,104957,107716
DistanceSpacing: 2
BeatDivisor: 4
GridSize: 4
TimelineZoom: 2.5

[Metadata]
Title:No More
TitleUnicode:No More
Artist:T & Sugah x Lexurus
ArtistUnicode:T & Sugah x Lexurus
Creator:Chromoxx
Version:Inner Oni
Source:
Tags:High Tea Music liquid dnb drum & and bass liquicity ozzyozrock
BeatmapID:1192690
BeatmapSetID:564110

[Difficulty]
HPDrainRate:6
CircleSize:5
OverallDifficulty:7
ApproachRate:5
SliderMultiplier:1.4
SliderTickRate:1

[Events]
//Background and Video events
0,0,"hey its Strategas' avatar.jpg",0,-100
//Break Periods
//Storyboard Layer 0 (Background)
//Storyboard Layer 1 (Fail)
//Storyboard Layer 2 (Pass)
//Storyboard Layer 3 (Foreground)
//Storyboard Sound Samples

[TimingPoints]
130,344.827586206897,4,1,0,50,1,0
20733,-100,4,1,0,80,0,0
44440,-100,4,1,0,50,0,0
48233,-100,4,1,0,70,0,0
49957,-100,4,1,0,50,0,0
53750,-100,4,1,0,70,0,0
54095,-100,4,1,0,60,0,0
55216,-100,4,1,0,80,0,0
88405,-100,4,1,0,90,0,1
107716,-100,4,1,0,90,0,0
110474,-100,4,1,0,90,0,1
132543,-100,4,1,0,90,0,0

[HitObjects]
256,192,19440,12,8,20647,0:0:0:0:
224,166,20819,5,0,0:0:0:0:
276,176,21509,5,8,0:0:0:0:
284,144,21595,1,8,0:0:0:0:
284,144,21681,1,0,0:0:0:0:
280,128,21854,1,8,0:0:0:0:
288,196,22026,1,0,0:0:0:0:
288,192,22198,1,4,0:0:0:0:
288,160,22543,1,8,0:0:0:0:
288,160,22888,1,8,0:0:0:0:
288,160,23233,1,8,0:0:0:0:
288,160,23578,1,8,0:0:0:0:
288,160,23923,1,8,0:0:0:0:
288,160,24267,1,8,0:0:0:0:
288,160,24612,1,8,0:0:0:0:
288,160,24957,1,8,0:0:0:0:
288,160,25302,1,8,0:0:0:0:
288,160,25647,1,8,0:0:0:0:
288,160,25992,1,8,0:0:0:0:
288,160,26336,1,8,0:0:0:0:
260,136,26509,1,8,0:0:0:0:
288,160,26681,1,8,0:0:0:0:
260,136,26854,1,8,0:0:0:0:
288,160,27026,1,8,0:0:0:0:
288,160,27198,1,8,0:0:0:0:
48,128,27285,1,8,0:0:0:0:
288,160,27371,1,8,0:0:0:0:
288,160,27543,1,8,0:0:0:0:
176,116,27716,1,4,0:0:0:0:
312,232,28061,1,8,0:0:0:0:
312,232,28405,1,8,0:0:0:0:
312,232,28750,1,8,0:0:0:0:
312,232,29095,1,8,0:0:0:0:
312,232,29440,1,8,0:0:0:0:
312,232,29785,1,8,0:0:0:0:
312,232,30130,1,8,0:0:0:0:
252,108,30474,1,8,0:0:0:0:
216,148,30647,1,8,0:0:0:0:
312,232,30819,1,8,0:0:0:0:
208,196,30992,1,8,0:0:0:0:
312,232,31164,1,8,0:0:0:0:
208,196,31336,1,8,0:0:0:0:
312,232,31509,1,8,0:0:0:0:
184,264,31681,1,8,0:0:0:0:
192,276,31767,1,8,0:0:0:0:
256,216,31854,1,8,0:0:0:0:
356,216,32026,1,0,0:0:0:0:
356,216,32198,1,8,0:0:0:0:
276,228,32371,1,0,0:0:0:0:
272,224,32457,1,0,0:0:0:0:
276,224,32543,1,0,0:0:0:0:
212,228,32716,1,0,0:0:0:0:
160,264,32802,1,0,0:0:0:0:
164,248,32888,1,8,0:0:0:0:
164,248,33061,1,8,0:0:0:0:
164,248,33233,1,4,0:0:0:0:
160,232,33578,1,8,0:0:0:0:
272,256,33750,1,0,0:0:0:0:
272,256,33836,1,0,0:0:0:0:
272,256,33923,1,8,0:0:0:0:
272,256,34095,1,0,0:0:0:0:
256,256,34267,1,8,0:0:0:0:
240,208,34612,1,8,0:0:0:0:
392,264,34785,1,0,0:0:0:0:
392,264,34957,1,8,0:0:0:0:
288,272,35130,1,0,0:0:0:0:
288,272,35302,1,8,0:0:0:0:
280,192,35474,1,0,0:0:0:0:
280,192,35561,1,0,0:0:0:0:
280,192,35647,1,8,0:0:0:0:
356,300,35819,1,0,0:0:0:0:
356,300,35992,1,8,0:0:0:0:
356,300,36336,1,8,0:0:0:0:
356,300,36681,1,8,0:0:0:0:
356,300,36854,1,0,0:0:0:0:
356,300,37026,1,8,0:0:0:0:
256,256,37198,1,0,0:0:0:0:
256,256,37371,1,8,0:0:0:0:
256,268,37543,1,8,0:0:0:0:
256,268,37716,1,8,0:0:0:0:
256,268,37888,1,8,0:0:0:0:
256,268,38061,1,8,0:0:0:0:
212,240,38233,1,0,0:0:0:0:
316,268,38319,1,0,0:0:0:0:
174,218,38405,1,8,0:0:0:0:
182,213,38578,1,8,0:0:0:0:
218,157,38750,1,4,0:0:0:0:
261,237,39095,1,8,0:0:0:0:
261,237,39267,1,0,0:0:0:0:
261,237,39354,1,0,0:0:0:0:
261,237,39440,1,8,0:0:0:0:
261,237,39612,1,0,0:0:0:0:
261,237,39785,1,8,0:0:0:0:
257,231,40130,1,8,0:0:0:0:
414,253,40302,1,0,0:0:0:0:
347,268,40474,1,8,0:0:0:0:
265,168,40647,1,0,0:0:0:0:
265,168,40733,1,0,0:0:0:0:
265,168,40819,1,0,0:0:0:0:
265,168,40992,1,0,0:0:0:0:
265,168,41078,1,0,0:0:0:0:
265,168,41164,1,8,0:0:0:0:
265,168,41336,1,8,0:0:0:0:
265,168,41509,1,0,0:0:0:0:
310,258,41681,1,0,0:0:0:0:
310,258,41854,1,8,0:0:0:0:
310,249,42026,1,0,0:0:0:0:
190,284,42198,1,8,0:0:0:0:
239,243,42371,1,0,0:0:0:0:
211,275,42543,1,8,0:0:0:0:
224,259,42716,1,0,0:0:0:0:
195,258,42802,1,0,0:0:0:0:
195,256,42888,1,8,0:0:0:0:
300,168,43061,1,8,0:0:0:0:
300,168,43233,1,8,0:0:0:0:
300,168,43405,1,8,0:0:0:0:
300,168,43578,1,8,0:0:0:0:
298,162,43664,1,8,0:0:0:0:
298,162,43750,1,0,0:0:0:0:
298,161,43923,1,8,0:0:0:0:
350,254,44095,1,0,0:0:0:0:
344,249,44267,1,4,0:0:0:0:
256,192,44440,12,0,48061,0:0:0:0:
363,237,48405,5,0,0:0:0:0:
363,237,49785,1,8,0:0:0:0:
256,192,49957,12,0,53578,0:0:0:0:
375,220,53923,5,0,0:0:0:0:
256,192,54095,12,0,55130,0:0:0:0:
293,169,55302,5,0,0:0:0:0:
282,143,55647,1,8,0:0:0:0:
293,169,55992,1,0,0:0:0:0:
282,143,56336,1,8,0:0:0:0:
293,169,56681,1,0,0:0:0:0:
282,143,57026,1,8,0:0:0:0:
293,169,57371,1,0,0:0:0:0:
282,143,57716,1,8,0:0:0:0:
293,169,58061,1,0,0:0:0:0:
282,143,58405,1,0,0:0:0:0:
293,169,58750,1,0,0:0:0:0:
282,143,59095,1,0,0:0:0:0:
293,169,59440,1,0,0:0:0:0:
293,169,59785,1,0,0:0:0:0:
293,169,60130,1,0,0:0:0:0:
293,169,60474,1,0,0:0:0:0:
159,160,60819,1,0,0:0:0:0:
159,160,60992,1,0,0:0:0:0:
303,201,61164,1,0,0:0:0:0:
303,201,61336,1,0,0:0:0:0:
303,201,61509,1,0,0:0:0:0:
303,201,61681,1,0,0:0:0:0:
303,201,61854,1,0,0:0:0:0:
303,201,62026,1,0,0:0:0:0:
303,201,62198,1,0,0:0:0:0:
303,201,62371,1,0,0:0:0:0:
303,201,62543,1,0,0:0:0:0:
303,201,62716,1,0,0:0:0:0:
303,201,62888,1,0,0:0:0:0:
303,201,63061,1,0,0:0:0:0:
303,201,63233,1,0,0:0:0:0:
303,201,63405,1,0,0:0:0:0:
298,228,63578,1,0,0:0:0:0:
298,228,63664,1,0,0:0:0:0:
298,228,63750,1,0,0:0:0:0:
298,228,63836,1,0,0:0:0:0:
298,228,63923,1,0,0:0:0:0:
298,228,64009,1,0,0:0:0:0:
298,228,64095,1,0,0:0:0:0:
298,228,64181,1,0,0:0:0:0:
299,224,64267,1,0,0:0:0:0:
299,224,64354,1,0,0:0:0:0:
299,224,64440,1,0,0:0:0:0:
298,228,64526,1,0,0:0:0:0:
298,228,64612,1,0,0:0:0:0:
298,228,64698,1,0,0:0:0:0:
298,228,64785,1,0,0:0:0:0:
298,228,64871,1,0,0:0:0:0:
298,228,64957,1,8,0:0:0:0:
306,212,65130,1,0,0:0:0:0:
306,212,65216,1,0,0:0:0:0:
306,212,65302,1,8,0:0:0:0:
306,212,65388,1,0,0:0:0:0:
306,212,65474,1,8,0:0:0:0:
306,212,65561,1,0,0:0:0:0:
306,212,65647,1,8,0:0:0:0:
306,212,65733,1,8,0:0:0:0:
306,212,65819,1,0,0:0:0:0:
306,212,65905,1,0,0:0:0:0:
306,212,65992,1,8,0:0:0:0:
306,212,66164,1,8,0:0:0:0:
306,212,66336,1,4,0:0:0:0:
304,204,66681,1,8,0:0:0:0:
344,200,66854,1,0,0:0:0:0:
344,200,66940,1,0,0:0:0:0:
272,268,67026,1,0,0:0:0:0:
344,200,67198,1,0,0:0:0:0:
344,200,67371,1,8,0:0:0:0:
344,200,67543,1,0,0:0:0:0:
320,260,67716,1,8,0:0:0:0:
320,260,67888,1,0,0:0:0:0:
320,260,67974,1,0,0:0:0:0:
320,260,68061,1,0,0:0:0:0:
272,224,68233,1,8,0:0:0:0:
280,188,68405,1,0,0:0:0:0:
240,240,68492,1,0,0:0:0:0:
240,240,68578,1,8,0:0:0:0:
240,240,68750,1,0,0:0:0:0:
240,220,68923,1,8,0:0:0:0:
164,168,69009,1,8,0:0:0:0:
200,228,69095,1,0,0:0:0:0:
228,204,69440,1,8,0:0:0:0:
288,212,69612,1,0,0:0:0:0:
292,212,69698,1,0,0:0:0:0:
272,232,69785,1,8,0:0:0:0:
272,232,69957,1,0,0:0:0:0:
272,232,70130,1,8,0:0:0:0:
272,232,70302,1,8,0:0:0:0:
272,232,70474,1,0,0:0:0:0:
272,216,70647,1,8,0:0:0:0:
272,216,70733,1,8,0:0:0:0:
272,216,70819,1,8,0:0:0:0:
264,212,70992,1,0,0:0:0:0:
264,196,71164,1,8,0:0:0:0:
264,196,71250,1,8,0:0:0:0:
132,228,71336,1,0,0:0:0:0:
132,228,71509,1,8,0:0:0:0:
244,288,71681,1,0,0:0:0:0:
244,288,71854,1,12,0:0:0:0:
272,244,72198,1,8,0:0:0:0:
272,244,72371,1,0,0:0:0:0:
272,244,72457,1,0,0:0:0:0:
272,244,72543,1,0,0:0:0:0:
236,264,72716,1,0,0:0:0:0:
236,264,72888,1,8,0:0:0:0:
236,264,72974,1,8,0:0:0:0:
236,264,73061,1,0,0:0:0:0:
236,264,73233,1,8,0:0:0:0:
236,264,73405,1,0,0:0:0:0:
236,264,73492,1,0,0:0:0:0:
236,264,73578,1,0,0:0:0:0:
240,260,73750,1,8,0:0:0:0:
240,260,73923,1,0,0:0:0:0:
240,260,74009,1,0,0:0:0:0:
240,260,74095,1,8,0:0:0:0:
224,228,74267,1,0,0:0:0:0:
224,228,74440,1,8,0:0:0:0:
224,228,74526,1,8,0:0:0:0:
224,228,74612,1,0,0:0:0:0:
244,232,74698,1,0,0:0:0:0:
224,228,74785,1,8,0:0:0:0:
296,228,74957,1,0,0:0:0:0:
296,228,75130,1,8,0:0:0:0:
296,228,75302,1,0,0:0:0:0:
272,184,75388,1,0,0:0:0:0:
272,184,75474,1,8,0:0:0:0:
280,224,75647,1,0,0:0:0:0:
280,224,75733,1,0,0:0:0:0:
280,224,75819,1,8,0:0:0:0:
177,194,75905,1,8,0:0:0:0:
177,194,75992,1,0,0:0:0:0:
280,224,76164,1,8,0:0:0:0:
224,268,76336,1,0,0:0:0:0:
274,178,76509,1,8,0:0:0:0:
274,178,76595,1,8,0:0:0:0:
274,178,76681,1,0,0:0:0:0:
272,171,76854,1,8,0:0:0:0:
187,194,76940,1,0,0:0:0:0:
269,160,77026,1,8,0:0:0:0:
187,182,77198,1,8,0:0:0:0:
187,182,77371,1,4,0:0:0:0:
320,235,77716,1,8,0:0:0:0:
320,235,77888,1,0,0:0:0:0:
342,181,77974,1,0,0:0:0:0:
342,181,78061,1,8,0:0:0:0:
342,181,78147,1,8,0:0:0:0:
342,181,78233,1,0,0:0:0:0:
342,181,78405,1,8,0:0:0:0:
342,181,78578,1,0,0:0:0:0:
342,181,78664,1,0,0:0:0:0:
342,181,78750,1,8,0:0:0:0:
332,293,78923,1,0,0:0:0:0:
327,283,79009,1,0,0:0:0:0:
326,283,79095,1,0,0:0:0:0:
326,281,79181,1,0,0:0:0:0:
232,285,79267,1,8,0:0:0:0:
232,285,79440,1,0,0:0:0:0:
232,305,79612,1,8,0:0:0:0:
230,294,79698,1,8,0:0:0:0:
230,294,79785,1,0,0:0:0:0:
226,299,79957,1,8,0:0:0:0:
226,299,80130,1,0,0:0:0:0:
275,256,80474,1,8,0:0:0:0:
275,256,80647,1,0,0:0:0:0:
275,256,80733,1,0,0:0:0:0:
275,256,80819,1,8,0:0:0:0:
275,256,80992,1,0,0:0:0:0:
275,256,81164,1,8,0:0:0:0:
275,256,81250,1,0,0:0:0:0:
275,256,81336,1,8,0:0:0:0:
275,256,81423,1,8,0:0:0:0:
276,263,81509,1,0,0:0:0:0:
275,256,81681,1,8,0:0:0:0:
249,287,81854,1,0,0:0:0:0:
249,287,81940,1,0,0:0:0:0:
249,287,82026,1,0,0:0:0:0:
236,286,82198,1,8,0:0:0:0:
236,286,82285,1,8,0:0:0:0:
236,286,82371,1,0,0:0:0:0:
236,286,82457,1,0,0:0:0:0:
236,286,82543,1,8,0:0:0:0:
236,286,82716,1,0,0:0:0:0:
236,286,82888,1,12,0:0:0:0:
286,254,83233,1,8,0:0:0:0:
290,239,83405,1,0,0:0:0:0:
290,238,83492,1,0,0:0:0:0:
289,239,83578,1,8,0:0:0:0:
289,239,83750,1,0,0:0:0:0:
289,239,83923,1,8,0:0:0:0:
287,238,84009,1,0,0:0:0:0:
289,239,84095,1,8,0:0:0:0:
281,232,84267,1,0,0:0:0:0:
281,231,84354,1,0,0:0:0:0:
281,232,84440,1,0,0:0:0:0:
281,231,84526,1,0,0:0:0:0:
281,231,84612,1,8,0:0:0:0:
202,155,84785,1,0,0:0:0:0:
202,155,84871,1,0,0:0:0:0:
202,155,84957,1,8,0:0:0:0:
202,147,85043,1,0,0:0:0:0:
202,147,85130,1,8,0:0:0:0:
201,147,85302,1,0,0:0:0:0:
357,254,85474,1,8,0:0:0:0:
357,254,85561,1,8,0:0:0:0:
337,235,85647,1,0,0:0:0:0:
330,226,85819,1,0,0:0:0:0:
330,226,85905,1,0,0:0:0:0:
330,226,85992,1,8,0:0:0:0:
330,226,86164,1,0,0:0:0:0:
330,226,86336,1,0,0:0:0:0:
330,226,86423,1,8,0:0:0:0:
330,226,86509,1,8,0:0:0:0:
314,227,86681,1,0,0:0:0:0:
314,227,86767,1,0,0:0:0:0:
293,204,86854,1,8,0:0:0:0:
133,173,86940,1,8,0:0:0:0:
140,174,87026,1,0,0:0:0:0:
255,243,87198,1,0,0:0:0:0:
255,243,87285,1,0,0:0:0:0:
218,195,87371,1,8,0:0:0:0:
214,184,87543,1,0,0:0:0:0:
227,234,87716,1,8,0:0:0:0:
236,177,87802,1,0,0:0:0:0:
235,177,87888,1,8,0:0:0:0:
235,177,87974,1,8,0:0:0:0:
235,177,88061,1,0,0:0:0:0:
218,173,88147,1,0,0:0:0:0:
218,172,88233,1,8,0:0:0:0:
173,213,88405,1,4,0:0:0:0:
329,208,88750,1,8,0:0:0:0:
328,253,88923,1,0,0:0:0:0:
328,253,89009,1,0,0:0:0:0:
328,253,89095,1,8,0:0:0:0:
328,253,89267,1,0,0:0:0:0:
328,253,89440,1,8,0:0:0:0:
330,248,89612,1,8,0:0:0:0:
330,248,89785,1,0,0:0:0:0:
311,290,89957,1,0,0:0:0:0:
317,281,90043,1,0,0:0:0:0:
317,281,90130,1,8,0:0:0:0:
317,281,90302,1,0,0:0:0:0:
314,282,90474,1,8,0:0:0:0:
310,264,90561,1,0,0:0:0:0:
310,263,90647,1,8,0:0:0:0:
229,216,90733,1,8,0:0:0:0:
309,263,90819,1,0,0:0:0:0:
310,263,90992,1,8,0:0:0:0:
272,225,91164,1,4,0:0:0:0:
365,291,91336,1,0,0:0:0:0:
322,194,91509,1,8,0:0:0:0:
272,204,91681,1,0,0:0:0:0:
280,200,91767,1,0,0:0:0:0:
280,200,91854,1,8,0:0:0:0:
277,208,92026,1,0,0:0:0:0:
274,208,92198,1,8,0:0:0:0:
235,239,92285,1,0,0:0:0:0:
274,208,92371,1,8,0:0:0:0:
208,246,92543,1,0,0:0:0:0:
208,246,92716,1,8,0:0:0:0:
208,246,92802,5,8,0:0:0:0:
208,246,92888,1,0,0:0:0:0:
208,246,93061,1,8,0:0:0:0:
208,246,93233,1,0,0:0:0:0:
214,229,93319,1,0,0:0:0:0:
214,229,93405,1,8,0:0:0:0:
212,229,93578,1,8,0:0:0:0:
209,231,93750,1,0,0:0:0:0:
280,280,93923,1,4,0:0:0:0:
252,276,94095,1,0,0:0:0:0:
332,252,94267,1,8,0:0:0:0:
324,240,94354,1,8,0:0:0:0:
316,160,94440,1,0,0:0:0:0:
316,160,94612,1,8,0:0:0:0:
160,224,94785,1,0,0:0:0:0:
400,288,94871,1,0,0:0:0:0:
368,256,94957,1,8,0:0:0:0:
368,256,95043,1,0,0:0:0:0:
368,256,95130,1,8,0:0:0:0:
256,216,95302,1,0,0:0:0:0:
276,232,95474,1,0,0:0:0:0:
152,264,95561,1,0,0:0:0:0:
152,252,95647,1,8,0:0:0:0:
180,108,95733,1,8,0:0:0:0:
180,108,95819,1,0,0:0:0:0:
180,108,95992,1,8,0:0:0:0:
180,108,96078,1,0,0:0:0:0:
180,108,96164,1,8,0:0:0:0:
180,108,96250,1,8,0:0:0:0:
180,108,96336,1,0,0:0:0:0:
180,108,96423,1,0,0:0:0:0:
180,108,96509,1,8,0:0:0:0:
209,262,96681,5,4,0:0:0:0:
184,242,96854,1,0,0:0:0:0:
246,258,96940,1,0,0:0:0:0:
246,258,97026,1,8,0:0:0:0:
246,258,97198,1,0,0:0:0:0:
246,258,97371,1,8,0:0:0:0:
240,254,97457,1,8,0:0:0:0:
240,254,97543,1,0,0:0:0:0:
240,254,97716,1,8,0:0:0:0:
240,253,97888,1,0,0:0:0:0:
240,253,97974,1,0,0:0:0:0:
240,253,98061,1,8,0:0:0:0:
204,267,98147,1,0,0:0:0:0:
204,267,98233,1,8,0:0:0:0:
240,254,98405,1,0,0:0:0:0:
213,182,98578,1,8,0:0:0:0:
213,182,98664,1,8,0:0:0:0:
213,182,98750,1,0,0:0:0:0:
213,182,98836,1,0,0:0:0:0:
213,182,98923,1,8,0:0:0:0:
232,280,99095,1,8,0:0:0:0:
214,304,99267,1,0,0:0:0:0:
218,275,99440,5,4,0:0:0:0:
105,261,99612,1,0,0:0:0:0:
105,261,99698,1,0,0:0:0:0:
105,261,99785,1,8,0:0:0:0:
111,226,99957,1,0,0:0:0:0:
131,224,100043,1,0,0:0:0:0:
127,229,100130,1,8,0:0:0:0:
323,236,100216,1,0,0:0:0:0:
323,236,100302,1,8,0:0:0:0:
323,236,100388,1,8,0:0:0:0:
323,236,100474,1,0,0:0:0:0:
253,282,100647,1,8,0:0:0:0:
253,282,100819,1,0,0:0:0:0:
253,282,100905,1,0,0:0:0:0:
253,282,100992,1,8,0:0:0:0:
253,282,101164,5,0,0:0:0:0:
253,282,101336,1,8,0:0:0:0:
253,282,101423,1,0,0:0:0:0:
197,192,101509,1,8,0:0:0:0:
203,184,101595,1,8,0:0:0:0:
205,179,101681,1,0,0:0:0:0:
123,178,101767,1,8,0:0:0:0:
203,176,101854,1,0,0:0:0:0:
201,175,101940,1,0,0:0:0:0:
201,175,102026,1,8,0:0:0:0:
218,275,102198,5,4,0:0:0:0:
134,199,102371,1,0,0:0:0:0:
133,240,102457,1,0,0:0:0:0:
212,247,102543,1,8,0:0:0:0:
295,241,102716,1,0,0:0:0:0:
295,241,102802,1,0,0:0:0:0:
295,241,102888,1,8,0:0:0:0:
133,240,102974,1,8,0:0:0:0:
295,241,103061,1,0,0:0:0:0:
295,241,103233,1,8,0:0:0:0:
140,304,103319,1,8,0:0:0:0:
140,304,103405,1,0,0:0:0:0:
295,241,103492,1,8,0:0:0:0:
295,241,103578,1,0,0:0:0:0:
137,272,103664,1,0,0:0:0:0:
235,258,103750,1,8,0:0:0:0:
229,167,103923,1,0,0:0:0:0:
229,167,104009,1,0,0:0:0:0:
229,167,104095,1,8,0:0:0:0:
126,312,104267,1,0,0:0:0:0:
135,208,104354,1,0,0:0:0:0:
229,167,104440,1,8,0:0:0:0:
326,204,104526,1,0,0:0:0:0:
326,204,104612,1,8,0:0:0:0:
326,204,104698,1,8,0:0:0:0:
326,204,104785,1,0,0:0:0:0:
228,212,104957,5,4,0:0:0:0:
189,176,105130,1,8,0:0:0:0:
214,177,105216,1,0,0:0:0:0:
214,177,105302,1,8,0:0:0:0:
220,171,105388,1,8,0:0:0:0:
220,170,105474,1,0,0:0:0:0:
220,170,105561,1,0,0:0:0:0:
220,169,105647,1,8,0:0:0:0:
207,101,105733,1,0,0:0:0:0:
207,101,105819,1,8,0:0:0:0:
170,248,105905,1,8,0:0:0:0:
170,247,105992,1,0,0:0:0:0:
170,247,106078,1,0,0:0:0:0:
170,245,106164,1,8,0:0:0:0:
228,210,106336,1,4,0:0:0:0:
219,251,106509,1,8,0:0:0:0:
286,174,106595,1,0,0:0:0:0:
286,174,106681,1,8,0:0:0:0:
286,174,106767,1,8,0:0:0:0:
286,174,106854,1,0,0:0:0:0:
286,174,106940,1,0,0:0:0:0:
286,174,107026,1,8,0:0:0:0:
286,174,107112,1,8,0:0:0:0:
286,174,107198,1,0,0:0:0:0:
286,174,107285,1,8,0:0:0:0:
286,174,107371,1,0,0:0:0:0:
286,174,107457,1,0,0:0:0:0:
286,174,107543,1,8,0:0:0:0:
264,223,107716,5,0,0:0:0:0:
262,216,107802,1,0,0:0:0:0:
262,214,107888,1,8,0:0:0:0:
262,214,107974,1,0,0:0:0:0:
262,213,108061,1,8,0:0:0:0:
262,212,108147,1,0,0:0:0:0:
262,212,108233,1,8,0:0:0:0:
262,212,108319,1,8,0:0:0:0:
262,212,108405,1,0,0:0:0:0:
359,270,108492,1,0,0:0:0:0:
314,263,108578,1,8,0:0:0:0:
255,237,108664,1,0,0:0:0:0:
255,237,108750,1,8,0:0:0:0:
255,237,108836,1,8,0:0:0:0:
255,237,108923,1,0,0:0:0:0:
255,237,109009,1,0,0:0:0:0:
298,209,109095,1,8,0:0:0:0:
298,209,109181,1,0,0:0:0:0:
298,209,109267,1,8,0:0:0:0:
290,268,109354,1,8,0:0:0:0:
254,274,109440,1,0,0:0:0:0:
298,209,109526,1,8,0:0:0:0:
254,274,109612,1,8,0:0:0:0:
298,209,109698,1,8,0:0:0:0:
254,274,109785,1,0,0:0:0:0:
250,264,109871,1,0,0:0:0:0:
245,236,109957,1,8,0:0:0:0:
244,236,110043,1,0,0:0:0:0:
245,236,110130,1,8,0:0:0:0:
245,236,110216,1,8,0:0:0:0:
245,236,110302,1,0,0:0:0:0:
223,240,110474,1,4,0:0:0:0:
239,205,110819,1,8,0:0:0:0:
311,184,110992,1,0,0:0:0:0:
311,184,111078,1,0,0:0:0:0:
311,184,111164,1,8,0:0:0:0:
311,184,111250,1,0,0:0:0:0:
311,184,111336,1,8,0:0:0:0:
285,263,111509,1,0,0:0:0:0:
285,263,111681,1,8,0:0:0:0:
285,256,111767,1,8,0:0:0:0:
286,249,111854,1,0,0:0:0:0:
286,249,112026,1,0,0:0:0:0:
285,244,112112,1,0,0:0:0:0:
284,244,112198,1,8,0:0:0:0:
284,243,112371,1,0,0:0:0:0:
234,254,112457,1,0,0:0:0:0:
221,257,112543,1,0,0:0:0:0:
221,255,112630,1,0,0:0:0:0:
221,255,112716,1,8,0:0:0:0:
213,233,112888,1,0,0:0:0:0:
213,233,113061,1,8,0:0:0:0:
213,231,113147,1,8,0:0:0:0:
213,231,113233,1,0,0:0:0:0:
213,231,113578,1,8,0:0:0:0:
214,215,113750,1,0,0:0:0:0:
214,215,113836,1,8,0:0:0:0:
97,170,113923,1,0,0:0:0:0:
395,240,114095,1,8,0:0:0:0:
395,240,114267,1,0,0:0:0:0:
395,240,114354,1,0,0:0:0:0:
337,275,114440,1,8,0:0:0:0:
337,275,114612,1,0,0:0:0:0:
275,319,114698,1,0,0:0:0:0:
275,319,114785,1,0,0:0:0:0:
275,319,114871,1,0,0:0:0:0:
275,319,114957,1,8,0:0:0:0:
275,319,115130,1,0,0:0:0:0:
203,302,115216,1,0,0:0:0:0:
203,302,115302,1,8,0:0:0:0:
250,280,115388,1,0,0:0:0:0:
250,280,115474,1,8,0:0:0:0:
237,248,115561,1,8,0:0:0:0:
237,248,115647,1,0,0:0:0:0:
237,248,115819,1,8,0:0:0:0:
237,248,115992,1,4,0:0:0:0:
216,335,116336,1,8,0:0:0:0:
216,335,116509,1,0,0:0:0:0:
216,335,116595,1,0,0:0:0:0:
216,335,116681,1,0,0:0:0:0:
216,335,116854,1,8,0:0:0:0:
216,335,117026,1,0,0:0:0:0:
146,274,117112,1,0,0:0:0:0:
146,274,117198,1,8,0:0:0:0:
146,274,117371,1,0,0:0:0:0:
146,274,117543,1,8,0:0:0:0:
146,274,117630,1,8,0:0:0:0:
150,269,117716,1,0,0:0:0:0:
152,267,117802,1,0,0:0:0:0:
153,267,117888,1,8,0:0:0:0:
152,267,118061,1,0,0:0:0:0:
152,267,118233,1,8,0:0:0:0:
152,267,118319,1,0,0:0:0:0:
154,266,118405,1,8,0:0:0:0:
154,266,118492,1,8,0:0:0:0:
155,267,118578,1,0,0:0:0:0:
156,291,118664,1,8,0:0:0:0:
159,275,118750,1,0,0:0:0:0:
155,291,119095,1,8,0:0:0:0:
258,237,119267,1,0,0:0:0:0:
258,237,119354,1,0,0:0:0:0:
258,237,119440,1,0,0:0:0:0:
258,237,119526,1,0,0:0:0:0:
240,256,119612,1,8,0:0:0:0:
240,256,119785,1,0,0:0:0:0:
249,263,119957,1,8,0:0:0:0:
253,263,120043,1,8,0:0:0:0:
182,253,120130,1,0,0:0:0:0:
182,253,120302,1,0,0:0:0:0:
182,253,120388,1,0,0:0:0:0:
182,253,120474,1,8,0:0:0:0:
182,253,120647,1,0,0:0:0:0:
182,253,120819,1,8,0:0:0:0:
191,206,120905,1,0,0:0:0:0:
191,206,120992,1,8,0:0:0:0:
191,200,121078,1,8,0:0:0:0:
191,200,121164,1,0,0:0:0:0:
236,220,121250,1,0,0:0:0:0:
191,198,121336,1,8,0:0:0:0:
197,169,121509,1,4,0:0:0:0:
141,159,121854,1,8,0:0:0:0:
227,133,121940,1,8,0:0:0:0:
216,160,122026,1,0,0:0:0:0:
214,159,122112,1,8,0:0:0:0:
214,156,122198,1,0,0:0:0:0:
214,156,122371,1,8,0:0:0:0:
214,155,122543,1,0,0:0:0:0:
214,155,122630,1,0,0:0:0:0:
214,155,122716,1,8,0:0:0:0:
209,232,122888,1,0,0:0:0:0:
191,136,123061,1,8,0:0:0:0:
191,136,123147,1,0,0:0:0:0:
191,136,123233,1,8,0:0:0:0:
191,136,123319,1,8,0:0:0:0:
191,136,123405,1,0,0:0:0:0:
289,205,123492,1,8,0:0:0:0:
289,205,123578,1,0,0:0:0:0:
224,253,123750,1,0,0:0:0:0:
243,177,123836,1,0,0:0:0:0:
231,167,123923,1,8,0:0:0:0:
231,168,124095,1,8,0:0:0:0:
259,136,124267,1,0,0:0:0:0:
259,136,124440,1,0,0:0:0:0:
259,136,124526,1,0,0:0:0:0:
254,131,124612,1,0,0:0:0:0:
259,136,124698,1,0,0:0:0:0:
225,171,124785,1,8,0:0:0:0:
225,168,124957,1,0,0:0:0:0:
224,159,125130,1,8,0:0:0:0:
160,224,125216,1,0,0:0:0:0:
225,154,125302,1,8,0:0:0:0:
225,154,125474,1,0,0:0:0:0:
225,154,125561,1,8,0:0:0:0:
225,194,125647,1,0,0:0:0:0:
290,163,125819,1,8,0:0:0:0:
290,163,125905,1,0,0:0:0:0:
290,163,125992,1,8,0:0:0:0:
290,163,126078,1,8,0:0:0:0:
290,163,126164,1,0,0:0:0:0:
290,163,126250,1,0,0:0:0:0:
290,163,126336,1,8,0:0:0:0:
257,207,126509,1,0,0:0:0:0:
257,207,126595,1,0,0:0:0:0:
257,207,126681,1,8,0:0:0:0:
238,216,126767,1,0,0:0:0:0:
257,207,126854,1,8,0:0:0:0:
229,206,127026,1,4,0:0:0:0:
219,226,127371,1,8,0:0:0:0:
234,199,127457,1,0,0:0:0:0:
235,199,127543,1,8,0:0:0:0:
392,287,127716,1,0,0:0:0:0:
392,287,127802,1,0,0:0:0:0:
393,280,127888,1,8,0:0:0:0:
393,277,127974,1,0,0:0:0:0:
393,277,128061,1,8,0:0:0:0:
393,277,128147,1,8,0:0:0:0:
393,277,128233,1,0,0:0:0:0:
320,285,128405,1,8,0:0:0:0:
378,235,128578,1,0,0:0:0:0:
378,235,128664,1,0,0:0:0:0:
378,235,128750,1,8,0:0:0:0:
378,235,128836,1,0,0:0:0:0:
378,235,128923,1,8,0:0:0:0:
378,235,129095,1,0,0:0:0:0:
342,214,129267,1,8,0:0:0:0:
342,214,129354,1,0,0:0:0:0:
290,256,129440,1,8,0:0:0:0:
290,256,129526,1,8,0:0:0:0:
290,256,129612,1,0,0:0:0:0:
290,256,129698,1,0,0:0:0:0:
290,256,129785,1,8,0:0:0:0:
290,256,129957,1,0,0:0:0:0:
238,240,130043,1,0,0:0:0:0:
182,180,130130,1,8,0:0:0:0:
182,180,130302,1,8,0:0:0:0:
209,182,130388,1,0,0:0:0:0:
209,182,130474,1,8,0:0:0:0:
209,182,130561,1,8,0:0:0:0:
209,182,130647,1,0,0:0:0:0:
207,175,130819,1,8,0:0:0:0:
192,189,130905,1,0,0:0:0:0:
215,187,130992,1,8,0:0:0:0:
191,189,131164,1,0,0:0:0:0:
206,175,131250,1,0,0:0:0:0:
206,175,131336,1,0,0:0:0:0:
206,175,131423,1,0,0:0:0:0:
206,175,131509,1,8,0:0:0:0:
206,175,131595,1,0,0:0:0:0:
207,175,131681,1,0,0:0:0:0:
207,175,131767,1,8,0:0:0:0:
214,165,131854,1,0,0:0:0:0:
212,158,132026,1,0,0:0:0:0:
220,155,132112,1,0,0:0:0:0:
220,155,132198,1,8,0:0:0:0:
220,155,132543,1,4,0:0:0:0:
256,192,132716,12,0,133923,0:0:0:0:
