osu file format v14

[General]
AudioFilename: audio.mp3
AudioLeadIn: 0
PreviewTime: 110474
Countdown: 1
SampleSet: Normal
StackLeniency: 0.7
Mode: 1
LetterboxInBreaks: 0
WidescreenStoryboard: 1

[Editor]
Bookmarks: 93923,99440,104957,107716
DistanceSpacing: 2
BeatDivisor: 4
GridSize: 4
TimelineZoom: 1.8

[Metadata]
Title:No More
TitleUnicode:No More
Artist:T & Sugah x Lexurus
ArtistUnicode:T & Sugah x Lexurus
Creator:Chromoxx
Version:Futsuu
Source:
Tags:High Tea Music liquid dnb drum & and bass liquicity ozzyozrock
BeatmapID:1196430
BeatmapSetID:564110

[Difficulty]
HPDrainRate:7
CircleSize:5
OverallDifficulty:4
ApproachRate:5
SliderMultiplier:1.4
SliderTickRate:1

[Events]
//Background and Video events
0,0,"hey its Strategas' avatar.jpg",0,-100
//Break Periods
2,44467,52723
//Storyboard Layer 0 (Background)
//Storyboard Layer 1 (Fail)
//Storyboard Layer 2 (Pass)
//Storyboard Layer 3 (Foreground)
//Storyboard Sound Samples

[TimingPoints]
130,344.827586206897,4,1,0,50,1,0
20733,-100,4,1,0,80,0,0
44440,-100,4,1,0,50,0,0
55216,-100,4,1,0,80,0,0
88405,-100,4,1,0,90,0,1
107716,-100,4,1,0,90,0,0
110474,-100,4,1,0,90,0,1
132543,-100,4,1,0,90,0,0

[HitObjects]
256,192,19440,12,0,20474,0:0:0:0:
132,174,20819,5,0,0:0:0:0:
272,168,21509,1,8,0:0:0:0:
272,168,21854,1,0,0:0:0:0:
272,157,22198,1,4,0:0:0:0:
214,184,24957,1,0,0:0:0:0:
213,181,26336,1,0,0:0:0:0:
213,181,27026,1,0,0:0:0:0:
224,121,27716,1,4,0:0:0:0:
223,120,30474,1,0,0:0:0:0:
223,120,31164,1,0,0:0:0:0:
223,120,31854,1,0,0:0:0:0:
223,120,32543,1,0,0:0:0:0:
223,120,33233,1,4,0:0:0:0:
224,107,34612,1,0,0:0:0:0:
224,107,35992,1,0,0:0:0:0:
224,107,37371,1,0,0:0:0:0:
224,107,38061,1,0,0:0:0:0:
225,56,38405,1,0,0:0:0:0:
225,99,38750,1,4,0:0:0:0:
225,56,40130,1,0,0:0:0:0:
225,56,40819,1,0,0:0:0:0:
225,56,41509,1,0,0:0:0:0:
225,56,42888,1,0,0:0:0:0:
225,56,43233,1,0,0:0:0:0:
225,56,43578,1,8,0:0:0:0:
225,56,44267,1,4,0:0:0:0:
256,192,53923,12,0,54957,0:0:0:0:
277,175,55302,5,0,0:0:0:0:
277,175,55992,1,0,0:0:0:0:
272,160,56681,1,0,0:0:0:0:
250,88,58061,1,0,0:0:0:0:
250,88,58750,1,0,0:0:0:0:
250,88,59440,1,0,0:0:0:0:
250,88,60819,1,0,0:0:0:0:
250,88,61509,1,0,0:0:0:0:
250,88,62198,1,0,0:0:0:0:
250,88,62888,1,0,0:0:0:0:
250,88,63578,1,0,0:0:0:0:
291,72,63923,1,0,0:0:0:0:
291,72,64267,1,0,0:0:0:0:
291,72,64612,1,0,0:0:0:0:
80,163,64957,2,0,L|140:162,12,35
275,95,66336,1,4,0:0:0:0:
61,156,66681,1,8,0:0:0:0:
279,149,67371,1,8,0:0:0:0:
279,149,67716,1,0,0:0:0:0:
277,109,68233,1,8,0:0:0:0:
277,109,68578,1,8,0:0:0:0:
277,109,68923,1,8,0:0:0:0:
277,109,69095,1,0,0:0:0:0:
373,253,69440,1,8,0:0:0:0:
373,253,70130,1,8,0:0:0:0:
228,165,70474,1,0,0:0:0:0:
258,157,70992,1,8,0:0:0:0:
258,157,71336,1,0,0:0:0:0:
258,157,71509,1,8,0:0:0:0:
258,157,71854,1,4,0:0:0:0:
245,179,72198,1,8,0:0:0:0:
245,179,72888,1,8,0:0:0:0:
245,178,73233,1,0,0:0:0:0:
245,178,73750,1,8,0:0:0:0:
245,178,74095,1,0,0:0:0:0:
245,178,74440,1,0,0:0:0:0:
207,114,74612,1,0,0:0:0:0:
242,147,74957,1,8,0:0:0:0:
242,147,75647,1,8,0:0:0:0:
242,147,75992,1,0,0:0:0:0:
242,147,76336,1,8,0:0:0:0:
254,121,76681,1,0,0:0:0:0:
242,147,76854,1,0,0:0:0:0:
254,121,77026,1,8,0:0:0:0:
254,121,77371,1,4,0:0:0:0:
125,158,77716,1,8,0:0:0:0:
125,158,78405,1,8,0:0:0:0:
125,158,78750,1,0,0:0:0:0:
125,158,79095,1,8,0:0:0:0:
125,158,79267,1,0,0:0:0:0:
320,120,79612,1,8,0:0:0:0:
125,158,79957,1,8,0:0:0:0:
130,135,80130,1,0,0:0:0:0:
119,71,80474,1,8,0:0:0:0:
118,65,81164,1,8,0:0:0:0:
118,65,81509,1,0,0:0:0:0:
118,65,81854,1,8,0:0:0:0:
118,65,82026,1,0,0:0:0:0:
223,178,82371,1,0,0:0:0:0:
223,178,82543,1,8,0:0:0:0:
224,172,82888,1,4,0:0:0:0:
223,161,83233,1,8,0:0:0:0:
223,161,83923,1,8,0:0:0:0:
223,161,84267,1,0,0:0:0:0:
324,107,84612,1,8,0:0:0:0:
324,107,84785,1,0,0:0:0:0:
324,107,85130,1,8,0:0:0:0:
197,109,85474,1,0,0:0:0:0:
210,128,85647,1,0,0:0:0:0:
236,91,85992,1,8,0:0:0:0:
236,91,86336,1,0,0:0:0:0:
184,204,86509,1,8,0:0:0:0:
236,91,87026,1,0,0:0:0:0:
236,91,87371,1,8,0:0:0:0:
236,91,87543,1,8,0:0:0:0:
236,91,87716,1,0,0:0:0:0:
236,91,88405,1,4,0:0:0:0:
288,187,88750,1,8,0:0:0:0:
288,187,89440,1,8,0:0:0:0:
288,187,89785,1,0,0:0:0:0:
376,168,89957,1,0,0:0:0:0:
171,182,90130,1,0,0:0:0:0:
171,182,90474,1,8,0:0:0:0:
288,187,90647,1,0,0:0:0:0:
288,187,90819,1,8,0:0:0:0:
146,176,91164,1,0,0:0:0:0:
146,176,91509,1,8,0:0:0:0:
146,176,92198,1,8,0:0:0:0:
169,172,92543,1,0,0:0:0:0:
320,224,92716,1,0,0:0:0:0:
169,172,92888,1,8,0:0:0:0:
169,172,93233,1,0,0:0:0:0:
169,172,93405,1,8,0:0:0:0:
169,172,93578,1,8,0:0:0:0:
169,162,93923,1,4,0:0:0:0:
169,162,94267,1,8,0:0:0:0:
169,162,94957,1,8,0:0:0:0:
169,162,95302,1,0,0:0:0:0:
324,224,95474,1,0,0:0:0:0:
169,162,95647,1,0,0:0:0:0:
169,162,95992,1,8,0:0:0:0:
169,162,96164,1,0,0:0:0:0:
169,162,96336,1,8,0:0:0:0:
163,141,96681,1,0,0:0:0:0:
163,141,97026,1,8,0:0:0:0:
200,204,97371,1,0,0:0:0:0:
224,176,97716,1,0,0:0:0:0:
163,141,98061,1,0,0:0:0:0:
163,141,98405,1,8,0:0:0:0:
57,192,98578,1,8,0:0:0:0:
57,192,98750,1,0,0:0:0:0:
227,230,99440,1,4,0:0:0:0:
216,202,99785,1,8,0:0:0:0:
216,202,100130,1,0,0:0:0:0:
216,202,100302,1,0,0:0:0:0:
216,202,100474,1,8,0:0:0:0:
216,202,100819,1,0,0:0:0:0:
296,192,101164,1,0,0:0:0:0:
213,189,101509,1,8,0:0:0:0:
213,189,101681,1,0,0:0:0:0:
213,189,101854,1,8,0:0:0:0:
213,189,102198,1,0,0:0:0:0:
212,183,102543,1,8,0:0:0:0:
212,183,102888,1,0,0:0:0:0:
212,183,103061,1,0,0:0:0:0:
212,183,103233,1,8,0:0:0:0:
212,183,103578,1,0,0:0:0:0:
213,172,103923,1,8,0:0:0:0:
332,204,104095,1,8,0:0:0:0:
212,172,104267,1,0,0:0:0:0:
184,132,104957,1,4,0:0:0:0:
187,118,105302,1,8,0:0:0:0:
187,118,105647,1,0,0:0:0:0:
187,118,105819,1,0,0:0:0:0:
187,118,105992,1,8,0:0:0:0:
187,118,106336,1,0,0:0:0:0:
218,200,106681,1,0,0:0:0:0:
185,91,107026,1,8,0:0:0:0:
184,172,107198,1,0,0:0:0:0:
256,172,107371,1,8,0:0:0:0:
318,294,107716,1,0,0:0:0:0:
318,294,108061,1,8,0:0:0:0:
239,264,108405,1,0,0:0:0:0:
239,264,108578,1,0,0:0:0:0:
239,264,108750,1,8,0:0:0:0:
239,264,109095,1,0,0:0:0:0:
239,264,109440,1,8,0:0:0:0:
239,264,109785,1,0,0:0:0:0:
186,275,109957,1,8,0:0:0:0:
186,275,110130,1,8,0:0:0:0:
186,275,110474,1,4,0:0:0:0:
242,313,110819,1,8,0:0:0:0:
170,223,111509,1,8,0:0:0:0:
170,223,111854,1,0,0:0:0:0:
170,223,112198,1,8,0:0:0:0:
146,216,112371,1,0,0:0:0:0:
132,210,112716,1,0,0:0:0:0:
32,128,112888,1,8,0:0:0:0:
300,255,113233,1,0,0:0:0:0:
300,255,113578,1,8,0:0:0:0:
300,255,114095,1,0,0:0:0:0:
300,255,114267,1,8,0:0:0:0:
300,255,114612,1,0,0:0:0:0:
164,260,114957,1,8,0:0:0:0:
300,255,115130,1,8,0:0:0:0:
324,227,115474,1,0,0:0:0:0:
324,227,115647,1,8,0:0:0:0:
324,227,115992,1,4,0:0:0:0:
153,210,116336,1,8,0:0:0:0:
155,203,117026,1,8,0:0:0:0:
155,203,117371,1,0,0:0:0:0:
155,203,117716,1,8,0:0:0:0:
155,203,117888,1,0,0:0:0:0:
155,203,118233,1,0,0:0:0:0:
155,203,118405,1,8,0:0:0:0:
155,203,118750,1,0,0:0:0:0:
155,203,119095,1,8,0:0:0:0:
155,203,119612,1,0,0:0:0:0:
155,203,119785,1,8,0:0:0:0:
155,203,120130,1,0,0:0:0:0:
155,203,120474,1,8,0:0:0:0:
155,203,120647,1,8,0:0:0:0:
155,203,120992,1,0,0:0:0:0:
155,203,121164,1,8,0:0:0:0:
169,170,121509,1,4,0:0:0:0:
162,149,122198,1,8,0:0:0:0:
244,272,122371,1,0,0:0:0:0:
162,149,122543,1,8,0:0:0:0:
162,149,122888,1,0,0:0:0:0:
162,149,123233,1,8,0:0:0:0:
162,149,123405,1,0,0:0:0:0:
162,149,123750,1,0,0:0:0:0:
162,149,123923,1,8,0:0:0:0:
162,149,124267,1,0,0:0:0:0:
262,286,124612,1,8,0:0:0:0:
221,213,124785,1,0,0:0:0:0:
261,276,125130,1,0,0:0:0:0:
261,276,125302,1,8,0:0:0:0:
309,188,125647,1,0,0:0:0:0:
222,220,125992,1,8,0:0:0:0:
189,172,126164,1,8,0:0:0:0:
250,305,126509,1,0,0:0:0:0:
250,305,126681,1,8,0:0:0:0:
232,217,127026,1,4,0:0:0:0:
234,261,127716,1,8,0:0:0:0:
184,264,127888,1,0,0:0:0:0:
234,261,128061,1,8,0:0:0:0:
234,261,128405,1,0,0:0:0:0:
234,261,128750,1,8,0:0:0:0:
234,261,128923,1,0,0:0:0:0:
234,261,129267,1,0,0:0:0:0:
234,261,129440,1,8,0:0:0:0:
234,255,129785,1,0,0:0:0:0:
234,255,130130,1,8,0:0:0:0:
234,255,130474,1,0,0:0:0:0:
234,255,130647,1,0,0:0:0:0:
234,255,130819,1,8,0:0:0:0:
234,255,131164,1,0,0:0:0:0:
234,255,131509,1,0,0:0:0:0:
151,192,131681,1,8,0:0:0:0:
151,192,132026,1,0,0:0:0:0:
151,192,132198,1,8,0:0:0:0:
151,192,132543,1,4,0:0:0:0:
