osu file format v14

[General]
AudioFilename: audio.mp3
AudioLeadIn: 0
PreviewTime: 110344
Countdown: 0
SampleSet: Soft
StackLeniency: 0.6
Mode: 0
LetterboxInBreaks: 0
WidescreenStoryboard: 1

[Editor]
DistanceSpacing: 1
BeatDivisor: 4
GridSize: 16
TimelineZoom: 1

[Metadata]
Title:Wicked Days (Cut Ver.)
TitleUnicode:Wicked Days (Cut Ver.)
Artist:T & Sugah
ArtistUnicode:T & Sugah
Creator:Strategas
Version:Normal
Source:
Tags:dnb drum and bass d&b liquicity electronic edm english AYE1337
BeatmapID:3079203
BeatmapSetID:1496811

[Difficulty]
HPDrainRate:4
CircleSize:3.3
OverallDifficulty:4
ApproachRate:5.5
SliderMultiplier:0.9
SliderTickRate:1

[Events]
//Background and Video events
0,0,"L17.jpg",0,0
//Break Periods
//Storyboard Layer 0 (Background)
//Storyboard Layer 1 (Fail)
//Storyboard Layer 2 (Pass)
//Storyboard Layer 3 (Foreground)
//Storyboard Layer 4 (Overlay)
//Storyboard Sound Samples

[TimingPoints]
0,344.827586206897,4,2,0,70,1,0
0,-111.111111111111,4,2,0,70,0,0
258,-111.111111111111,4,2,0,30,0,0
344,-111.111111111111,4,2,0,70,0,0
2068,-111.111111111111,4,2,0,70,0,0
2413,-111.111111111111,4,2,0,70,0,0
2758,-111.111111111111,4,2,0,70,0,0
3017,-111.111111111111,4,2,0,30,0,0
3103,-111.111111111111,4,2,0,70,0,0
4827,-111.111111111111,4,2,0,70,0,0
5172,-111.111111111111,4,2,0,75,0,0
5431,-111.111111111111,4,2,0,30,0,0
5517,-111.111111111111,4,2,0,70,0,0
5775,-111.111111111111,4,2,0,30,0,0
5862,-111.111111111111,4,2,0,70,0,0
7586,-111.111111111111,4,2,0,70,0,0
7931,-111.111111111111,4,2,0,70,0,0
8275,-111.111111111111,4,2,0,70,0,0
8534,-111.111111111111,4,2,0,30,0,0
8620,-111.111111111111,4,2,0,70,0,0
10344,-111.111111111111,4,2,0,70,0,0
10689,-111.111111111111,4,2,0,70,0,0
11034,-111.111111111111,4,2,0,70,0,0
11293,-111.111111111111,4,2,0,30,0,0
11379,-111.111111111111,4,2,0,70,0,0
13103,-111.111111111111,4,2,0,70,0,0
13448,-111.111111111111,4,2,0,70,0,0
13793,-111.111111111111,4,2,0,70,0,0
14051,-111.111111111111,4,2,0,30,0,0
14137,-111.111111111111,4,2,0,70,0,0
15862,-111.111111111111,4,2,0,70,0,0
16206,-111.111111111111,4,2,0,75,0,0
16465,-111.111111111111,4,2,0,30,0,0
16551,-111.111111111111,4,2,0,70,0,0
16810,-111.111111111111,4,2,0,30,0,0
16896,-111.111111111111,4,2,0,70,0,0
17931,-111.111111111111,4,2,0,65,0,0
18620,-111.111111111111,4,2,0,65,0,0
18793,-111.111111111111,4,2,0,65,0,0
22068,-125,4,2,0,60,0,0
24396,-125,4,2,0,25,0,0
24482,-125,4,2,0,60,0,0
24568,-125,4,2,0,25,0,0
24655,-125,4,2,0,60,0,0
24741,-125,4,2,0,25,0,0
24827,-125,4,2,0,60,0,0
25431,-125,4,2,0,25,0,0
25517,-125,4,2,0,60,0,0
25603,-125,4,2,0,25,0,0
25689,-125,4,2,0,60,0,0
25775,-125,4,2,0,25,0,0
25862,-125,4,2,0,60,0,0
25948,-125,4,2,0,25,0,0
26034,-125,4,2,0,60,0,0
26120,-125,4,2,0,25,0,0
26206,-125,4,2,0,60,0,0
27155,-125,4,2,0,25,0,0
27241,-125,4,2,0,60,0,0
27327,-125,4,2,0,25,0,0
27413,-125,4,2,0,60,0,0
27500,-125,4,2,0,25,0,0
27586,-125,4,2,0,60,0,0
29913,-125,4,2,0,25,0,0
30000,-125,4,2,0,60,0,0
30086,-125,4,2,0,25,0,0
30172,-125,4,2,0,60,0,0
30258,-125,4,2,0,25,0,0
30344,-125,4,2,0,60,0,0
30948,-125,4,2,0,25,0,0
31034,-125,4,2,0,60,0,0
31120,-125,4,2,0,25,0,0
31206,-125,4,2,0,60,0,0
31293,-125,4,2,0,25,0,0
31379,-125,4,2,0,60,0,0
31465,-125,4,2,0,25,0,0
31551,-125,4,2,0,60,0,0
31637,-125,4,2,0,25,0,0
31724,-125,4,2,0,60,0,0
35431,-125,4,2,0,25,0,0
35517,-125,4,2,0,60,0,0
35603,-125,4,2,0,25,0,0
35689,-125,4,2,0,60,0,0
35775,-125,4,2,0,25,0,0
35862,-125,4,2,0,60,0,0
36465,-125,4,2,0,25,0,0
36551,-125,4,2,0,60,0,0
36637,-125,4,2,0,25,0,0
36724,-125,4,2,0,60,0,0
36810,-125,4,2,0,25,0,0
36896,-125,4,2,0,60,0,0
36982,-125,4,2,0,25,0,0
37068,-125,4,2,0,60,0,0
37155,-125,4,2,0,25,0,0
37241,-125,4,2,0,60,0,0
38189,-125,4,2,0,25,0,0
38275,-125,4,2,0,60,0,0
38362,-125,4,2,0,25,0,0
38448,-125,4,2,0,60,0,0
38534,-125,4,2,0,25,0,0
38620,-125,4,2,0,60,0,0
40948,-125,4,2,0,25,0,0
41034,-125,4,2,0,60,0,0
41120,-125,4,2,0,25,0,0
41206,-125,4,2,0,60,0,0
41293,-125,4,2,0,25,0,0
41379,-125,4,2,0,60,0,0
41982,-125,4,2,0,25,0,0
42068,-125,4,2,0,60,0,0
42155,-125,4,2,0,25,0,0
42241,-125,4,2,0,60,0,0
42327,-125,4,2,0,25,0,0
42413,-125,4,2,0,60,0,0
42500,-125,4,2,0,25,0,0
42586,-125,4,2,0,60,0,0
42672,-125,4,2,0,25,0,0
42758,-125,4,2,0,60,0,0
43448,-125,4,2,0,60,0,0
44137,-125,4,2,0,70,0,0
44396,-125,4,2,0,30,0,0
44482,-125,4,2,0,75,0,0
44568,-125,4,2,0,30,0,0
44655,-125,4,2,0,75,0,0
45086,-125,4,2,0,30,0,0
45172,-125,4,2,0,75,0,0
45258,-125,4,2,0,30,0,0
45344,-125,4,2,0,75,0,0
45775,-125,4,2,0,30,0,0
45862,-125,4,2,0,75,0,0
45948,-125,4,2,0,30,0,0
46034,-125,4,2,0,75,0,0
46120,-125,4,2,0,30,0,0
46206,-125,4,2,0,75,0,0
46293,-125,4,2,0,30,0,0
46379,-125,4,2,0,75,0,0
46465,-125,4,2,0,30,0,0
46551,-125,4,2,0,75,0,0
46637,-125,4,2,0,30,0,0
46724,-125,4,2,0,75,0,0
46810,-125,4,2,0,30,0,0
46896,-125,4,2,0,75,0,0
47155,-125,4,2,0,30,0,0
47241,-125,4,2,0,75,0,0
47327,-125,4,2,0,30,0,0
47413,-125,4,2,0,75,0,0
47844,-125,4,2,0,30,0,0
47931,-125,4,2,0,75,0,0
48017,-125,4,2,0,30,0,0
48103,-125,4,2,0,75,0,0
48534,-125,4,2,0,30,0,0
48620,-125,4,2,0,75,0,0
48706,-125,4,2,0,30,0,0
48793,-125,4,2,0,75,0,0
48879,-125,4,2,0,30,0,0
48965,-125,4,2,0,75,0,0
49051,-125,4,2,0,30,0,0
49137,-125,4,2,0,75,0,0
49224,-125,4,2,0,30,0,0
49310,-125,4,2,0,75,0,0
49396,-125,4,2,0,30,0,0
49482,-125,4,2,0,75,0,0
49568,-125,4,2,0,30,0,0
49655,-125,4,2,0,75,0,0
49913,-125,4,2,0,30,0,0
50000,-125,4,2,0,75,0,0
50086,-125,4,2,0,30,0,0
50172,-125,4,2,0,75,0,0
50603,-125,4,2,0,30,0,0
50689,-125,4,2,0,75,0,0
50775,-125,4,2,0,30,0,0
50862,-125,4,2,0,75,0,0
51293,-125,4,2,0,30,0,0
51379,-125,4,2,0,75,0,0
51465,-125,4,2,0,30,0,0
51551,-125,4,2,0,75,0,0
51637,-125,4,2,0,30,0,0
51724,-125,4,2,0,75,0,0
51810,-125,4,2,0,30,0,0
51896,-125,4,2,0,75,0,0
51982,-125,4,2,0,30,0,0
52068,-125,4,2,0,75,0,0
52155,-125,4,2,0,30,0,0
52241,-125,4,2,0,75,0,0
52327,-125,4,2,0,30,0,0
52413,-125,4,2,0,75,0,0
52672,-125,4,2,0,30,0,0
52758,-125,4,2,0,75,0,0
52844,-125,4,2,0,30,0,0
52931,-125,4,2,0,75,0,0
53362,-125,4,2,0,30,0,0
53448,-125,4,2,0,75,0,0
53534,-125,4,2,0,30,0,0
53620,-125,4,2,0,75,0,0
54051,-125,4,2,0,30,0,0
54137,-125,4,2,0,75,0,0
54224,-125,4,2,0,30,0,0
54310,-125,4,2,0,75,0,0
54396,-125,4,2,0,30,0,0
54482,-125,4,2,0,75,0,0
54568,-125,4,2,0,30,0,0
54655,-125,4,2,0,75,0,0
54741,-125,4,2,0,30,0,0
54827,-125,4,2,0,75,0,0
54913,-125,4,2,0,30,0,0
55000,-125,4,2,0,75,0,0
55086,-125,4,2,0,30,0,0
55172,-125,4,2,0,75,0,0
56637,-125,4,2,0,80,0,0
56896,-125,4,2,0,75,0,0
57586,-125,4,2,0,75,0,0
57672,-125,4,2,0,30,0,0
57758,-125,4,2,0,75,0,0
57844,-125,4,2,0,30,0,0
57931,-125,4,2,0,75,0,0
59396,-125,4,2,0,80,0,0
59655,-125,4,2,0,75,0,0
60344,-125,4,2,0,80,0,0
60689,-125,4,2,0,75,0,0
65862,-125,4,2,25,75,0,0
66206,-100,4,2,25,80,0,1
67931,-100,4,2,25,80,0,1
68965,-100,4,2,25,80,0,1
73448,-100,4,2,25,80,0,1
74482,-100,4,2,25,80,0,1
74827,-100,4,2,25,80,0,1
75862,-100,4,2,25,80,0,1
76206,-100,4,2,25,80,0,1
76551,-100,4,2,25,80,0,1
76594,-100,4,2,25,5,0,1
76724,-100,4,2,25,80,0,1
76767,-100,4,2,25,5,0,1
76896,-100,4,2,25,80,0,1
76939,-100,4,2,25,5,0,1
77068,-100,4,2,25,80,0,1
77112,-100,4,2,25,5,0,1
77241,-100,4,2,25,80,0,1
78965,-100,4,2,25,80,0,1
80000,-100,4,2,25,80,0,1
84482,-100,4,2,25,80,0,1
85517,-100,4,2,25,75,0,1
87586,-100,4,2,25,80,0,0
88275,-100,4,2,25,80,0,1
90000,-100,4,2,25,80,0,1
91034,-100,4,2,25,80,0,1
95517,-100,4,2,25,80,0,1
96551,-100,4,2,25,80,0,1
96896,-100,4,2,25,80,0,1
97931,-100,4,2,25,80,0,1
98275,-100,4,2,25,80,0,1
99310,-100,4,2,25,80,0,1
101034,-100,4,2,25,80,0,1
102068,-100,4,2,25,80,0,1
107586,-100,4,2,25,75,0,1
109655,-100,4,2,25,80,0,0
110344,-100,4,2,25,80,0,0
110689,-100,4,2,25,80,0,0
110862,-100,4,2,25,80,0,0
111379,-100,4,2,25,80,0,0
111724,-100,4,2,25,80,0,0
112068,-100,4,2,25,80,0,0
113103,-100,4,2,25,80,0,0
113448,-100,4,2,25,80,0,0
113620,-100,4,2,25,80,0,0
114137,-100,4,2,25,80,0,0
114482,-100,4,2,25,80,0,0
114827,-100,4,2,25,80,0,0
115862,-100,4,2,25,80,0,0
116206,-100,4,2,25,80,0,0
116551,-100,4,2,25,80,0,0
116896,-100,4,2,25,80,0,0
117241,-100,4,2,25,80,0,0
117586,-100,4,2,25,80,0,0
118620,-100,4,2,25,80,0,0
118965,-100,4,2,25,80,0,0
119310,-100,4,2,25,80,0,0
119655,-100,4,2,25,80,0,0
120000,-100,4,2,25,80,0,0
120344,-100,4,2,25,80,0,0
121379,-100,4,2,25,80,0,0
121724,-100,4,2,25,80,0,0
121896,-100,4,2,25,80,0,0
122413,-100,4,2,25,80,0,0
122758,-100,4,2,25,80,0,0
123103,-100,4,2,25,80,0,0
124137,-100,4,2,25,80,0,0
124482,-100,4,2,25,80,0,0
124655,-100,4,2,25,80,0,0
125172,-100,4,2,25,80,0,0
125517,-100,4,2,25,80,0,0
125862,-100,4,2,25,80,0,0
126896,-100,4,2,25,80,0,0
127241,-100,4,2,25,80,0,0
127413,-100,4,2,25,80,0,0
127931,-100,4,2,25,80,0,0
128275,-100,4,2,25,80,0,0
128620,-100,4,2,25,80,0,0
129741,-111.111111111111,4,2,0,5,0,0
131034,-111.111111111111,4,2,0,90,0,0

[Colours]
Combo1 : 238,207,145
Combo2 : 180,203,182

[HitObjects]
103,139,0,6,0,P|146:130|191:144,1,80.9999975280762,2|8,1:2|0:0,0:0:0:0:
268,166,689,2,0,P|288:168|312:165,1,40.4999987640381,2|0,0:0|1:0,0:0:0:0:
340,135,1034,2,0,P|360:132|384:135,1,40.4999987640381,8|0,0:0|0:0,0:0:0:0:
419,156,1379,1,2,1:2:0:0:
482,219,1724,2,0,P|491:262|477:307,1,80.9999975280762,8|2,0:0|0:0,0:0:0:0:
449,327,2241,1,0,1:0:0:0:
449,327,2413,1,8,0:0:0:0:
366,293,2758,6,0,L|286:296,1,80.9999975280762,2|8,1:2|0:0,0:0:0:0:
247,320,3275,1,0,0:0:0:0:
247,320,3448,2,0,L|207:321,1,40.4999987640381,2|0,0:0|1:0,0:0:0:0:
168,344,3793,1,8,0:0:0:0:
100,286,4137,2,0,L|97:206,1,80.9999975280762,2|8,1:2|0:0,0:0:0:0:
153,136,4827,2,0,L|151:96,1,40.4999987640381,2|0,0:0|1:0,0:0:0:0:
180,61,5172,6,0,B|221:51|221:51|261:59,2,80.9999975280762,10|2|8,0:0|1:2|0:0,0:0:0:0:
104,13,6206,2,0,L|64:14,1,40.4999987640381,2|0,0:0|1:0,0:0:0:0:
18,17,6551,1,8,0:0:0:0:
3,104,6896,2,0,L|6:184,1,80.9999975280762,2|8,1:2|0:0,0:0:0:0:
72,245,7586,2,0,L|112:243,1,40.4999987640381,2|0,0:0|1:0,0:0:0:0:
147,215,7931,2,0,L|187:213,1,40.4999987640381,8|0,0:0|0:0,0:0:0:0:
224,189,8275,6,0,P|233:146|219:101,1,80.9999975280762,2|8,1:2|0:0,0:0:0:0:
182,31,8965,2,0,P|161:28|137:31,1,40.4999987640381,2|0,0:0|1:0,0:0:0:0:
110,62,9310,2,0,P|89:64|65:61,1,40.4999987640381,8|0,0:0|0:0,0:0:0:0:
31,41,9655,1,2,1:2:0:0:
8,127,10000,2,0,P|-1:170|13:215,1,80.9999975280762,8|2,0:0|0:0,0:0:0:0:
41,235,10517,1,0,1:0:0:0:
41,235,10689,1,8,0:0:0:0:
116,187,11034,6,0,P|159:178|204:192,1,80.9999975280762,2|8,1:2|0:0,0:0:0:0:
268,236,11724,2,0,P|288:238|312:235,1,40.4999987640381,2|0,0:0|1:0,0:0:0:0:
340,205,12068,2,0,P|360:202|384:205,1,40.4999987640381,8|0,0:0|0:0,0:0:0:0:
419,226,12413,1,2,1:2:0:0:
476,158,12758,2,0,P|485:115|471:70,1,80.9999975280762,8|2,0:0|0:0,0:0:0:0:
443,50,13275,1,0,1:0:0:0:
443,50,13448,1,8,0:0:0:0:
362,89,13793,6,0,L|282:86,1,80.9999975280762,2|8,1:2|0:0,0:0:0:0:
243,62,14310,1,0,0:0:0:0:
243,62,14482,2,0,L|203:60,1,40.4999987640381,2|0,0:0|1:0,0:0:0:0:
164,38,14827,1,8,0:0:0:0:
101,100,15172,2,0,L|98:180,1,80.9999975280762,2|8,1:2|0:0,0:0:0:0:
153,248,15862,2,0,L|151:288,1,40.4999987640381,2|0,0:0|1:0,0:0:0:0:
179,323,16206,6,0,B|217:330|217:330|258:320,2,80.9999975280762,10|2|8,0:0|1:2|0:0,0:0:0:0:
105,372,17241,2,0,L|65:373,1,40.4999987640381,2|0,0:0|1:0,0:0:0:0:
19,376,17586,1,8,0:0:0:0:
2,288,17931,2,0,L|-1:208,1,80.9999975280762,2|8,1:2|0:0,0:0:0:0:
65,147,18620,2,0,L|63:107,2,40.4999987640381,2|0|8,0:0|1:0|0:0,0:0:0:0:
134,203,19310,6,0,P|173:211|212:202,2,80.9999975280762,2|8|2,1:2|0:0|0:0,0:0:0:0:
172,122,20344,1,8,0:0:0:0:
224,49,20689,2,0,P|263:39|302:48,2,80.9999975280762,2|8|2,1:2|0:0|0:0,0:0:0:0:
263,129,21724,1,8,0:0:0:0:
299,211,22068,6,0,B|334:217|334:217|376:209,1,72,4|2,0:3|0:0,0:0:0:0:
461,80,23103,2,0,B|426:74|426:74|384:82,1,72,2|2,0:0|0:0,0:0:0:0:
195,45,24310,6,0,L|191:3,2,36,2|2|2,0:0|0:0|0:0,0:0:0:0:
219,76,24827,2,0,L|212:147,1,72,2|2,0:0|0:0,0:0:0:0:
227,184,25344,1,2,0:0:0:0:
227,184,25517,2,0,L|231:226,1,36,2|2,0:0|0:0,0:0:0:0:
212,255,25862,2,0,L|208:297,1,36,2|2,0:0|0:0,0:0:0:0:
230,324,26206,2,0,L|301:330,1,72,2|2,0:0|0:0,0:0:0:0:
416,299,27068,2,0,L|458:303,2,36,2|2|2,0:0|0:0|0:0,0:0:0:0:
382,278,27586,6,0,B|376:243|376:243|384:201,1,72,2|2,0:0|0:0,0:0:0:0:
506,109,28620,2,0,B|512:144|512:144|504:186,1,72,2|2,0:0|0:0,0:0:0:0:
383,23,29827,6,0,L|425:19,2,36,2|2|2,0:0|0:0|0:0,0:0:0:0:
344,31,30344,1,2,0:0:0:0:
272,65,30689,2,0,L|276:107,2,36,2|2|2,0:0|0:0|0:0,0:0:0:0:
246,42,31206,1,2,0:0:0:0:
246,42,31379,2,0,L|204:38,1,36,2|2,0:0|0:0,0:0:0:0:
177,60,31724,2,0,L|171:131,1,72,2|2,0:0|0:0,0:0:0:0:
209,207,32413,1,2,0:0:0:0:
209,207,32586,2,0,B|206:224|206:224|210:245,2,36,8|8|8,0:3|0:3|0:3,0:0:0:0:
241,183,33103,6,0,B|276:177|276:177|318:185,1,72,2|2,0:0|0:0,0:0:0:0:
403,314,34137,2,0,B|368:320|368:320|326:312,1,72,2|2,0:0|0:0,0:0:0:0:
136,344,35344,6,0,L|140:386,2,36,2|2|2,0:0|0:0|0:0,0:0:0:0:
112,313,35862,2,0,L|119:242,1,72,2|2,0:0|0:0,0:0:0:0:
104,205,36379,1,2,0:0:0:0:
104,205,36551,2,0,L|100:163,1,36,2|2,0:0|0:0,0:0:0:0:
119,134,36896,2,0,L|123:92,1,36,2|2,0:0|0:0,0:0:0:0:
146,67,37241,2,0,L|217:73,1,72,2|2,0:0|0:0,0:0:0:0:
300,158,38103,2,0,L|296:200,2,36,2|2|2,0:0|0:0|0:0,0:0:0:0:
331,133,38620,6,0,B|366:127|366:127|408:135,1,72,2|2,0:0|0:0,0:0:0:0:
500,257,39655,2,0,B|465:263|465:263|423:255,1,72,2|2,0:0|0:0,0:0:0:0:
254,349,40862,6,0,L|258:391,2,36,2|2|2,0:0|0:0|0:0,0:0:0:0:
246,310,41379,1,2,0:0:0:0:
212,238,41724,2,0,L|170:242,2,36,2|2|2,0:0|0:0|0:0,0:0:0:0:
235,212,42241,1,2,0:0:0:0:
235,212,42413,2,0,L|239:170,1,36,2|2,0:0|0:0,0:0:0:0:
217,143,42758,2,0,L|146:137,1,72,2|2,0:0|0:0,0:0:0:0:
70,175,43448,2,0,B|63:208|63:208|72:244,1,72,2|0,0:0|0:0,0:0:0:0:
106,316,44137,5,4,0:3:0:0:
188,331,44482,1,2,0:0:0:0:
188,331,44655,2,0,B|243:318|235:341|295:329,1,108,2|2,0:0|0:0,0:0:0:0:
333,320,45344,1,2,0:0:0:0:
424,244,45862,6,0,L|422:207,1,36,2|2,0:0|0:0,0:0:0:0:
404,172,46206,2,0,L|367:174,2,36,2|2|2,0:0|0:0|0:0,0:0:0:0:
426,140,46724,1,2,0:0:0:0:
426,140,46896,1,2,0:0:0:0:
508,127,47241,1,2,0:0:0:0:
508,127,47413,1,2,0:0:0:0:
460,23,47931,1,2,0:0:0:0:
460,23,48103,1,2,0:0:0:0:
345,35,48620,5,2,0:0:0:0:
345,35,48793,2,0,L|343:-2,2,36,2|2|2,0:0|0:0|0:0,0:0:0:0:
321,66,49310,2,0,L|323:103,1,36,2|2,0:0|0:0,0:0:0:0:
302,136,49655,5,2,0:0:0:0:
220,121,50000,1,2,0:0:0:0:
220,121,50172,2,0,B|165:134|173:111|113:123,1,108,2|2,0:0|0:0,0:0:0:0:
75,132,50862,1,2,0:0:0:0:
133,235,51379,6,0,L|135:272,1,36,2|2,0:0|0:0,0:0:0:0:
153,307,51724,2,0,L|190:305,2,36,2|2|2,0:0|0:0|0:0,0:0:0:0:
131,339,52241,1,2,0:0:0:0:
131,339,52413,1,2,0:0:0:0:
52,361,52758,1,2,0:0:0:0:
52,361,52931,1,2,0:0:0:0:
14,253,53448,1,2,0:0:0:0:
14,253,53620,1,2,0:0:0:0:
133,235,54137,5,2,0:0:0:0:
133,235,54310,2,0,L|135:272,2,36,2|2|2,0:0|0:0|0:0,0:0:0:0:
157,204,54827,2,0,L|155:167,1,36,2|2,0:0|0:0,0:0:0:0:
177,135,55172,6,0,P|210:122|260:131,1,72,2|2,1:2|1:2,0:0:0:0:
311,171,55862,2,0,P|344:183|394:175,1,72,2|2,1:2|1:2,0:0:0:0:
387,101,56551,2,0,P|353:88|317:91,1,72,2|2,1:2|1:2,0:0:0:0:
246,127,57241,2,0,P|212:139|163:131,1,72,0|0,1:0|1:0,0:0:0:0:
103,106,57931,5,2,1:2:0:0:
30,138,58275,1,2,1:2:0:0:
13,215,58620,2,0,P|0:248|9:298,1,72,2|2,1:2|1:2,0:0:0:0:
77,314,59310,1,2,1:2:0:0:
150,282,59655,1,2,1:2:0:0:
167,205,60000,2,0,P|179:171|171:122,1,72,0|2,1:0|1:2,0:0:0:0:
242,92,60689,6,0,L|290:97,2,36,0|0|2,1:0|1:0|1:2,0:0:0:0:
189,31,61379,2,0,L|141:26,2,36,2|2|2,1:2|1:2|1:2,0:0:0:0:
263,4,62068,2,0,L|311:9,1,36,0|0,1:0|1:0,0:0:0:0:
338,14,62413,1,2,1:2:0:0:
400,63,62758,2,0,L|395:111,1,36,0|2,1:0|1:2,0:0:0:0:
390,138,63103,1,0,1:0:0:0:
256,192,63448,12,2,64913,1:2:0:0:
242,78,65862,5,10,0:2:0:0:
242,78,66206,6,0,B|197:69|197:69|148:84,1,90,4|10,1:2|0:0,0:0:0:0:
121,112,66724,2,0,L|119:164,1,45,2|0,0:0|0:0,0:0:0:0:
145,199,67068,1,0,1:0:0:0:
145,199,67241,2,0,L|143:251,1,45,10|2,0:0|0:0,0:0:0:0:
122,284,67586,1,0,1:0:0:0:
192,339,67931,2,0,L|190:391,2,45,10|2|2,0:0|0:0|0:0,0:0:0:0:
232,316,68448,1,2,1:2:0:0:
232,316,68620,2,0,L|284:318,1,45,10|2,0:0|0:0,0:0:0:0:
317,338,68965,6,0,P|336:308|331:252,1,90,2|10,1:2|0:0,0:0:0:0:
306,218,69482,1,2,0:0:0:0:
253,151,69827,1,0,1:0:0:0:
253,151,70000,2,0,P|247:126|254:99,1,45,10|2,0:0|0:0,0:0:0:0:
266,65,70344,1,0,1:0:0:0:
353,43,70689,1,10,0:0:0:0:
441,61,71034,2,0,P|447:86|440:113,1,45,2|2,0:0|1:2,0:0:0:0:
417,141,71379,2,0,P|411:166|418:193,1,45,10|0,0:0|0:0,0:0:0:0:
436,223,71724,5,2,1:2:0:0:
382,295,72068,2,0,L|282:291,1,90,10|0,0:0|0:0,0:0:0:0:
250,291,72586,1,0,1:0:0:0:
250,291,72758,1,10,0:0:0:0:
167,327,73103,2,0,L|115:325,1,45,0|0,1:0|0:0,0:0:0:0:
84,299,73448,1,10,0:0:0:0:
92,209,73793,2,0,L|94:157,1,45,2|2,0:0|1:2,0:0:0:0:
118,126,74137,2,0,L|120:74,1,45,10|2,0:0|0:0,0:0:0:0:
96,42,74482,6,0,B|53:29|53:29|8:38,2,90,2|10|2,1:2|0:0|0:0,0:0:0:0:
135,17,75344,1,0,1:0:0:0:
135,17,75517,1,10,0:0:0:0:
216,54,75862,2,0,B|258:66|258:66|303:57,1,90,0|10,1:0|0:0,0:0:0:0:
383,18,76551,1,2,0:0:0:0:
383,18,76724,2,0,B|404:11|404:11|426:16,2,45,2|10|2,1:2|0:0|0:0,0:0:0:0:
393,61,77241,6,0,B|402:106|402:106|387:155,1,90,4|10,1:2|0:0,0:0:0:0:
359,182,77758,2,0,L|307:184,1,45,2|0,0:0|0:0,0:0:0:0:
272,158,78103,1,0,1:0:0:0:
272,158,78275,2,0,L|220:160,1,45,10|0,0:0|0:0,0:0:0:0:
187,181,78620,1,0,1:0:0:0:
139,104,78965,2,0,L|141:52,2,45,10|2|2,0:0|0:0|0:0,0:0:0:0:
99,127,79482,1,2,1:2:0:0:
99,127,79655,2,0,L|47:125,1,45,10|0,0:0|0:0,0:0:0:0:
14,105,80000,6,0,P|-5:135|0:191,1,90,2|10,1:2|0:0,0:0:0:0:
25,225,80517,1,2,0:0:0:0:
117,210,80862,1,0,1:0:0:0:
117,210,81034,2,0,P|142:204|169:211,1,45,10|0,0:0|0:0,0:0:0:0:
203,223,81379,1,0,1:0:0:0:
225,310,81724,1,10,0:0:0:0:
295,365,82068,2,0,P|320:371|347:364,1,45,2|2,0:0|1:2,0:0:0:0:
375,341,82413,2,0,P|400:335|427:342,1,45,10|0,0:0|0:0,0:0:0:0:
457,360,82758,5,2,1:2:0:0:
501,281,83103,2,0,L|505:181,1,90,10|2,0:0|0:0,0:0:0:0:
505,149,83620,1,0,1:0:0:0:
505,149,83793,1,10,0:0:0:0:
431,97,84137,2,0,L|379:95,1,45,0|0,1:0|0:0,0:0:0:0:
352,69,84482,1,10,0:0:0:0:
280,123,84827,2,0,L|228:121,1,45,2|2,0:0|1:2,0:0:0:0:
197,97,85172,2,0,L|145:95,1,45,10|2,0:0|0:0,0:0:0:0:
113,119,85517,6,0,B|101:161|101:161|110:206,2,90,2|10|0,1:2|1:2|1:0,0:0:0:0:
88,80,86379,1,0,1:0:0:0:
88,80,86551,1,10,1:2:0:0:
151,16,86896,2,0,B|194:3|194:3|239:12,1,90,0|10,1:0|1:2,0:0:0:0:
310,73,87586,1,2,1:2:0:0:
310,73,87758,2,0,B|316:95|316:95|311:117,2,45,2|10|2,1:2|0:0|0:0,0:0:0:0:
343,42,88275,6,0,L|443:46,2,90,4|10|0,1:2|0:0|0:0,0:0:0:0:
260,5,89310,2,0,L|160:1,2,90,10|0|10,0:0|1:0|0:0,0:0:0:0:
282,101,90344,1,2,0:0:0:0:
282,101,90517,1,2,1:2:0:0:
282,101,90689,2,0,L|280:153,1,45,10|0,0:0|0:0,0:0:0:0:
297,187,91034,6,0,P|267:206|211:201,2,90,2|10|2,1:2|0:0|0:0,0:0:0:0:
338,169,91896,1,0,1:0:0:0:
338,169,92068,2,0,P|363:163|390:170,1,45,10|0,0:0|0:0,0:0:0:0:
424,179,92413,1,0,1:0:0:0:
433,268,92758,1,10,0:0:0:0:
450,365,93103,1,2,0:0:0:0:
450,365,93275,1,2,1:2:0:0:
450,365,93448,2,0,P|425:371|398:364,1,45,10|0,0:0|0:0,0:0:0:0:
363,352,93793,5,2,1:2:0:0:
280,316,94137,2,0,L|180:312,1,90,10|2,0:0|0:0,0:0:0:0:
113,265,94827,1,10,0:0:0:0:
37,216,95172,2,0,L|41:116,1,90,0|10,1:0|0:0,0:0:0:0:
119,78,95862,1,2,0:0:0:0:
119,78,96034,1,2,1:2:0:0:
119,78,96206,2,0,L|171:80,1,45,10|2,0:0|0:0,0:0:0:0:
208,82,96551,5,2,1:2:0:0:
290,118,96896,2,0,P|315:112|342:119,2,45,10|2|2,0:0|0:0|0:0,0:0:0:0:
264,156,97413,1,0,1:0:0:0:
264,156,97586,1,10,0:0:0:0:
271,245,97931,1,0,1:0:0:0:
278,334,98275,1,10,0:0:0:0:
191,360,98620,2,0,B|169:366|169:366|147:361,2,45,2|2|10,1:2|1:2|0:0,0:0:0:0:
167,272,99310,6,0,L|67:268,2,90,4|10|0,1:2|0:0|0:0,0:0:0:0:
248,232,100344,2,0,L|348:236,2,90,10|0|10,0:0|1:0|0:0,0:0:0:0:
183,170,101379,1,2,0:0:0:0:
183,170,101551,1,2,1:2:0:0:
183,170,101724,2,0,L|131:168,1,45,10|0,0:0|0:0,0:0:0:0:
101,194,102068,6,0,P|82:224|87:280,2,90,2|10|2,1:2|0:0|0:0,0:0:0:0:
81,159,102931,1,0,1:0:0:0:
81,159,103103,2,0,P|75:134|82:107,1,45,10|0,0:0|0:0,0:0:0:0:
91,73,103448,1,0,1:0:0:0:
173,35,103793,1,10,0:0:0:0:
264,10,104137,1,2,0:0:0:0:
264,10,104310,1,2,1:2:0:0:
264,10,104482,2,0,P|289:4|316:11,1,45,10|0,0:0|0:0,0:0:0:0:
351,23,104827,5,2,1:2:0:0:
391,103,105172,2,0,L|387:203,1,90,10|0,0:2|0:0,0:0:0:0:
340,270,105862,1,10,0:2:0:0:
291,346,106206,2,0,L|191:342,1,90,0|10,1:0|0:2,0:0:0:0:
153,264,106896,1,2,0:2:0:0:
153,264,107068,1,2,1:2:0:0:
153,264,107241,2,0,L|155:212,1,45,10|2,0:2|0:2,0:0:0:0:
157,175,107586,5,2,1:2:0:0:
190,91,107931,2,0,P|184:66|191:39,2,45,10|2|0,0:2|0:2|0:0,0:0:0:0:
228,117,108448,1,0,1:0:0:0:
228,117,108620,1,10,0:2:0:0:
317,110,108965,1,0,1:0:0:0:
406,103,109310,1,10,0:2:0:0:
432,190,109655,2,0,B|438:212|438:212|433:234,2,45,2|2|8,0:2|1:2|0:0,0:0:0:0:
345,214,110344,6,0,B|300:223|300:223|251:208,1,90,4|10,1:2|0:0,0:0:0:0:
224,180,110862,2,0,L|222:128,1,45,2|2,0:0|0:0,0:0:0:0:
246,98,111206,1,0,1:0:0:0:
246,98,111379,2,0,L|244:46,1,45,10|2,0:0|0:0,0:0:0:0:
225,11,111724,1,0,1:0:0:0:
151,60,112068,2,0,L|149:112,2,45,10|2|2,0:0|0:0|0:0,0:0:0:0:
121,33,112586,1,2,1:2:0:0:
121,33,112758,2,0,L|69:31,1,45,10|2,0:0|0:0,0:0:0:0:
37,54,113103,6,0,P|18:84|23:140,1,90,2|10,1:2|0:0,0:0:0:0:
48,174,113620,1,2,0:0:0:0:
105,250,113965,1,0,1:0:0:0:
105,250,114137,2,0,P|111:275|104:302,1,45,10|2,0:0|0:0,0:0:0:0:
92,336,114482,1,0,1:0:0:0:
178,359,114827,1,10,0:0:0:0:
262,329,115172,2,0,P|287:323|314:330,1,45,2|2,0:0|1:2,0:0:0:0:
342,353,115517,2,0,P|367:359|394:352,1,45,10|2,0:0|0:0,0:0:0:0:
426,336,115862,5,2,1:2:0:0:
498,282,116206,2,0,L|494:182,1,90,10|2,0:0|0:0,0:0:0:0:
494,150,116724,1,0,1:0:0:0:
494,150,116896,1,10,0:0:0:0:
429,86,117241,2,0,L|377:88,1,45,0|0,1:0|0:0,0:0:0:0:
347,114,117586,1,10,0:0:0:0:
265,76,117931,2,0,L|213:74,1,45,2|2,0:0|1:2,0:0:0:0:
179,92,118275,2,0,L|127:90,1,45,10|2,0:0|0:0,0:0:0:0:
93,110,118620,6,0,B|80:67|80:67|89:22,2,90,2|10|2,1:2|0:0|0:0,0:0:0:0:
68,149,119482,1,0,1:0:0:0:
68,149,119655,1,10,0:0:0:0:
131,212,120000,2,0,B|143:254|143:254|134:299,1,90,0|10,1:0|0:0,0:0:0:0:
192,375,120689,1,2,0:0:0:0:
192,375,120862,2,0,B|213:382|213:382|235:377,2,45,2|10|2,1:2|0:0|0:0,0:0:0:0:
216,337,121379,6,0,B|261:328|261:328|310:343,1,90,4|10,1:2|0:0,0:0:0:0:
339,313,121896,2,0,L|341:261,1,45,2|2,0:0|0:0,0:0:0:0:
320,234,122241,1,0,1:0:0:0:
320,234,122413,2,0,L|322:182,1,45,10|2,0:0|0:0,0:0:0:0:
343,149,122758,1,0,1:0:0:0:
278,86,123103,2,0,L|280:34,2,45,10|2|2,0:0|0:0|0:0,0:0:0:0:
238,103,123620,1,2,1:2:0:0:
238,103,123793,2,0,L|186:101,1,45,10|2,0:0|0:0,0:0:0:0:
149,89,124137,6,0,P|130:119|135:175,1,90,2|10,1:2|0:0,0:0:0:0:
160,209,124655,1,2,0:0:0:0:
251,226,125000,1,0,1:0:0:0:
251,226,125172,2,0,P|257:251|250:278,1,45,10|2,0:0|0:0,0:0:0:0:
238,312,125517,1,0,1:0:0:0:
151,334,125862,1,10,0:0:0:0:
64,309,126206,2,0,P|58:284|65:257,1,45,2|2,0:0|1:2,0:0:0:0:
88,229,126551,2,0,P|94:204|87:177,1,45,10|2,0:0|0:0,0:0:0:0:
69,147,126896,5,2,1:2:0:0:
123,75,127241,2,0,L|223:79,1,90,10|0,0:2|0:0,0:0:0:0:
255,79,127758,1,0,1:0:0:0:
255,79,127931,1,10,0:0:0:0:
337,42,128275,2,0,L|389:44,1,45,0|0,1:0|0:0,0:0:0:0:
416,70,128620,1,10,0:2:0:0:
365,144,128965,2,0,L|363:196,1,45,2|2,0:0|1:2,0:0:0:0:
392,223,129310,2,0,L|390:275,1,45,10|2,0:0|0:0,0:0:0:0:
363,304,129655,5,4,0:0:0:0:
256,192,129741,12,2,131034,0:0:0:0:
256,192,132413,5,4,0:3:0:0:
