osu file format v14

[General]
AudioFilename: audio.mp3
AudioLeadIn: 0
PreviewTime: -1
Countdown: 0
SampleSet: Soft
StackLeniency: 0.7
Mode: 0
LetterboxInBreaks: 0
WidescreenStoryboard: 1

[Editor]
DistanceSpacing: 1.3
BeatDivisor: 4
GridSize: 8
TimelineZoom: 3.099999

[Metadata]
Title:Unreal (ft. Ayve)
TitleUnicode:Unreal (ft. Ayve)
Artist:T & Sugah
ArtistUnicode:T & Sugah
Creator:MaryJaneSheep
Version:Normal
Source:
Tags:
BeatmapID:1487461
BeatmapSetID:703021

[Difficulty]
HPDrainRate:4.5
CircleSize:3.7
OverallDifficulty:3
ApproachRate:6
SliderMultiplier:1
SliderTickRate:1

[Events]
//Background and Video events
0,0,"maxresdefault (2).jpg",0,0
//Break Periods
//Storyboard Layer 0 (Background)
//Storyboard Layer 1 (Fail)
//Storyboard Layer 2 (Pass)
//Storyboard Layer 3 (Foreground)
//Storyboard Sound Samples

[TimingPoints]
4230.53962110971,344.827586206897,4,2,0,27,1,0

[HitObjects]
256,192,20782,12,0,23196,0:0:0:0:
64,88,23540,6,0,B|120:8|248:64,1,200
304,96,24575,1,2,0:0:0:0:
352,128,24920,1,2,0:0:0:0:
400,168,25265,1,2,0:0:0:0:
456,208,25609,2,0,B|432:280|400:288|376:288,1,100
320,328,26299,6,0,P|288:344|232:320,1,100
232,248,26989,2,0,P|224:192|184:176,1,100
104,144,27678,1,2,0:0:0:0:
184,64,28023,1,2,0:0:0:0:
280,64,28368,2,0,B|312:64|344:64|368:80|384:96,1,100
352,168,29058,6,0,B|296:128|249:116|208:144|192:168|184:192,1,200
192,264,30092,1,2,0:0:0:0:
160,328,30437,1,2,0:0:0:0:
88,320,30782,1,2,0:0:0:0:
48,256,31127,2,0,B|80:207|48:144,1,100
128,136,31816,2,0,P|168:160|224:128,1,100
280,112,32506,2,0,B|296:64|344:56|368:72,1,100
424,104,33196,1,2,0:0:0:0:
456,168,33540,1,2,0:0:0:0:
448,240,33885,2,0,B|432:272|416:288|376:288|360:288,1,100
304,232,34575,6,0,B|336:184|312:144|272:104|232:128|192:168|192:168,1,200
128,200,35609,1,2,0:0:0:0:
72,240,35954,1,2,0:0:0:0:
48,304,36299,1,2,0:0:0:0:
112,352,36644,2,0,P|168:368|208:352,1,100
256,304,37333,2,0,P|296:272|344:296,1,100
408,272,38023,2,0,P|464:240|472:208,1,100
456,136,38713,1,2,0:0:0:0:
408,80,39058,1,2,0:0:0:0:
336,64,39402,2,0,P|272:40|232:64,1,100
224,120,40092,6,0,B|264:168|280:208|256:248|232:288|184:296,1,200
136,296,41127,1,2,0:0:0:0:
80,256,41471,1,2,0:0:0:0:
64,192,41816,1,2,0:0:0:0:
64,120,42161,2,0,B|56:80|88:48|120:56,1,100
256,192,42851,12,0,44920,0:0:0:0:
112,120,45609,6,0,L|56:88,2,50
176,72,46127,2,0,P|232:40|312:72,1,150
392,96,46989,6,0,P|416:112|416:144,2,50
472,192,47506,2,0,P|456:240|408:256,1,100
368,272,48023,1,0,0:0:0:0:
224,304,48368,6,0,P|256:312|272:336,2,50
144,336,48885,2,0,B|96:328|56:304|32:264|40:232,1,150
48,168,49747,2,0,P|64:136|96:128,2,50
160,144,50265,2,0,P|216:168|256:152,1,100
288,136,50782,1,0,0:0:0:0:
352,72,51127,6,0,P|376:72|376:96,2,50
432,152,51644,2,0,B|456:191|483:224|453:299,1,150
384,328,52506,2,0,P|352:352|320:352,2,50
328,272,53023,2,0,P|264:272|256:312,1,100
216,328,53540,1,0,0:0:0:0:
144,272,53885,6,0,P|160:240|192:240,2,50
256,232,54402,2,0,B|280:240|344:240|368:208|368:160,1,150
368,88,55265,2,0,P|360:56|328:40,2,50
304,128,55782,2,0,B|256:144|240:176|240:200,1,100
240,240,56299,1,0,0:0:0:0:
304,312,56644,6,0,P|336:336|368:336,2,50
432,312,57161,2,0,B|480:280|464:224|424:208|384:216,1,150
328,168,58023,2,0,P|304:152|296:128,2,50
240,72,58540,2,0,P|208:56|144:72,1,100
120,112,59058,1,0,0:0:0:0:
96,224,59402,6,0,P|64:208|48:200,2,50
91,305,59919,2,0,B|96:362|153:374|186:346|198:307,1,150
267,280,60781,2,0,P|292:266|317:270,2,50
376,232,61299,2,0,P|352:184|384:144,1,100
400,120,61816,1,0,0:0:0:0:
256,88,62161,6,0,B|200:112|184:128|160:192|184:232|240:248,1,200
272,176,63540,6,0,B|328:200|344:216|368:280|344:320|288:336,1,200
256,192,64575,12,0,67333,0:0:0:0:
336,136,67678,6,0,P|368:104|392:96,2,50
400,216,68368,1,0,0:0:0:0:
312,304,68713,1,0,0:0:0:0:
176,344,69058,2,0,P|104:336|80:304,1,100
56,224,69747,1,0,0:0:0:0:
192,168,70092,1,0,0:0:0:0:
256,256,70437,6,0,P|280:280|312:272,2,50
280,152,71127,1,0,0:0:0:0:
400,136,71471,1,0,0:0:0:0:
456,232,71816,2,0,B|448:280|424:304|384:304,1,100
296,328,72506,2,0,P|248:328|224:320,2,50
88,256,73196,6,0,L|120:296,2,50
80,144,73885,1,0,0:0:0:0:
184,72,74230,1,0,0:0:0:0:
296,64,74575,2,0,P|368:48|392:64,1,100
448,152,75265,1,0,0:0:0:0:
360,248,75609,1,0,0:0:0:0:
264,200,75954,6,0,P|296:152|320:144,2,50
224,320,76644,1,0,0:0:0:0:
88,280,76989,1,0,0:0:0:0:
168,192,77333,2,0,P|216:160|232:112,1,100
128,56,78023,1,0,0:0:0:0:
40,168,78368,1,0,0:0:0:0:
104,248,78713,6,0,P|152:288|184:288,2,50
232,352,79402,1,0,0:0:0:0:
368,328,79747,1,0,0:0:0:0:
456,240,80092,2,0,P|392:232|360:168,1,100
448,128,80782,1,0,0:0:0:0:
344,48,81127,1,0,0:0:0:0:
256,104,81471,6,0,P|240:72|224:64,2,50
144,168,82161,1,0,0:0:0:0:
88,264,82506,1,0,0:0:0:0:
152,336,82851,2,0,P|224:352|264:320,1,100
360,312,83540,1,0,0:0:0:0:
456,248,83885,1,0,0:0:0:0:
416,160,84230,6,0,L|456:128,2,50
296,192,84920,1,0,0:0:0:0:
160,232,85265,1,0,0:0:0:0:
72,168,85609,2,0,P|112:112|152:104,1,100
248,56,86299,1,0,0:0:0:0:
360,128,86644,1,0,0:0:0:0:
264,224,86989,6,0,P|232:208|232:192,2,50
376,208,87678,1,0,0:0:0:0:
448,312,88023,1,0,0:0:0:0:
256,192,88368,12,0,89747,0:0:0:0:
