osu file format v14

[General]
AudioFilename: audio.mp3
AudioLeadIn: 0
PreviewTime: -1
Countdown: 0
SampleSet: Soft
StackLeniency: 0.7
Mode: 0
LetterboxInBreaks: 0
WidescreenStoryboard: 1

[Editor]
DistanceSpacing: 1.3
BeatDivisor: 8
GridSize: 8
TimelineZoom: 4.199998

[Metadata]
Title:Unreal (ft. Ayve)
TitleUnicode:Unreal (ft. Ayve)
Artist:T & Sugah
ArtistUnicode:T & Sugah
Creator:MaryJaneSheep
Version:High
Source:
Tags:
BeatmapID:1487545
BeatmapSetID:703021

[Difficulty]
HPDrainRate:6
CircleSize:5
OverallDifficulty:8
ApproachRate:9.8
SliderMultiplier:1.4
SliderTickRate:1

[Events]
//Background and Video events
0,0,"maxresdefault (2).jpg",0,0
//Break Periods
//Storyboard Layer 0 (Background)
//Storyboard Layer 1 (Fail)
//Storyboard Layer 2 (Pass)
//Storyboard Layer 3 (Foreground)
//Storyboard Sound Samples

[TimingPoints]
4230.53962110971,344.827586206897,4,2,0,27,1,0
28368,-125,4,2,0,27,0,0
28540,-100,4,2,0,27,0,0
33885,-125,4,2,0,27,0,0
34058,-100,4,2,0,27,0,0
39402,-125,4,2,0,27,0,0
39575,-100,4,2,0,27,0,0
67678,-71.4285714285714,4,2,0,37,0,0
72851,-50,4,2,0,33,0,0
73196,-71.4285714285714,4,2,0,33,0,0
83885,-50,4,2,0,33,0,0
84058,-71.4285714285714,4,2,0,33,0,0

[HitObjects]
256,192,20782,12,0,23196,0:0:0:0:
80,216,23540,6,0,B|120:272|152:264|208:256,1,140
280,328,24058,2,0,P|240:312|224:280,1,70
296,240,24575,1,2,0:0:0:0:
344,232,24920,1,2,0:0:0:0:
424,192,25437,1,2,0:0:0:0:
424,192,25609,2,2,B|496:168|504:136|480:88,1,140
376,40,26299,5,2,0:0:0:0:
248,40,26816,1,2,0:0:0:0:
248,40,26989,2,2,B|152:16|104:64,1,140
48,136,27678,1,2,0:0:0:0:
48,264,27851,1,2,0:0:0:0:
152,200,28023,1,0,0:0:0:0:
176,192,28109,1,0,0:0:0:0:
200,176,28196,1,0,0:0:0:0:
288,168,28368,2,0,P|328:184|336:200,1,56
424,224,28713,1,2,0:0:0:0:
440,328,28885,1,2,0:0:0:0:
312,320,29058,5,2,0:0:0:0:
224,328,29575,1,2,0:0:0:0:
224,328,29747,2,2,B|128:344|88:288,1,140
152,208,30437,1,2,0:0:0:0:
128,104,30954,1,2,0:0:0:0:
128,104,31127,2,2,B|80:72|24:72|-1:116,1,140
48,216,31816,1,2,0:0:0:0:
152,224,32333,1,0,0:0:0:0:
152,224,32506,2,0,B|208:256|224:264|296:240,1,140
336,104,33196,1,2,0:0:0:0:
464,208,33368,1,2,0:0:0:0:
416,288,33540,1,0,0:0:0:0:
392,288,33627,1,0,0:0:0:0:
368,280,33713,1,0,0:0:0:0:
283,255,33885,2,0,P|255:232|216:223,1,56
160,296,34230,1,2,0:0:0:0:
64,328,34402,1,2,0:0:0:0:
64,232,34575,5,2,0:0:0:0:
80,136,35092,1,0,0:0:0:0:
80,136,35265,2,0,B|73:81|132:61|179:92|166:152,1,140
256,64,35954,1,2,0:0:0:0:
376,72,36471,1,0,0:0:0:0:
376,72,36644,2,0,B|452:76|469:145|472:191,1,140
392,232,37333,1,2,0:0:0:0:
256,176,37851,1,0,0:0:0:0:
256,176,38023,2,0,B|232:241|297:289|351:226,1,140
440,256,38713,1,2,0:0:0:0:
512,128,38885,1,2,0:0:0:0:
416,88,39058,1,0,0:0:0:0:
392,72,39144,1,0,0:0:0:0:
368,64,39230,1,0,0:0:0:0:
256,48,39402,2,0,P|216:40|200:56,1,56
128,80,39747,1,2,0:0:0:0:
72,144,39920,1,2,0:0:0:0:
104,232,40092,5,2,0:0:0:0:
184,320,40609,1,0,0:0:0:0:
184,320,40782,2,0,B|240:344|280:344|312:328|336:312,1,140
424,320,41471,1,2,0:0:0:0:
464,240,41989,1,0,0:0:0:0:
464,240,42161,2,0,B|400:256|368:224|376:160,1,140
256,192,42851,12,0,44920,0:0:0:0:
48,280,45609,5,0,0:0:0:0:
192,128,45782,1,0,0:0:0:0:
240,288,45954,1,0,0:0:0:0:
40,152,46127,2,2,L|64:152,1,17.5
288,80,46299,1,0,0:0:0:0:
160,80,46471,1,0,0:0:0:0:
480,80,46644,6,0,P|464:88|464:96,1,17.5
288,184,46816,1,0,0:0:0:0:
480,136,46989,2,0,L|464:144,1,17.5
288,240,47161,1,0,0:0:0:0:
488,320,47333,1,0,0:0:0:0:
256,352,47506,2,0,L|256:328,1,17.5
56,320,47678,1,0,0:0:0:0:
248,248,47851,1,0,0:0:0:0:
56,216,48023,6,0,P|72:208|75:203,1,17.5
256,136,48196,1,0,0:0:0:0:
56,216,48368,2,0,P|72:208|75:203,1,17.5
56,40,48540,1,0,0:0:0:0:
256,40,48713,1,0,0:0:0:0:
256,192,48885,6,0,L|256:168,1,17.5
120,248,49057,1,0,0:0:0:0:
392,136,49230,1,0,0:0:0:0:
256,240,49402,2,0,L|256:216,1,17.5
118,188,49575,5,0,0:0:0:0:
256,168,49747,2,0,L|256:144,1,17.5
393,219,49920,1,0,0:0:0:0:
190,60,50092,1,0,0:0:0:0:
256,192,50221,2,0,L|256:160,1,17.5
321,323,50265,1,0,0:0:0:0:
321,60,50437,1,0,0:0:0:0:
190,323,50609,1,0,0:0:0:0:
432,320,50782,6,0,L|408:304,1,17.5
240,208,50954,1,0,0:0:0:0:
488,296,51127,2,0,L|464:280,1,17.5
296,184,51299,1,0,0:0:0:0:
144,288,51471,1,0,0:0:0:0:
16,120,51644,6,0,L|40:104,1,17.5
216,8,51816,1,0,0:0:0:0:
320,160,51989,1,0,0:0:0:0:
128,272,52161,6,0,L|152:256,1,17.5
320,160,52333,1,0,0:0:0:0:
72,248,52506,2,0,L|96:232,1,17.5
264,136,52678,1,0,0:0:0:0:
440,136,52851,1,0,0:0:0:0:
448,328,53023,6,0,L|424:304,1,17.5
336,216,53196,1,0,0:0:0:0:
224,96,53368,1,0,0:0:0:0:
424,56,53540,2,0,L|400:72,1,17.5
256,192,53713,1,0,0:0:0:0:
432,112,53885,6,0,L|408:128,1,17.5
264,248,54058,1,0,0:0:0:0:
128,360,54230,1,0,0:0:0:0:
8,248,54402,2,0,L|40:248,1,17.5
120,128,54575,1,0,0:0:0:0:
256,64,54747,5,0,0:0:0:0:
288,64,54833,1,0,0:0:0:0:
320,80,54920,1,0,0:0:0:0:
392,160,55092,1,0,0:0:0:0:
304,336,55265,6,0,L|282:309,1,17.5
204,212,55438,1,0,0:0:0:0:
105,81,55610,1,0,0:0:0:0:
96,296,55782,2,0,L|120:280,1,17.5
392,72,55954,1,0,0:0:0:0:
256,72,56127,1,0,0:0:0:0:
256,240,56299,1,0,0:0:0:0:
272,232,56385,1,0,0:0:0:0:
288,224,56471,5,0,0:0:0:0:
304,216,56558,1,0,0:0:0:0:
320,208,56644,5,0,0:0:0:0:
488,96,56816,5,0,0:0:0:0:
280,16,56989,1,0,0:0:0:0:
40,48,57161,2,0,L|56:64,1,17.5
80,248,57377,1,0,0:0:0:0:
240,176,57506,1,0,0:0:0:0:
328,272,57678,1,0,0:0:0:0:
304,288,57765,1,0,0:0:0:0:
280,304,57851,5,0,0:0:0:0:
256,320,57937,1,0,0:0:0:0:
232,336,58023,5,0,0:0:0:0:
24,288,58196,5,0,0:0:0:0:
232,368,58369,1,0,0:0:0:0:
472,336,58541,2,0,L|456:320,1,17.5
376,144,58757,1,0,0:0:0:0:
136,144,58886,1,0,0:0:0:0:
256,32,59058,6,0,L|256:56,1,17.5
256,256,59230,1,0,0:0:0:0:
256,96,59402,2,0,L|256:120,1,17.5
256,320,59574,1,0,0:0:0:0:
344,224,59747,1,0,0:0:0:0:
168,232,59920,6,0,L|168:264,1,17.5
168,344,60092,1,0,0:0:0:0:
32,272,60265,1,0,0:0:0:0:
80,152,60437,1,0,0:0:0:0:
96,144,60523,1,0,0:0:0:0:
112,136,60609,5,0,0:0:0:0:
128,128,60696,1,0,0:0:0:0:
144,120,60782,5,0,0:0:0:0:
256,64,60954,1,0,0:0:0:0:
376,112,61127,1,0,0:0:0:0:
448,328,61299,6,0,L|424:304,1,17.5
336,216,61472,1,0,0:0:0:0:
224,96,61644,1,0,0:0:0:0:
424,56,61816,2,0,L|400:72,1,17.5
256,192,61989,1,0,0:0:0:0:
432,112,62161,6,0,L|408:128,1,17.5
264,248,62334,1,0,0:0:0:0:
136,360,62506,1,0,0:0:0:0:
8,248,62678,2,0,L|40:248,1,17.5
144,128,62851,1,0,0:0:0:0:
256,120,63023,1,0,0:0:0:0:
256,256,63196,6,0,L|280:240,1,17.5
416,168,63368,1,0,0:0:0:0:
232,320,63540,2,0,L|256:304,1,17.5
392,232,63712,1,0,0:0:0:0:
392,88,63885,1,0,0:0:0:0:
104,88,64058,6,0,L|136:88,1,17.5
256,192,64230,1,0,0:0:0:0:
376,296,64402,1,0,0:0:0:0:
376,192,64575,1,0,0:0:0:0:
256,296,64747,1,0,0:0:0:0:
256,192,64920,12,0,67333,0:0:0:0:
400,192,67678,5,0,0:0:0:0:
328,368,67851,1,0,0:0:0:0:
152,296,68023,1,0,0:0:0:0:
248,96,68196,2,0,P|224:72|192:80,2,48.9999985046387
0,160,68540,1,8,0:0:0:0:
256,208,68713,1,8,0:0:0:0:
40,280,68885,1,8,0:0:0:0:
256,336,69058,5,0,0:0:0:0:
256,336,69230,1,0,0:0:0:0:
359,107,69402,2,0,L|392:136,1,24.4999992523194
368,224,69575,1,2,0:0:0:0:
336,216,69661,1,2,0:0:0:0:
312,192,69747,1,2,0:0:0:0:
200,136,69920,1,8,0:0:0:0:
104,64,70092,2,0,B|64:56|32:72|24:112,1,97.9999970092774
440,224,70437,5,0,0:0:0:0:
368,48,70610,1,0,0:0:0:0:
192,120,70782,1,0,0:0:0:0:
288,320,70955,2,0,P|264:344|232:336,2,48.9999985046387
40,256,71299,1,8,0:0:0:0:
296,208,71472,1,8,0:0:0:0:
80,136,71644,1,8,0:0:0:0:
296,80,71817,5,0,0:0:0:0:
296,80,71989,1,0,0:0:0:0:
399,309,72161,2,0,L|432:280,1,24.4999992523194
408,192,72334,1,2,0:0:0:0:
376,200,72420,1,2,0:0:0:0:
352,224,72506,1,2,0:0:0:0:
240,280,72679,1,8,0:0:0:0:
160,328,72851,2,0,B|137:327|137:327|138:304|138:304|110:297|110:297|110:275|110:275|82:268|71:257,1,140
440,192,73196,5,0,0:0:0:0:
368,368,73369,1,0,0:0:0:0:
192,296,73541,1,0,0:0:0:0:
288,96,73714,2,0,P|264:72|232:80,2,48.9999985046387
40,160,74058,1,8,0:0:0:0:
296,208,74231,1,8,0:0:0:0:
80,280,74403,1,8,0:0:0:0:
296,336,74576,5,0,0:0:0:0:
296,336,74748,1,0,0:0:0:0:
399,107,74920,2,0,L|432:136,1,24.4999992523194
408,224,75093,1,2,0:0:0:0:
376,216,75179,1,2,0:0:0:0:
352,192,75265,1,2,0:0:0:0:
240,136,75438,1,8,0:0:0:0:
144,64,75610,2,0,B|104:56|72:72|64:112,1,97.9999970092774
480,224,75955,5,0,0:0:0:0:
408,48,76128,1,0,0:0:0:0:
232,120,76300,1,0,0:0:0:0:
328,320,76473,2,0,P|304:344|272:336,2,48.9999985046387
80,256,76817,1,8,0:0:0:0:
336,208,76990,1,8,0:0:0:0:
120,136,77162,1,8,0:0:0:0:
336,80,77335,5,0,0:0:0:0:
336,80,77507,1,0,0:0:0:0:
439,309,77679,2,0,L|472:280,1,24.4999992523194
448,192,77852,1,2,0:0:0:0:
416,200,77938,1,2,0:0:0:0:
400,216,78024,1,2,0:0:0:0:
360,336,78197,1,8,0:0:0:0:
240,296,78368,5,0,0:0:0:0:
120,256,78540,1,0,0:0:0:0:
96,240,78627,1,0,0:0:0:0:
88,216,78713,5,0,0:0:0:0:
216,64,78886,1,0,0:0:0:0:
312,104,79058,1,0,0:0:0:0:
240,312,79231,2,0,P|264:336|296:328,2,48.9999985046387
432,304,79575,1,8,0:0:0:0:
240,168,79748,1,8,0:0:0:0:
480,216,79920,1,8,0:0:0:0:
408,104,80093,5,0,0:0:0:0:
408,104,80265,1,0,0:0:0:0:
248,280,80437,2,0,L|215:251,1,24.4999992523194
440,176,80610,1,2,0:0:0:0:
432,208,80696,1,2,0:0:0:0:
408,232,80782,1,2,0:0:0:0:
336,272,80955,1,8,0:0:0:0:
208,352,81127,2,0,B|168:360|136:344|128:304,1,97.9999970092774
88,168,81471,5,0,0:0:0:0:
216,320,81644,1,0,0:0:0:0:
312,280,81816,1,0,0:0:0:0:
240,72,81989,2,0,P|264:48|296:56,2,48.9999985046387
432,80,82333,1,8,0:0:0:0:
240,216,82506,1,8,0:0:0:0:
480,168,82678,1,8,0:0:0:0:
408,280,82851,5,0,0:0:0:0:
408,280,83023,1,0,0:0:0:0:
248,104,83195,2,0,L|215:133,1,24.4999992523194
440,208,83368,1,2,0:0:0:0:
432,176,83454,1,2,0:0:0:0:
408,152,83540,1,2,0:0:0:0:
328,104,83713,1,8,0:0:0:0:
232,56,83885,2,0,B|211:65|211:65|201:45|201:45|173:52|173:52|163:32|163:32|136:39|120:34,1,140
400,192,84230,5,0,0:0:0:0:
328,368,84403,1,0,0:0:0:0:
152,296,84575,1,0,0:0:0:0:
248,96,84748,2,0,P|224:72|192:80,2,48.9999985046387
0,160,85092,1,8,0:0:0:0:
256,208,85265,1,8,0:0:0:0:
40,280,85437,1,8,0:0:0:0:
256,336,85610,5,0,0:0:0:0:
256,336,85782,1,0,0:0:0:0:
359,107,85954,2,0,L|392:136,1,24.4999992523194
368,224,86127,1,2,0:0:0:0:
336,216,86213,1,2,0:0:0:0:
312,192,86299,1,2,0:0:0:0:
200,136,86472,1,8,0:0:0:0:
104,64,86644,2,0,B|64:56|32:72|24:112,1,97.9999970092774
440,224,86989,5,0,0:0:0:0:
368,48,87162,1,0,0:0:0:0:
192,120,87334,1,0,0:0:0:0:
288,320,87507,2,0,P|264:344|232:336,2,48.9999985046387
40,256,87851,1,8,0:0:0:0:
80,64,88023,1,0,0:0:0:0:
296,96,88196,1,8,0:0:0:0:
232,344,88368,5,0,0:0:0:0:
512,224,88885,1,0,0:0:0:0:
16,56,89402,1,0,0:0:0:0:
