osu file format v14

[General]
AudioFilename: audio.mp3
AudioLeadIn: 0
PreviewTime: 110162
Countdown: 0
SampleSet: Soft
StackLeniency: 0.5
Mode: 0
LetterboxInBreaks: 0
WidescreenStoryboard: 0

[Editor]
Bookmarks: 11196,22230,44299,55334,66368,88437,110506,132575,154644,165679,176713,198782,220851,231886
DistanceSpacing: 1.1
BeatDivisor: 4
GridSize: 32
TimelineZoom: 2.599999

[Metadata]
Title:Demons (feat. Voicians)
TitleUnicode:Demons (feat. Voicians)
Artist:T & Sugah
ArtistUnicode:T & Sugah
Creator:piroshki
Version:Hard
Source:
Tags:english dnb drum and bass electronic daycore fa featured artist mg mappers' guild mpg
BeatmapID:3238126
BeatmapSetID:1545216

[Difficulty]
HPDrainRate:4
CircleSize:3.5
OverallDifficulty:6
ApproachRate:8
SliderMultiplier:1.4
SliderTickRate:1

[Events]
//Background and Video events
0,0,"73959654_p0.jpg",0,0
//Break Periods
2,132775,149681
//Storyboard Layer 0 (Background)
//Storyboard Layer 1 (Fail)
//Storyboard Layer 2 (Pass)
//Storyboard Layer 3 (Foreground)
//Storyboard Layer 4 (Overlay)
//Storyboard Sound Samples

[TimingPoints]
162,344.827586206897,4,2,1,60,1,0
162,-125,4,2,1,60,0,0
11196,-125,4,2,1,75,0,0
19989,-125,4,2,1,70,0,0
20506,-125,4,2,1,60,0,0
21024,-125,4,2,1,50,0,0
22230,-100,4,2,8,60,0,0
22920,-100,4,2,1,60,0,0
44299,-100,4,2,1,76,0,0
54989,-100,4,2,2,76,0,0
63610,-100,4,2,2,70,0,0
66368,-83.3333333333333,4,2,2,85,0,1
87230,-83.3333333333333,4,2,2,74,0,1
87748,-83.3333333333333,4,2,2,62,0,1
88437,-90.9090909090909,4,2,2,75,0,0
110506,-83.3333333333333,4,2,2,85,0,1
130334,-83.3333333333333,4,2,2,76,0,1
130851,-83.3333333333333,4,2,2,68,0,1
131368,-83.3333333333333,4,2,2,60,0,1
131886,-83.3333333333333,4,2,2,52,0,1
132575,-83.3333333333333,4,2,2,46,0,0
154644,-100,4,2,2,55,0,0
154989,-100,4,2,1,55,0,0
165334,-100,4,2,2,55,0,0
165679,-100,4,2,2,65,0,0
173955,-100,4,2,2,71,0,0
176713,-83.3333333333333,4,2,2,85,0,1
196541,-83.3333333333333,4,2,2,78,0,1
197058,-83.3333333333333,4,2,2,72,0,1
197575,-83.3333333333333,4,2,2,66,0,1
198093,-83.3333333333333,4,2,2,58,0,1
198782,-83.3333333333333,4,2,2,68,0,0
218782,-83.3333333333333,4,2,2,55,0,0
220851,-125,4,2,2,48,0,0

[Colours]
Combo1 : 176,180,208
Combo2 : 255,72,72
Combo3 : 108,108,108
Combo4 : 255,0,0

[HitObjects]
41,234,162,6,0,L|206:262,1,168,2|2,2:0|2:0,2:0:0:0:
471,309,1196,2,0,L|305:280,1,168,2|2,2:0|2:0,2:0:0:0:
306,280,2230,2,0,L|320:334,1,56,2|0,2:0|2:0,2:0:0:0:
274,144,2748,1,2,2:0:0:0:
223,69,2920,6,0,P|305:61|363:124,1,168,2|2,2:0|2:0,2:0:0:0:
270,370,3955,2,0,P|187:377|129:314,1,168,2|2,2:0|2:0,2:0:0:0:
132,321,4989,2,0,L|144:263,1,56,2|0,2:0|2:0,2:0:0:0:
21,134,5506,1,2,2:0:0:0:
71,59,5679,6,0,B|122:92|122:92|103:197,1,168,2|2,2:0|2:0,2:0:0:0:
350,305,6713,2,0,B|299:272|299:272|317:166,1,168,2|2,2:0|2:0,2:0:0:0:
317,166,7748,2,0,L|372:157,1,56,2|0,2:0|2:0,2:0:0:0:
485,18,8265,1,2,2:0:0:0:
472,106,8437,6,0,L|450:278,1,168,2|2,2:0|2:0,2:0:0:0:
197,357,9472,2,0,L|175:190,1,168,2|2,2:0|2:0,2:0:0:0:
175,190,10506,2,0,L|111:171,1,56,2|0,2:0|2:0,2:0:0:0:
201,13,11024,1,2,2:0:0:0:
253,85,11196,6,0,B|345:113|345:113|341:184,2,168,10|2|2,2:0|2:0|2:0,2:0:0:0:
422,294,12748,2,0,L|432:103,1,168,2|10,2:0|2:0,2:0:0:0:
197,259,13782,5,10,2:0:0:0:
149,182,13955,2,0,P|102:247|128:324,2,168,10|2|2,2:0|2:0|2:0,2:0:0:0:
404,266,15506,2,0,B|335:259|335:259|316:274|316:274|242:264,1,168,2|10,2:0|2:0,2:0:0:0:
364,24,16541,5,10,2:0:0:0:
444,63,16713,2,0,B|426:103|426:103|305:131,2,168,10|2|2,2:0|2:0|2:0,2:0:0:0:
478,329,18265,2,0,B|453:291|453:291|330:282,1,168,2|10,2:0|2:0,2:0:0:0:
132,101,19299,1,10,2:0:0:0:
132,101,19472,1,2,2:0:0:0:
256,192,19644,12,0,21886,2:0:0:0:
510,184,22230,6,0,L|298:220,1,210,4|0,3:2|2:0,2:0:0:0:
315,302,22920,2,0,L|383:289,1,70,2|0,2:0|2:0,2:0:0:0:
414,368,23265,1,2,2:0:0:0:
246,354,23610,6,0,B|208:295|208:295|140:312,1,140,2|0,2:0|2:0,2:0:0:0:
92,381,24127,2,0,L|144:105,1,280,2|0,2:0|2:0,2:0:0:0:
98,37,24989,6,0,L|28:46,1,70,2|2,2:0|2:0,2:0:0:0:
179,28,25334,2,0,L|248:18,1,70,2|0,2:0|2:0,2:0:0:0:
296,88,25679,1,2,2:0:0:0:
442,6,26024,1,2,2:0:0:0:
391,165,26368,6,0,B|345:149|345:149|374:234,1,140,2|0,2:0|2:0,2:0:0:0:
451,270,26886,2,0,B|392:261|392:261|370:293|370:293|190:263,1,280,2|0,2:0|2:0,2:0:0:0:
148,195,27748,1,2,2:0:0:0:
20,309,28093,1,2,2:0:0:0:
186,279,28437,6,0,L|258:290,1,70,2|0,2:0|2:0,2:0:0:0:
328,336,28782,2,0,B|360:355|360:355|400:347,1,70,2|0,2:0|2:0,2:0:0:0:
469,303,29127,2,0,P|445:233|436:166,1,140,2|0,2:0|2:0,2:0:0:0:
506,120,29644,2,0,B|476:79|476:79|318:104,1,210,2|2,2:0|2:0,2:0:0:0:
171,185,30506,6,0,L|102:168,1,70,2|2,2:0|2:0,2:0:0:0:
153,101,30851,2,0,L|84:84,1,70,2|0,2:0|2:0,2:0:0:0:
24,142,31196,1,2,2:0:0:0:
83,299,31541,1,2,2:0:0:0:
186,166,31886,6,0,L|164:27,1,140,2|0,2:0|2:0,2:0:0:0:
248,34,32403,2,0,P|227:176|216:312,1,280,2|0,2:0|2:0,2:0:0:0:
275,371,33265,1,6,2:1:0:0:
317,208,33610,1,2,2:0:0:0:
425,336,33955,2,0,P|446:302|449:252,1,70,2|0,2:0|2:0,2:0:0:0:
420,194,34299,2,0,P|399:160|396:110,1,70,2|0,2:0|2:0,2:0:0:0:
457,76,34644,6,0,B|404:27|404:27|349:66,1,140,2|0,2:0|2:0,2:0:0:0:
283,12,35162,2,0,P|301:103|307:220,1,210,2|2,2:0|2:0,2:0:0:0:
202,349,36024,6,0,P|165:340|132:340,1,70,2|2,2:0|2:0,2:0:0:0:
142,256,36368,2,0,P|176:263|211:265,1,70,2|0,2:0|2:0,2:0:0:0:
280,314,36713,1,2,2:0:0:0:
256,147,37058,1,2,2:0:0:0:
121,247,37403,6,0,P|139:317|147:384,1,140,2|0,2:0|2:0,2:0:0:0:
67,356,37920,2,0,P|35:220|-11:88,1,280,2|0,2:0|2:0,2:0:0:0:
8,6,38782,6,0,P|37:8|76:21,1,70,2|2,2:0|2:0,2:0:0:0:
100,106,39127,1,2,2:0:0:0:
100,106,39299,1,2,2:0:0:0:
181,86,39472,6,0,L|168:154,1,70,2|0,2:0|2:0,2:0:0:0:
154,237,39817,2,0,L|141:305,1,70,2|0,2:0|2:0,2:0:0:0:
64,340,40162,6,0,P|133:349|201:365,1,140,2|0,2:0|2:0,2:0:0:0:
283,345,40679,2,0,B|270:259|270:259|300:226|300:226|286:134,1,210,2|2,2:0|2:0,2:0:0:0:
408,31,41541,6,0,B|442:19|442:19|476:43,2,70,2|2|2,2:0|2:0|2:0,2:0:0:0:
393,198,42230,1,2,2:0:0:0:
376,364,42575,1,2,2:0:0:0:
269,233,42920,6,0,B|226:220|226:220|247:312,1,140,2|0,2:0|2:0,2:0:0:0:
197,380,43437,2,0,L|218:100,1,280,0|0,2:0|2:0,2:0:0:0:
155,45,44299,6,0,L|68:64,1,70,4|0,3:2|2:0,2:0:0:0:
74,146,44644,1,2,2:0:0:0:
74,146,44817,2,0,P|103:164|126:190,1,70,2|0,2:0|2:0,2:0:0:0:
109,357,45334,6,0,P|78:373|43:380,1,70,2|0,2:0|2:0,2:0:0:0:
50,295,45679,2,0,L|188:314,1,140,2|2,2:0|2:0,2:0:0:0:
188,314,46368,1,2,2:0:0:0:
342,382,46713,6,0,B|351:349|351:349|308:326,1,70,2|0,2:0|2:0,2:0:0:0:
319,247,47058,2,0,L|395:217,1,70,2|0,2:0|2:0,2:0:0:0:
358,146,47403,1,2,2:0:0:0:
358,146,47575,2,0,L|292:172,1,70,2|0,2:0|2:0,2:0:0:0:
377,25,48093,6,0,P|415:37|444:60,1,70,2|0,2:0|2:0,2:0:0:0:
492,119,48437,2,0,P|478:187|474:257,1,140,2|2,2:0|2:0,2:0:0:0:
474,257,49127,1,2,2:0:0:0:
324,179,49472,6,0,P|324:218|319:252,1,70,2|2,2:0|2:0,2:0:0:0:
248,294,49817,2,0,P|212:280|180:274,1,70,6|0,2:0|2:0,2:0:0:0:
132,211,50162,1,2,2:0:0:0:
132,211,50334,2,0,P|97:226|70:244,1,70,2|0,2:0|2:0,2:0:0:0:
14,85,50851,6,0,P|43:104|75:117,1,70,2|0,2:0|2:0,2:0:0:0:
158,104,51196,2,0,L|292:66,1,140,2|2,2:0|2:0,2:0:0:0:
292,66,51886,1,2,2:0:0:0:
449,8,52230,6,0,L|437:77,1,70,2|0,2:0|2:0,2:0:0:0:
376,135,52575,2,0,P|374:169|387:204,1,70,6|0,2:0|2:0,2:0:0:0:
452,263,52920,1,2,2:0:0:0:
452,263,53093,2,0,P|428:290|416:322,1,70,2|0,2:0|2:0,2:0:0:0:
256,374,53610,6,0,L|266:289,1,70,2|0,2:0|2:0,2:0:0:0:
197,252,53955,2,0,B|154:278|154:278|157:367,1,140,2|2,2:0|2:0,2:0:0:0:
157,367,54644,1,2,2:0:0:0:
274,227,54989,1,10,3:2:0:0:
274,227,55162,1,8,3:2:0:0:
209,173,55334,6,0,L|140:187,2,70,6|2|10,3:2|2:0|3:2,2:0:0:0:
287,143,55851,2,0,L|303:75,1,70,10|2,3:2|3:2,2:0:0:0:
141,32,56368,2,0,L|152:103,1,70,10|0,3:2|2:0,2:0:0:0:
78,143,56713,5,2,3:2:0:0:
183,273,57058,1,8,3:2:0:0:
24,329,57403,1,2,3:2:0:0:
161,195,57748,6,0,P|193:193|240:214,1,70,10|2,3:2|2:0,2:0:0:0:
280,324,58093,2,0,L|295:256,2,70,2|2|10,3:2|2:0|3:2,2:0:0:0:
362,344,58610,2,0,L|376:273,1,70,10|2,3:2|3:2,2:0:0:0:
338,111,59127,2,0,B|328:74|328:74|351:42,1,70,10|0,3:2|2:0,2:0:0:0:
426,22,59472,5,2,3:2:0:0:
385,185,59817,1,10,3:2:0:0:
244,92,60162,1,2,3:2:0:0:
133,218,60506,6,0,L|146:309,1,70,10|2,3:2|2:0,2:0:0:0:
94,356,60851,2,0,L|24:345,2,70,2|2|10,3:2|2:0|3:2,2:0:0:0:
177,369,61368,2,0,L|246:379,1,70,10|2,3:2|3:2,2:0:0:0:
296,218,61886,2,0,P|261:208|226:208,1,70,10|0,3:2|2:0,2:0:0:0:
179,140,62230,5,2,3:2:0:0:
40,235,62575,1,10,3:2:0:0:
21,67,62920,1,2,3:2:0:0:
227,208,63265,6,0,P|262:208|296:218,1,70,10|8,3:2|3:2,2:0:0:0:
350,282,63610,1,8,3:2:0:0:
346,295,63696,1,8,3:2:0:0:
342,308,63782,1,8,3:2:0:0:
404,364,63955,6,0,L|465:348,3,35,8|8|8|8,3:2|3:2|3:2|3:2,2:0:0:0:
460,319,64299,2,0,L|473:268,3,35,0|0|0|0,3:2|3:2|3:2|3:2,2:0:0:0:
449,247,64644,2,0,L|461:178,1,70,8|4,3:0|3:0,2:0:0:0:
407,113,64989,6,0,L|372:120,3,35,8|8|8|8,3:2|3:2|3:2|3:2,2:0:0:0:
350,156,65334,2,0,L|315:148,3,35,0|0|0|0,3:2|3:2|3:2|3:2,2:0:0:0:
274,140,65679,2,0,L|239:147,3,35,8|8|12|4,3:0|3:0|3:0|3:0,2:0:0:0:
199,133,66024,2,0,B|167:152|167:152|177:193,1,70,8|8,3:2|3:2,2:0:0:0:
248,252,66368,6,0,P|262:285|265:334,1,83.9999974365235,4|0,3:2|2:0,2:0:0:0:
179,382,66713,1,8,3:2:0:0:
179,382,66886,2,0,P|137:363|98:357,1,83.9999974365235,2|0,2:0|2:0,2:0:0:0:
15,302,67230,1,2,3:2:0:0:
80,222,67403,6,0,B|66:145|66:145|73:136|73:136|57:51,1,167.999994873047,10|0,3:2|3:2,2:0:0:0:
145,6,67920,2,0,L|160:88,1,83.9999974365235,2|8,2:0|3:2,2:0:0:0:
259,108,68265,1,2,2:0:0:0:
203,192,68437,2,0,B|262:231|262:231|243:326,1,167.999994873047,2|8,2:0|3:2,2:0:0:0:
335,370,68955,1,2,2:0:0:0:
426,328,69127,6,0,L|409:245,1,83.9999974365235,4|0,3:2|2:0,2:0:0:0:
487,181,69472,1,8,3:2:0:0:
487,181,69644,2,0,P|455:153|415:142,1,83.9999974365235,2|2,2:0|2:0,2:0:0:0:
327,192,69989,1,2,3:2:0:0:
248,128,70162,6,0,B|214:141|214:141|224:226|224:226|180:244,1,167.999994873047,10|0,3:2|3:2,2:0:0:0:
143,338,70679,2,0,P|107:315|86:280,1,83.9999974365235,2|8,2:0|3:2,2:0:0:0:
107,181,71024,1,2,2:0:0:0:
38,107,71196,2,0,B|15:63|15:63|135:77,1,167.999994873047,2|8,2:0|3:2,2:0:0:0:
211,140,71713,1,10,3:2:0:0:
279,65,71886,6,0,P|323:65|362:74,1,83.9999974365235,4|0,3:2|2:0,2:0:0:0:
458,40,72230,1,8,3:2:0:0:
458,40,72403,2,0,P|484:72|498:111,1,83.9999974365235,2|0,2:0|2:0,2:0:0:0:
432,188,72748,1,2,3:2:0:0:
507,254,72920,6,0,L|342:220,1,167.999994873047,10|0,3:2|3:2,2:0:0:0:
245,191,73437,2,0,B|215:221|215:221|227:260,1,83.9999974365235,2|10,2:0|3:2,2:0:0:0:
310,319,73782,1,2,2:0:0:0:
227,377,73955,2,0,L|144:362,1,83.9999974365235,2|0,2:0|2:0,2:0:0:0:
104,275,74299,1,8,3:2:0:0:
104,275,74472,1,2,2:0:0:0:
18,328,74644,6,0,B|-7:287|-7:287|2:245,1,83.9999974365235,4|0,3:2|2:0,2:0:0:0:
69,177,74989,1,10,3:2:0:0:
38,80,75162,2,0,L|134:60,1,83.9999974365235,2|2,2:0|2:0,2:0:0:0:
208,109,75506,1,2,3:2:0:0:
265,36,75679,6,0,P|248:122|242:202,1,167.999994873047,10|0,3:2|3:2,2:0:0:0:
226,293,76196,2,0,B|270:289|270:289|300:332,1,83.9999974365235,2|8,2:0|3:2,2:0:0:0:
382,368,76541,1,2,2:0:0:0:
473,326,76713,2,0,L|489:243,1,83.9999974365235,2|0,2:0|3:2,2:0:0:0:
489,142,77058,2,0,P|448:148|416:175,1,83.9999974365235,8|10,3:2|3:2,2:0:0:0:
416,188,77317,1,10,3:2:0:0:
415,200,77403,6,0,L|332:184,1,83.9999974365235,4|0,3:2|2:0,2:0:0:0:
266,115,77748,1,8,3:2:0:0:
266,115,77920,2,0,B|222:130|222:130|230:172,1,83.9999974365235,2|0,2:0|2:0,2:0:0:0:
272,258,78265,1,2,3:2:0:0:
171,268,78437,6,0,B|139:98,1,167.999994873047,10|0,3:2|3:2,2:0:0:0:
57,161,78954,2,0,L|75:244,1,83.9999974365235,2|8,2:0|3:2,2:0:0:0:
6,318,79299,1,2,2:0:0:0:
104,337,79471,2,0,B|269:366,1,167.999994873047,2|8,2:0|3:2,2:0:0:0:
343,296,79989,1,2,2:0:0:0:
414,366,80161,6,0,P|436:329|440:288,1,83.9999974365235,4|0,3:2|2:0,2:0:0:0:
380,213,80506,1,8,3:2:0:0:
380,213,80678,2,0,P|353:179|344:139,1,83.9999974365235,2|2,2:0|2:0,2:0:0:0:
412,64,81023,1,2,3:2:0:0:
315,34,81196,6,0,B|192:56|192:56|176:96,1,167.999994873047,10|0,3:2|3:2,2:0:0:0:
109,172,81713,2,0,P|144:194|165:229,1,83.9999974365235,2|8,2:0|3:2,2:0:0:0:
260,265,82058,1,2,2:0:0:0:
184,331,82230,2,0,B|157:377|157:377|41:356,1,167.999994873047,2|8,2:0|3:2,2:0:0:0:
10,261,82747,1,10,3:2:0:0:
41,164,82920,6,0,L|129:141,1,83.9999974365235,4|0,3:2|2:0,2:0:0:0:
122,45,83265,1,8,3:2:0:0:
122,45,83437,2,0,L|40:23,1,83.9999974365235,2|0,2:0|2:0,2:0:0:0:
193,90,83782,1,2,3:2:0:0:
244,6,83954,6,0,P|248:89|255:173,1,167.999994873047,10|0,3:2|3:2,2:0:0:0:
350,134,84471,2,0,P|393:138|432:148,1,83.9999974365235,2|10,2:0|3:2,2:0:0:0:
493,229,84816,1,2,2:0:0:0:
441,316,84989,2,0,P|398:320|358:330,1,83.9999974365235,2|0,2:0|3:2,2:0:0:0:
290,264,85333,1,8,3:2:0:0:
290,264,85506,1,2,2:0:0:0:
204,317,85679,5,4,3:2:0:0:
159,18,86196,1,2,2:0:0:0:
204,317,86713,5,2,2:0:0:0:
159,18,87230,1,2,2:0:0:0:
204,317,87748,5,8,3:0:0:0:
197,312,87834,1,8,3:0:0:0:
190,307,87920,2,0,L|151:323,5,41.9999987182618,12|4|8|0|8|0,3:0|3:0|3:2|3:2|3:2|3:2,2:0:0:0:
115,352,88437,6,0,P|80:339|41:336,1,77.0000023498536,6|2,3:2|2:0,2:0:0:0:
23,244,88782,2,0,L|8:160,1,77.0000023498536,10|2,3:2|2:0,2:0:0:0:
71,99,89127,1,2,2:0:0:0:
71,99,89299,1,2,3:2:0:0:
160,122,89472,2,0,B|150:182|150:182|201:217,1,115.50000352478,10|0,3:2|2:0,2:0:0:0:
208,211,89817,6,0,P|288:195|360:185,1,154.000004699707,2|10,3:2|3:2,2:0:0:0:
420,115,90334,1,2,2:0:0:0:
491,173,90506,2,0,B|528:209|528:209|498:307,1,154.000004699707,2|10,2:0|3:2,2:0:0:0:
428,368,91024,1,2,2:0:0:0:
353,313,91196,6,0,P|317:317|277:329,1,77.0000023498536,2|2,3:2|2:0,2:0:0:0:
263,237,91541,2,0,P|303:231|338:220,1,77.0000023498536,10|2,3:2|2:0,2:0:0:0:
362,134,91886,1,2,2:0:0:0:
362,134,92058,1,2,3:2:0:0:
309,57,92230,2,0,B|281:93|281:93|213:74,1,115.50000352478,10|0,3:2|2:0,2:0:0:0:
208,63,92575,6,0,L|56:88,1,154.000004699707,2|10,3:2|3:2,2:0:0:0:
10,169,93093,1,2,2:0:0:0:
56,248,93265,2,0,B|166:266|166:266|181:310,1,154.000004699707,2|10,2:0|3:2,2:0:0:0:
250,365,93782,1,2,3:2:0:0:
316,300,93955,6,0,L|327:222,1,77.0000023498536,2|2,3:2|2:0,2:0:0:0:
342,132,94299,2,0,L|353:54,1,77.0000023498536,10|2,3:2|2:0,2:0:0:0:
436,15,94644,1,2,2:0:0:0:
436,15,94817,1,2,3:2:0:0:
498,83,94989,2,0,B|464:101|464:101|455:178,1,115.50000352478,10|0,3:2|2:0,2:0:0:0:
465,185,95334,6,0,P|396:218|365:287,1,154.000004699707,2|10,3:2|3:2,2:0:0:0:
376,379,95851,1,2,2:0:0:0:
287,348,96024,2,0,P|242:286|218:214,1,154.000004699707,2|10,2:0|3:2,2:0:0:0:
292,159,96541,1,2,2:0:0:0:
228,92,96713,6,0,L|235:15,1,77.0000023498536,2|2,3:2|2:0,2:0:0:0:
142,6,97058,2,0,L|134:82,1,77.0000023498536,10|2,3:2|2:0,2:0:0:0:
175,166,97403,1,2,2:0:0:0:
175,166,97575,1,2,3:2:0:0:
117,238,97748,2,0,B|59:220|59:220|28:265,1,115.50000352478,10|0,3:2|2:0,2:0:0:0:
20,260,98093,6,0,P|28:174|43:107,1,154.000004699707,2|10,3:2|3:2,2:0:0:0:
2,24,98610,1,2,2:0:0:0:
94,24,98782,2,0,B|152:37|152:37|168:70|168:70|224:81,1,154.000004699707,2|10,2:0|3:2,2:0:0:0:
298,25,99299,1,2,3:2:0:0:
309,31,99386,1,2,3:2:0:0:
321,38,99472,6,0,L|329:114,1,77.0000023498536,6|2,3:2|2:0,2:0:0:0:
261,177,99817,2,0,L|199:223,1,77.0000023498536,10|2,3:2|2:0,2:0:0:0:
203,316,100162,1,2,2:0:0:0:
203,316,100334,1,2,3:2:0:0:
294,327,100506,2,0,B|286:274|286:274|333:234,1,115.50000352478,10|0,3:2|2:0,2:0:0:0:
345,237,100851,6,0,P|346:160|352:83,1,154.000004699707,2|10,3:2|3:2,2:0:0:0:
423,24,101368,1,2,2:0:0:0:
493,84,101541,2,0,P|499:160|500:237,1,154.000004699707,2|10,2:0|3:2,2:0:0:0:
431,300,102058,1,2,2:0:0:0:
497,361,102230,6,0,P|464:343|426:336,1,77.0000023498536,2|2,3:2|2:0,2:0:0:0:
348,286,102575,2,0,P|315:306|290:335,1,77.0000023498536,10|2,3:2|2:0,2:0:0:0:
208,379,102920,1,2,2:0:0:0:
208,379,103093,1,2,3:2:0:0:
134,323,103265,2,0,L|137:246,1,77.0000023498536,10|2,3:2|2:0,2:0:0:0:
207,184,103610,6,0,P|139:153|71:185,1,154.000004699707,2|10,3:2|3:2,2:0:0:0:
10,115,104127,1,2,2:0:0:0:
64,40,104299,2,0,L|214:70,1,154.000004699707,2|10,2:0|3:2,2:0:0:0:
289,15,104817,1,2,3:2:0:0:
353,81,104989,6,0,L|330:154,1,77.0000023498536,2|2,3:2|2:0,2:0:0:0:
301,242,105334,2,0,L|278:315,1,77.0000023498536,10|2,3:2|2:0,2:0:0:0:
359,371,105679,1,2,2:0:0:0:
359,371,105851,1,2,3:2:0:0:
425,308,106024,2,0,B|419:239|419:239|377:218,1,115.50000352478,10|0,3:2|2:0,2:0:0:0:
366,220,106368,6,0,L|213:241,1,154.000004699707,2|10,3:2|3:2,2:0:0:0:
144,304,106886,1,2,2:0:0:0:
84,233,107058,2,0,B|30:288|30:288|62:357,1,154.000004699707,2|10,2:0|3:2,2:0:0:0:
144,304,107575,1,2,3:2:0:0:
177,216,107748,6,0,P|171:179|157:143,1,77.0000023498536,10|2,3:2|3:2,2:0:0:0:
154,50,108093,2,0,P|190:62|223:82,1,77.0000023498536,2|2,3:2|3:2,2:0:0:0:
272,166,108437,1,2,3:2:0:0:
272,166,108610,1,2,3:2:0:0:
335,99,108782,1,2,3:2:0:0:
365,186,108955,1,2,3:2:0:0:
430,120,109127,6,0,L|486:107,3,38.5000011749268,8|8|0|0,3:2|3:2|3:2|3:0,2:0:0:0:
478,122,109472,2,0,L|471:159,3,38.5000011749268,0|0|0|0,3:2|3:2|3:2|3:2,2:0:0:0:
470,174,109817,2,0,L|463:211,4,38.5000011749268,0|0|0|0|8,3:2|3:2|3:2|3:2|3:2,2:0:0:0:
398,273,110334,1,8,3:2:0:0:
400,284,110420,1,8,3:2:0:0:
401,295,110506,6,0,P|364:313|335:343,1,83.9999974365235,4|0,3:2|2:0,2:0:0:0:
241,373,110851,1,8,3:2:0:0:
241,373,111024,2,0,L|228:289,1,83.9999974365235,2|0,2:0|2:0,2:0:0:0:
271,199,111368,1,2,3:2:0:0:
170,211,111541,2,0,L|3:189,1,167.999994873047,10|0,3:2|3:2,2:0:0:0:
61,106,112058,6,0,L|144:117,1,83.9999974365235,2|8,2:0|3:2,2:0:0:0:
219,49,112403,1,2,2:0:0:0:
260,140,112575,2,0,B|319:179|319:179|300:274,1,167.999994873047,2|8,2:0|3:2,2:0:0:0:
355,359,113093,1,2,2:0:0:0:
417,280,113265,6,0,P|448:252|488:241,1,83.9999974365235,4|0,3:2|2:0,2:0:0:0:
505,141,113610,1,10,3:2:0:0:
457,52,113782,2,0,P|416:40|385:13,1,83.9999974365235,2|2,2:0|2:0,2:0:0:0:
336,101,114127,1,2,3:2:0:0:
264,29,114299,6,0,B|221:62|221:62|246:173,1,167.999994873047,10|0,3:2|3:2,2:0:0:0:
330,229,114817,2,0,P|294:252|273:287,1,83.9999974365235,2|8,2:0|3:2,2:0:0:0:
228,377,115162,1,2,2:0:0:0:
151,312,115334,2,0,B|16:332|16:332|0:305,1,167.999994873047,2|8,2:0|3:2,2:0:0:0:
65,228,115851,1,10,3:2:0:0:
33,131,116024,6,0,P|74:126|114:138,1,83.9999974365235,4|0,3:2|2:0,2:0:0:0:
183,66,116368,1,8,3:2:0:0:
183,66,116541,2,0,P|207:99|216:140,1,83.9999974365235,2|0,2:0|2:0,2:0:0:0:
171,230,116886,1,2,3:2:0:0:
271,237,117058,6,0,P|311:164|369:104,1,167.999994873047,10|0,3:2|3:2,2:0:0:0:
451,45,117575,2,0,B|481:75|481:75|469:114,1,83.9999974365235,2|10,2:0|3:2,2:0:0:0:
406,194,117920,1,2,2:0:0:0:
472,270,118093,2,0,P|431:280|395:302,1,83.9999974365235,2|0,2:0|2:0,2:0:0:0:
329,378,118437,1,8,3:2:0:0:
329,378,118610,1,2,2:0:0:0:
256,308,118782,6,0,P|257:266|262:224,1,83.9999974365235,4|0,3:2|2:0,2:0:0:0:
184,161,119127,1,10,3:2:0:0:
104,223,119299,2,0,P|108:262|111:306,1,83.9999974365235,2|2,2:0|2:0,2:0:0:0:
27,362,119644,1,2,3:2:0:0:
22,260,119817,6,0,P|28:176|45:93,1,167.999994873047,10|0,3:2|3:2,2:0:0:0:
90,3,120334,2,0,B|134:-1|134:-1|164:42,1,83.9999974365235,2|8,2:0|3:2,2:0:0:0:
138,131,120679,1,2,2:0:0:0:
232,96,120851,2,0,L|312:119,1,83.9999974365235,2|0,2:0|3:2,2:0:0:0:
371,36,121196,2,0,P|403:62|416:101,1,83.9999974365235,8|10,3:2|3:2,2:0:0:0:
427,112,121455,1,10,3:2:0:0:
435,121,121541,6,0,L|415:229,1,83.9999974365235,4|0,3:2|2:0,2:0:0:0:
475,294,121886,1,8,3:2:0:0:
475,294,122058,2,0,P|434:305|395:321,1,83.9999974365235,2|0,2:0|2:0,2:0:0:0:
310,375,122403,1,2,3:2:0:0:
231,311,122575,6,0,P|234:228|247:145,1,167.999994873047,10|0,3:2|3:2,2:0:0:0:
185,65,123092,2,0,P|144:76|105:92,1,83.9999974365235,2|8,2:0|3:2,2:0:0:0:
139,187,123437,1,2,2:0:0:0:
38,197,123609,2,0,P|92:260|124:338,1,167.999994873047,2|8,2:0|3:2,2:0:0:0:
217,377,124127,1,2,2:0:0:0:
311,342,124299,6,0,P|331:305|356:271,1,83.9999974365235,4|0,3:2|2:0,2:0:0:0:
460,264,124644,1,8,3:2:0:0:
460,264,124817,2,0,P|448:223|443:181,1,83.9999974365235,2|2,2:0|2:0,2:0:0:0:
473,85,125162,1,2,3:2:0:0:
392,23,125334,6,0,B|278:42|278:42|264:92,1,167.999994873047,10|0,3:2|3:2,2:0:0:0:
249,192,125851,2,0,P|210:177|182:146,1,83.9999974365235,2|8,2:0|3:2,2:0:0:0:
181,45,126196,1,2,2:0:0:0:
95,98,126368,2,0,B|43:113|43:113|20:226,1,167.999994873047,2|8,2:0|3:2,2:0:0:0:
100,286,126885,1,10,3:2:0:0:
17,344,127058,6,0,L|98:322,1,83.9999974365235,4|0,3:2|2:0,2:0:0:0:
188,379,127403,1,8,3:2:0:0:
188,379,127575,2,0,B|227:353|227:353|270:357,1,83.9999974365235,2|0,2:0|2:0,2:0:0:0:
329,279,127920,1,2,3:2:0:0:
384,362,128092,6,0,P|376:278|372:194,1,167.999994873047,10|0,3:2|3:2,2:0:0:0:
290,136,128609,2,0,P|247:140|208:150,1,83.9999974365235,2|10,2:0|3:2,2:0:0:0:
122,95,128954,1,2,2:0:0:0:
196,26,129127,2,0,P|236:36|278:40,1,83.9999974365235,2|0,2:0|3:2,2:0:0:0:
376,9,129471,1,8,3:2:0:0:
376,9,129644,1,2,2:0:0:0:
450,77,129817,5,4,3:2:0:0:
404,375,130334,1,2,2:0:0:0:
450,77,130851,5,2,2:0:0:0:
404,375,131368,1,2,2:0:0:0:
450,77,131886,5,2,2:0:0:0:
268,286,132403,2,0,P|281:328|287:367,1,83.9999974365235,0|6,3:2|3:2,3:2:0:0:
256,192,150506,12,0,154299,2:0:0:0:
512,255,154644,6,0,L|425:274,1,70,4|0,3:2|2:0,2:0:0:0:
387,332,154989,1,2,2:0:0:0:
387,332,155162,2,0,P|362:307|331:290,1,70,2|0,2:0|2:0,2:0:0:0:
304,125,155679,6,0,P|273:141|238:148,1,70,2|0,2:0|2:0,2:0:0:0:
185,82,156024,2,0,L|203:220,1,140,2|2,2:0|2:0,2:0:0:0:
80,335,156713,1,2,2:0:0:0:
14,180,157058,6,0,B|5:147|5:147|48:124,1,70,2|2,2:0|2:0,2:0:0:0:
96,188,157403,2,0,L|89:257,1,70,2|0,2:0|2:0,2:0:0:0:
163,307,157748,1,2,2:0:0:0:
163,307,157920,2,0,P|196:287|229:281,1,70,2|0,2:0|2:0,2:0:0:0:
306,132,158438,6,0,P|344:144|373:167,1,70,2|0,2:0|2:0,2:0:0:0:
424,100,158782,2,0,L|404:238,1,140,2|2,2:0|2:0,2:0:0:0:
505,373,159472,1,2,2:0:0:0:
341,333,159817,6,0,P|312:312|282:295,1,70,2|2,2:0|2:0,2:0:0:0:
264,213,160162,2,0,P|289:189|318:169,1,70,6|0,2:0|2:0,2:0:0:0:
304,91,160507,1,2,2:0:0:0:
304,91,160679,2,0,L|293:22,1,70,2|0,2:0|2:0,2:0:0:0:
125,13,161196,6,0,L|114:82,1,70,2|0,2:0|2:0,2:0:0:0:
187,123,161541,2,0,P|118:133|53:160,1,140,2|2,2:0|2:0,2:0:0:0:
31,327,162231,1,2,2:0:0:0:
186,263,162575,6,0,P|200:232|221:204,1,70,2|2,2:0|2:0,2:0:0:0:
277,141,162920,2,0,L|346:152,1,70,6|0,2:0|2:0,2:0:0:0:
432,172,163265,1,2,2:0:0:0:
432,172,163438,2,0,L|447:240,1,70,2|0,2:0|2:0,2:0:0:0:
295,312,163955,6,0,L|310:243,1,70,2|0,2:0|2:0,2:0:0:0:
234,207,164300,2,0,B|191:233|191:233|213:319,1,140,2|2,2:0|2:0,2:0:0:0:
55,376,164989,1,2,2:0:0:0:
106,218,165334,1,10,3:2:0:0:
106,218,165507,1,8,3:2:0:0:
67,143,165679,6,0,L|-2:129,2,70,6|2|10,3:2|2:0|3:2,2:0:0:0:
151,146,166196,2,0,P|137:108|129:68,1,70,10|2,3:2|3:2,2:0:0:0:
277,161,166713,2,0,P|296:131|311:100,1,70,10|0,3:2|2:0,2:0:0:0:
260,33,167058,5,2,3:2:0:0:
359,182,167403,1,10,3:2:0:0:
443,36,167748,1,2,3:2:0:0:
294,115,168093,6,0,P|274:143|262:176,1,70,8|0,3:2|2:0,2:0:0:0:
285,257,168438,2,0,L|300:325,2,70,2|2|10,3:2|2:0|3:2,2:0:0:0:
202,238,168955,2,0,L|115:221,1,70,10|2,3:2|3:2,2:0:0:0:
109,58,169472,2,0,B|90:83|90:83|100:120,1,70,10|0,3:2|2:0,2:0:0:0:
47,186,169817,5,2,3:2:0:0:
68,352,170162,1,10,3:2:0:0:
203,252,170507,1,2,3:2:0:0:
36,269,170851,6,0,L|105:276,1,70,8|0,3:2|2:0,2:0:0:0:
135,197,171196,2,0,L|106:111,2,70,2|2|10,3:2|2:0|3:2,2:0:0:0:
203,252,171713,2,0,L|272:262,1,70,10|2,3:2|3:2,2:0:0:0:
412,355,172230,2,0,L|393:287,1,70,10|0,3:2|2:0,2:0:0:0:
455,230,172575,5,2,3:2:0:0:
307,148,172920,1,10,3:2:0:0:
438,43,173265,1,2,3:2:0:0:
373,198,173610,6,0,P|339:188|304:188,1,70,10|8,3:2|3:2,2:0:0:0:
238,240,173955,1,8,3:2:0:0:
242,253,174041,1,8,3:2:0:0:
246,266,174127,1,8,3:2:0:0:
188,327,174300,6,0,L|154:318,3,35,8|8|8|8,3:2|3:2|3:2|3:2,2:0:0:0:
141,313,174644,2,0,L|107:304,3,35,0|0|0|0,3:2|3:2|3:2|3:2,2:0:0:0:
97,299,174989,2,0,L|85:230,1,70,8|4,3:0|3:0,2:0:0:0:
104,147,175334,6,0,L|139:154,3,35,8|8|8|8,3:2|3:2|3:2|3:2,2:0:0:0:
161,190,175679,2,0,L|196:182,3,35,0|0|0|0,3:2|3:2|3:2|3:2,2:0:0:0:
237,174,176024,2,0,L|272:181,3,35,8|8|12|4,3:0|3:0|3:0|3:0,2:0:0:0:
302,208,176368,2,0,L|370:222,1,70,8|8,3:2|3:2,2:0:0:0:
457,172,176713,6,0,P|454:126|440:89,1,83.9999974365235,4|0,3:2|2:0,2:0:0:0:
366,31,177058,1,8,3:2:0:0:
365,31,177230,6,0,P|327:47|285:51,1,83.9999974365235,2|0,2:0|2:0,2:0:0:0:
194,7,177575,1,2,3:2:0:0:
138,91,177748,6,0,P|154:180|164:256,1,167.999994873047,10|0,3:2|3:2,2:0:0:0:
98,333,178265,2,0,L|14:320,1,83.9999974365235,2|8,2:0|3:2,2:0:0:0:
16,219,178610,1,2,2:0:0:0:
22,118,178782,2,0,B|71:136|71:136|73:215|73:215|107:226,1,167.999994873047,2|8,2:0|3:2,2:0:0:0:
186,162,179300,1,2,2:0:0:0:
248,240,179472,6,0,P|271:205|306:182,1,83.9999974365235,4|0,3:2|2:0,2:0:0:0:
281,88,179817,1,8,3:2:0:0:
281,88,179989,2,0,P|323:85|361:101,1,83.9999974365235,2|2,2:0|2:0,2:0:0:0:
451,55,180334,1,2,3:2:0:0:
499,143,180506,6,0,L|468:308,1,167.999994873047,10|0,3:2|3:2,2:0:0:0:
367,296,181024,2,0,P|331:318|310:353,1,83.9999974365235,2|8,2:0|3:2,2:0:0:0:
216,316,181369,1,2,2:0:0:0:
148,241,181541,2,0,B|229:201|229:201|291:247,1,167.999994873047,2|8,2:0|3:2,2:0:0:0:
366,180,182058,1,10,3:2:0:0:
307,97,182231,6,0,P|265:104|227:121,1,83.9999974365235,4|0,3:2|2:0,2:0:0:0:
134,95,182575,1,8,3:2:0:0:
134,95,182748,2,0,P|106:64|70:44,1,83.9999974365235,2|0,2:0|2:0,2:0:0:0:
7,124,183093,1,2,3:2:0:0:
78,195,183265,6,0,L|53:361,1,167.999994873047,10|0,3:2|3:2,2:0:0:0:
154,352,183782,2,0,B|142:313|142:313|172:283,1,83.9999974365235,2|10,2:0|3:2,2:0:0:0:
257,336,184127,1,2,2:0:0:0:
263,235,184300,2,0,P|252:194|250:152,1,83.9999974365235,2|0,2:0|2:0,2:0:0:0:
328,88,184644,1,8,3:2:0:0:
328,88,184817,1,2,2:0:0:0:
398,160,184989,6,0,P|382:198|376:240,1,83.9999974365235,4|0,3:2|2:0,2:0:0:0:
457,301,185334,1,10,3:2:0:0:
502,210,185507,2,0,L|487:124,1,83.9999974365235,2|2,2:0|2:0,2:0:0:0:
501,27,185851,1,2,3:2:0:0:
408,67,186024,6,0,B|335:57|335:57|313:69|313:69|244:58,1,167.999994873047,10|0,3:2|3:2,2:0:0:0:
282,152,186541,2,0,B|238:144|238:144|213:175,1,83.9999974365235,2|8,2:0|3:2,2:0:0:0:
280,251,186886,1,2,2:0:0:0:
226,336,187058,2,0,P|191:322|137:318,1,83.9999974365235,2|0,2:0|3:2,2:0:0:0:
59,371,187403,2,0,P|48:331|44:289,1,83.9999974365235,8|10,3:2|3:2,2:0:0:0:
32,287,187662,1,10,3:2:0:0:
20,286,187748,6,0,L|36:203,1,83.9999974365235,4|0,3:2|2:0,2:0:0:0:
60,108,188093,1,8,3:2:0:0:
60,108,188265,2,0,B|19:85|19:85|34:45,1,83.9999974365235,2|0,2:0|2:0,2:0:0:0:
133,46,188610,1,2,3:2:0:0:
166,140,188782,6,0,P|140:224|134:305,1,167.999994873047,10|0,3:2|3:2,2:0:0:0:
211,368,189299,2,0,P|248:349|289:340,1,83.9999974365235,2|8,2:0|3:2,2:0:0:0:
328,247,189644,1,2,2:0:0:0:
380,332,189816,2,0,B|402:161,1,167.999994873047,2|8,2:0|3:2,2:0:0:0:
484,106,190334,1,2,2:0:0:0:
416,31,190506,6,0,P|371:51|348:77,1,83.9999974365235,4|0,3:2|2:0,2:0:0:0:
292,162,190851,1,8,3:2:0:0:
292,162,191023,2,0,P|254:139|213:136,1,83.9999974365235,2|2,2:0|2:0,2:0:0:0:
134,75,191368,1,2,3:2:0:0:
109,172,191541,6,0,B|92:5,1,167.999994873047,10|0,3:2|3:2,2:0:0:0:
6,58,192058,2,0,B|14:141,1,83.9999974365235,2|8,2:0|3:2,2:0:0:0:
26,241,192403,1,2,2:0:0:0:
41,340,192575,2,0,B|163:308|163:308|193:336,1,167.999994873047,2|8,2:0|3:2,2:0:0:0:
289,305,193092,1,10,3:2:0:0:
373,360,193265,6,0,P|401:324|432:292,1,83.9999974365235,4|0,3:2|2:0,2:0:0:0:
411,200,193610,1,8,3:2:0:0:
411,200,193782,2,0,P|372:191|331:177,1,83.9999974365235,2|0,2:0|2:0,2:0:0:0:
320,76,194127,1,2,3:2:0:0:
236,131,194299,6,0,P|231:214|224:298,1,167.999994873047,10|0,3:2|3:2,2:0:0:0:
140,354,194816,2,0,P|97:358|58:368,1,83.9999974365235,2|10,2:0|3:2,2:0:0:0:
8,279,195162,1,2,2:0:0:0:
106,256,195334,2,0,P|106:214|112:172,1,83.9999974365235,2|0,2:0|3:2,2:0:0:0:
34,117,195679,1,8,3:2:0:0:
34,117,195851,1,2,2:0:0:0:
119,63,196024,5,4,3:2:0:0:
417,112,196541,1,2,2:0:0:0:
119,63,197058,5,2,2:0:0:0:
417,112,197575,1,2,2:0:0:0:
119,63,198093,5,8,3:0:0:0:
112,69,198179,1,8,3:0:0:0:
106,75,198265,2,0,L|112:116,5,41.9999987182618,12|4|8|0|8|0,3:0|3:0|3:2|3:2|3:2|3:2,2:0:0:0:
93,163,198782,6,0,P|134:168|167:193,1,83.9999974365235,6|2,3:2|2:0,2:0:0:0:
160,294,199127,2,0,P|122:311|90:339,1,83.9999974365235,10|0,3:2|2:0,2:0:0:0:
18,269,199472,2,0,L|268:292,1,251.999992309571,2|2,2:0|2:0,2:0:0:0:
354,238,200162,6,0,B|390:268|390:268|382:304,1,83.9999974365235,2|2,3:2|2:0,2:0:0:0:
470,351,200506,2,0,L|489:267,1,83.9999974365235,10|0,3:2|2:0,2:0:0:0:
444,178,200851,1,2,2:0:0:0:
444,178,201024,1,2,3:2:0:0:
454,77,201196,2,0,P|412:80|375:99,1,83.9999974365235,10|2,3:2|2:0,2:0:0:0:
287,149,201541,6,0,L|121:118,1,167.999994873047,2|10,3:2|3:2,2:0:0:0:
66,40,202058,1,2,2:0:0:0:
66,40,202230,2,0,B|25:69|25:69|35:101,1,83.9999974365235,2|2,2:0|3:2,2:0:0:0:
73,195,202575,2,0,L|101:273,1,83.9999974365235,10|2,3:2|2:0,2:0:0:0:
199,301,202920,6,0,L|187:384,1,83.9999974365235,2|2,3:2|2:0,2:0:0:0:
287,285,203265,2,0,L|275:368,1,83.9999974365235,10|2,3:2|2:0,2:0:0:0:
231,223,203610,1,2,2:0:0:0:
328,196,203782,1,2,3:2:0:0:
327,94,203955,1,10,3:2:0:0:
230,67,204127,1,2,3:2:0:0:
172,149,204299,6,0,P|138:134|90:130,1,83.9999974365235,2|0,3:2|2:0,2:0:0:0:
8,71,204644,2,0,P|46:145|59:228,1,167.999994873047,10|2,3:2|2:0,2:0:0:0:
21,322,205162,1,2,3:2:0:0:
120,309,205334,2,0,P|157:323|200:332,1,83.9999974365235,10|2,3:2|2:0,2:0:0:0:
282,272,205679,6,0,P|276:228|269:188,1,83.9999974365235,2|2,3:2|2:0,2:0:0:0:
369,171,206024,2,0,P|374:213|381:254,1,83.9999974365235,10|0,3:2|2:0,2:0:0:0:
346,350,206368,1,2,2:0:0:0:
346,350,206541,1,2,3:2:0:0:
444,327,206713,2,0,P|465:291|495:261,1,83.9999974365235,10|2,3:2|2:0,2:0:0:0:
460,166,207058,6,0,L|479:0,1,167.999994873047,2|10,3:2|3:2,2:0:0:0:
390,47,207575,1,2,2:0:0:0:
390,47,207748,2,0,L|310:72,1,83.9999974365235,2|2,2:0|3:2,2:0:0:0:
211,96,208093,2,0,L|131:121,1,83.9999974365235,10|2,3:2|2:0,2:0:0:0:
33,96,208437,6,0,P|16:134|16:176,1,83.9999974365235,2|0,3:2|2:0,2:0:0:0:
100,232,208782,2,0,P|116:270|116:312,1,83.9999974365235,10|2,3:2|2:0,2:0:0:0:
208,354,209127,1,2,2:0:0:0:
290,296,209299,1,2,3:2:0:0:
259,199,209472,1,10,3:2:0:0:
219,106,209644,1,2,3:2:0:0:
228,98,209730,1,2,3:2:0:0:
238,89,209817,6,0,L|342:109,1,83.9999974365235,6|2,3:2|2:0,2:0:0:0:
401,43,210162,2,0,B|426:81|426:81|416:118,1,83.9999974365235,10|0,3:2|2:0,2:0:0:0:
349,194,210507,2,0,L|101:148,1,251.999992309571,2|0,2:0|2:0,2:0:0:0:
25,214,211197,6,0,P|48:249|56:290,1,83.9999974365235,2|2,3:2|2:0,2:0:0:0:
97,381,211541,2,0,P|128:354|147:316,1,83.9999974365235,10|0,3:2|2:0,2:0:0:0:
132,220,211886,1,2,2:0:0:0:
132,220,212059,1,2,3:2:0:0:
226,255,212231,2,0,L|309:243,1,83.9999974365235,10|2,3:2|2:0,2:0:0:0:
343,338,212576,6,0,P|356:255|382:175,1,167.999994873047,2|10,3:2|3:2,2:0:0:0:
443,96,213093,1,2,2:0:0:0:
443,96,213265,2,0,B|484:125|484:125|474:157,1,83.9999974365235,2|2,2:0|3:2,2:0:0:0:
436,251,213610,2,0,L|353:263,1,83.9999974365235,10|2,3:2|2:0,2:0:0:0:
274,327,213955,6,0,B|250:293|250:293|204:302,1,83.9999974365235,2|2,3:2|2:0,2:0:0:0:
131,366,214300,2,0,P|96:344|72:310,1,83.9999974365235,10|2,3:2|2:0,2:0:0:0:
143,237,214645,1,2,2:0:0:0:
58,182,214817,1,2,3:2:0:0:
76,82,214990,1,10,3:2:0:0:
173,56,215162,1,2,3:2:0:0:
238,132,215334,6,0,P|280:135|318:151,1,83.9999974365235,2|0,3:2|2:0,2:0:0:0:
375,67,215679,2,0,P|413:141|426:224,1,167.999994873047,10|2,3:2|2:0,2:0:0:0:
488,304,216197,1,2,3:2:0:0:
404,360,216369,2,0,P|363:368|324:383,1,83.9999974365235,10|2,3:2|2:0,2:0:0:0:
230,342,216714,6,0,P|224:298|217:258,1,83.9999974365235,2|2,3:2|2:0,2:0:0:0:
116,263,217059,2,0,P|121:305|128:346,1,83.9999974365235,10|0,3:2|2:0,2:0:0:0:
37,384,217403,1,2,2:0:0:0:
37,384,217576,1,2,3:2:0:0:
4,288,217748,2,0,P|19:249|48:219,1,83.9999974365235,10|2,3:2|3:2,2:0:0:0:
34,118,218093,1,2,3:2:0:0:
377,327,218782,5,2,2:0:0:0:
497,235,219127,1,2,2:0:0:0:
405,114,219472,1,2,2:0:0:0:
285,206,219817,1,2,2:0:0:0:
377,327,220162,6,0,L|367:381,3,41.9999987182618,0|0|0|0,3:2|3:2|3:2|3:2,2:0:0:0:
356,376,220506,2,0,L|314:373,3,41.9999987182618,0|0|0|0,3:2|3:2|3:2|3:2,2:0:0:0:
292,360,220851,6,0,L|331:139,1,224,12|0,3:2|2:0,2:0:0:0:
267,60,221886,5,2,2:0:0:0:
181,113,222230,2,0,P|139:77|86:61,1,112,2|0,2:0|2:0,2:0:0:0:
10,248,223265,5,2,2:0:0:0:
30,149,223610,2,0,B|87:156|87:156|101:209,1,112,2|0,2:0|2:0,2:0:0:0:
301,188,224644,5,2,2:0:0:0:
321,287,224989,2,0,B|266:303|266:303|232:260,1,112,2|0,2:0|2:0,2:0:0:0:
403,366,226024,5,2,2:0:0:0:
427,268,226368,2,0,L|446:158,1,112,2|0,2:0|2:0,2:0:0:0:
288,30,227403,5,2,2:0:0:0:
191,60,227748,2,0,B|221:98|221:98|205:160,1,112,2|0,2:0|2:0,2:0:0:0:
49,287,228782,5,2,2:0:0:0:
114,363,229127,2,0,L|137:248,1,112,2|0,2:0|2:0,2:0:0:0:
248,85,230162,5,2,2:0:0:0:
183,9,230507,2,0,L|160:124,1,112,2|0,2:0|2:0,2:0:0:0:
339,224,231541,5,2,2:0:0:0:
339,224,231886,1,2,2:0:0:0:
