osu file format v14

[General]
AudioFilename: audio.mp3
AudioLeadIn: 0
PreviewTime: -1
Countdown: 0
SampleSet: Normal
StackLeniency: 0.7
Mode: 0
LetterboxInBreaks: 0
WidescreenStoryboard: 0

[Editor]
Bookmarks: 7903,8903,20903,22903,24403,25903,34903,36903,38903,40903,47903,48903,56903,60903,62903,64403,65903,72903,76153,78903,80903,87903,88903
DistanceSpacing: 1.4
BeatDivisor: 4
GridSize: 8
TimelineZoom: 1.1

[Metadata]
Title:Wielozoadaniowa Polna Maszyna Bojowa - Ostateczne Starcie (Rozmiar Telewizora)
TitleUnicode:Едет трактор - Мультик про машинки (Размер телевизора)
Artist:Sztuka Miecza
ArtistUnicode:Песни для детей
Creator:r0ck
Version:Nomstarta
Source:
Tags:
BeatmapID:1277717
BeatmapSetID:604734

[Difficulty]
HPDrainRate:6
CircleSize:4.5
OverallDifficulty:8.5
ApproachRate:8
SliderMultiplier:2
SliderTickRate:1

[Events]
//Background and Video events
0,0,"maxresdefault.jpg",0,0
//Break Periods
//Storyboard Layer 0 (Background)
//Storyboard Layer 1 (Fail)
//Storyboard Layer 2 (Pass)
//Storyboard Layer 3 (Foreground)
//Storyboard Sound Samples

[TimingPoints]
903,500,4,1,0,100,1,0

[HitObjects]
112,72,903,5,0,0:0:0:0:
152,64,1028,1,0,0:0:0:0:
192,64,1153,1,0,0:0:0:0:
232,72,1278,1,0,0:0:0:0:
264,96,1403,1,0,0:0:0:0:
352,216,1653,1,0,0:0:0:0:
184,176,1903,1,0,0:0:0:0:
64,88,2153,2,0,P|24:136|40:160,2,100
384,80,2903,5,0,0:0:0:0:
328,104,3028,1,0,0:0:0:0:
296,152,3153,1,0,0:0:0:0:
288,208,3278,1,0,0:0:0:0:
312,264,3403,1,0,0:0:0:0:
408,192,3653,1,0,0:0:0:0:
408,192,3903,1,0,0:0:0:0:
432,328,4153,2,0,P|392:352|328:352,2,100
224,144,4903,5,0,0:0:0:0:
216,152,5028,1,0,0:0:0:0:
216,160,5153,1,0,0:0:0:0:
224,168,5278,1,0,0:0:0:0:
232,168,5403,1,0,0:0:0:0:
224,288,5653,1,0,0:0:0:0:
64,232,5903,1,0,0:0:0:0:
136,96,6153,2,0,P|184:64|240:72,2,100
320,64,6903,5,0,0:0:0:0:
344,104,7028,1,0,0:0:0:0:
352,152,7153,1,0,0:0:0:0:
336,200,7278,1,0,0:0:0:0:
304,240,7403,5,0,0:0:0:0:
272,200,7528,1,0,0:0:0:0:
224,184,7653,1,0,0:0:0:0:
176,184,7778,1,0,0:0:0:0:
136,216,7903,1,0,0:0:0:0:
80,72,8153,1,0,0:0:0:0:
240,296,8403,1,0,0:0:0:0:
368,72,8903,6,0,P|344:96|344:120,1,50
408,144,9153,2,0,P|424:184|392:240,1,100
320,296,9653,1,0,0:0:0:0:
128,248,9903,5,0,0:0:0:0:
128,80,10153,1,0,0:0:0:0:
296,160,10403,2,0,P|256:200|280:208,1,100
80,184,10903,6,0,P|120:168|176:208,1,100
304,288,11403,1,0,0:0:0:0:
440,192,11653,1,0,0:0:0:0:
352,56,11903,5,0,0:0:0:0:
112,56,12153,1,0,0:0:0:0:
112,264,12403,1,0,0:0:0:0:
128,272,12528,1,0,0:0:0:0:
152,280,12653,1,0,0:0:0:0:
168,288,12778,1,0,0:0:0:0:
192,304,12903,6,0,B|208:312|208:312|296:312,1,100
400,272,13403,1,0,0:0:0:0:
296,128,13653,1,0,0:0:0:0:
224,264,13903,1,0,0:0:0:0:
416,240,14153,1,0,0:0:0:0:
296,96,14403,1,0,0:0:0:0:
144,96,14653,5,0,0:0:0:0:
112,248,14903,1,0,0:0:0:0:
80,40,15153,1,0,0:0:0:0:
32,288,15403,1,0,0:0:0:0:
232,336,15653,2,0,B|280:352|280:352|344:336,1,100
272,112,16903,6,0,P|216:144|256:160,1,100
256,168,17278,1,0,0:0:0:0:
312,168,17403,6,0,P|344:224|360:184,1,100
368,160,17778,1,0,0:0:0:0:
344,104,17903,6,0,P|400:72|360:56,1,100
344,48,18278,1,0,0:0:0:0:
336,40,18403,1,0,0:0:0:0:
240,272,18903,6,0,P|296:240|256:224,1,100
256,216,19278,1,0,0:0:0:0:
200,216,19403,6,0,P|168:160|152:200,1,100
144,224,19778,1,0,0:0:0:0:
168,280,19903,6,0,P|112:312|152:328,1,100
168,336,20278,1,0,0:0:0:0:
176,344,20403,1,0,0:0:0:0:
328,128,20903,5,0,0:0:0:0:
184,96,21153,1,0,0:0:0:0:
144,248,21403,1,0,0:0:0:0:
296,280,21653,1,0,0:0:0:0:
264,96,21903,1,0,0:0:0:0:
112,240,22153,1,0,0:0:0:0:
336,312,22403,1,0,0:0:0:0:
312,48,22653,1,0,0:0:0:0:
152,320,22903,5,0,0:0:0:0:
448,128,23153,1,0,0:0:0:0:
72,128,23403,1,0,0:0:0:0:
360,320,23653,1,0,0:0:0:0:
256,48,23903,2,0,B|256:80|208:80|208:8|280:8|344:8|208:160,1,200
160,64,25903,5,0,0:0:0:0:
280,96,26153,2,0,P|320:112|360:152,1,100
408,248,26653,1,0,0:0:0:0:
296,344,26903,1,0,0:0:0:0:
144,296,27153,1,0,0:0:0:0:
72,184,27403,2,0,P|40:128|64:96,1,100
256,56,27903,5,0,0:0:0:0:
480,192,28153,1,0,0:0:0:0:
256,352,28403,1,0,0:0:0:0:
32,192,28653,1,0,0:0:0:0:
256,40,28903,2,0,P|288:40|328:96,1,100
256,152,29403,2,0,P|224:152|184:208,1,100
448,56,29903,5,0,0:0:0:0:
320,152,30153,1,0,0:0:0:0:
184,64,30403,1,0,0:0:0:0:
56,168,30653,1,0,0:0:0:0:
88,296,30903,1,0,0:0:0:0:
112,312,31028,1,0,0:0:0:0:
144,320,31153,1,0,0:0:0:0:
264,328,31403,1,0,0:0:0:0:
312,328,31528,1,0,0:0:0:0:
360,328,31653,1,0,0:0:0:0:
96,192,31903,5,0,0:0:0:0:
312,56,32153,1,0,0:0:0:0:
432,320,32403,1,0,0:0:0:0:
104,248,32653,1,0,0:0:0:0:
256,192,32903,12,0,34903,0:0:0:0:
280,64,35153,5,0,0:0:0:0:
304,96,35278,1,0,0:0:0:0:
312,128,35403,1,0,0:0:0:0:
304,160,35528,1,0,0:0:0:0:
272,184,35653,1,0,0:0:0:0:
240,184,35778,1,0,0:0:0:0:
216,168,35903,5,0,0:0:0:0:
200,136,36028,1,0,0:0:0:0:
208,112,36153,1,0,0:0:0:0:
232,88,36278,1,0,0:0:0:0:
264,88,36403,1,0,0:0:0:0:
288,104,36528,1,0,0:0:0:0:
320,144,36653,5,0,0:0:0:0:
352,184,36778,1,0,0:0:0:0:
384,224,36903,1,0,0:0:0:0:
168,32,38903,5,0,0:0:0:0:
160,56,39028,1,0,0:0:0:0:
152,80,39153,1,0,0:0:0:0:
144,104,39278,1,0,0:0:0:0:
184,120,39403,5,0,0:0:0:0:
200,144,39528,1,0,0:0:0:0:
216,168,39653,1,0,0:0:0:0:
232,192,39778,1,0,0:0:0:0:
192,216,39903,5,0,0:0:0:0:
168,256,40028,1,0,0:0:0:0:
144,296,40153,1,0,0:0:0:0:
120,336,40278,1,0,0:0:0:0:
168,344,40403,5,0,0:0:0:0:
232,344,40528,1,0,0:0:0:0:
296,344,40653,1,0,0:0:0:0:
360,344,40778,1,0,0:0:0:0:
424,344,40903,6,0,P|456:344|456:336,4,50
256,192,41653,1,0,0:0:0:0:
112,48,41903,1,0,0:0:0:0:
48,216,42153,1,0,0:0:0:0:
216,328,42403,2,0,P|296:344|376:320,1,150
400,304,42903,1,0,0:0:0:0:
424,264,43028,1,0,0:0:0:0:
432,216,43153,1,0,0:0:0:0:
424,168,43278,1,0,0:0:0:0:
400,128,43403,6,0,B|376:88|328:72|296:72,1,100
304,280,43903,1,0,0:0:0:0:
104,176,44153,1,0,0:0:0:0:
272,48,44403,2,0,P|320:96|272:144,1,150
216,136,44903,1,0,0:0:0:0:
168,96,45028,1,0,0:0:0:0:
120,72,45153,1,0,0:0:0:0:
64,96,45278,1,0,0:0:0:0:
32,144,45403,1,0,0:0:0:0:
120,160,45653,5,0,0:0:0:0:
160,344,45903,1,0,0:0:0:0:
272,160,46153,1,0,0:0:0:0:
344,344,46403,1,0,0:0:0:0:
384,328,46528,1,0,0:0:0:0:
408,304,46653,1,0,0:0:0:0:
416,32,46903,5,0,0:0:0:0:
360,80,47028,1,0,0:0:0:0:
328,144,47153,1,0,0:0:0:0:
320,216,47278,1,0,0:0:0:0:
296,280,47403,1,0,0:0:0:0:
248,336,47528,1,0,0:0:0:0:
184,360,47653,1,0,0:0:0:0:
112,360,47778,1,0,0:0:0:0:
56,320,47903,1,0,0:0:0:0:
112,64,48153,5,0,0:0:0:0:
264,176,48403,1,0,0:0:0:0:
104,304,48903,6,0,P|144:272|128:240,1,50
80,232,49153,2,0,P|88:184|144:160,1,100
176,48,49653,1,0,0:0:0:0:
376,160,49903,1,0,0:0:0:0:
240,264,50153,2,0,P|216:192|216:168,1,100
424,80,50903,5,0,0:0:0:0:
336,256,51153,1,0,0:0:0:0:
232,104,51403,2,0,P|184:80|112:80,1,100
80,184,51903,1,0,0:0:0:0:
104,208,52028,1,0,0:0:0:0:
288,288,52278,1,0,0:0:0:0:
264,264,52403,1,0,0:0:0:0:
128,328,52653,1,0,0:0:0:0:
176,96,52903,6,0,P|272:72|312:88,2,100
88,240,53653,1,0,0:0:0:0:
256,280,53903,1,0,0:0:0:0:
368,136,54153,1,0,0:0:0:0:
464,320,54403,1,0,0:0:0:0:
320,328,54653,2,0,P|272:352|208:344,1,100
144,312,55153,1,0,0:0:0:0:
112,280,55278,1,0,0:0:0:0:
88,248,55403,1,0,0:0:0:0:
64,104,55653,1,0,0:0:0:0:
208,40,55903,1,0,0:0:0:0:
40,56,56903,6,0,B|80:88|80:88|40:128,1,100
152,96,57278,1,0,0:0:0:0:
112,192,57403,6,0,B|144:152|144:152|184:192,1,100
152,96,57778,1,0,0:0:0:0:
248,120,57903,6,0,B|208:88|208:88|248:48,1,100
152,96,58278,1,0,0:0:0:0:
152,96,58403,1,0,0:0:0:0:
456,144,58903,6,0,B|424:184|424:184|384:144,1,100
416,256,59278,1,0,0:0:0:0:
320,216,59403,6,0,B|360:248|360:248|320:288,1,100
416,256,59778,1,0,0:0:0:0:
392,352,59903,6,0,B|424:312|424:312|464:352,1,100
416,256,60278,1,0,0:0:0:0:
416,256,60403,1,0,0:0:0:0:
88,64,60903,5,0,0:0:0:0:
120,48,61028,1,0,0:0:0:0:
152,64,61153,1,0,0:0:0:0:
440,80,61403,5,0,0:0:0:0:
408,112,61528,1,0,0:0:0:0:
376,80,61653,1,0,0:0:0:0:
88,296,61903,5,0,0:0:0:0:
120,248,62028,1,0,0:0:0:0:
152,296,62153,1,0,0:0:0:0:
424,216,62403,5,0,0:0:0:0:
392,280,62528,1,0,0:0:0:0:
360,216,62653,1,0,0:0:0:0:
72,48,62903,5,0,0:0:0:0:
472,112,63153,1,0,0:0:0:0:
256,336,63403,1,0,0:0:0:0:
264,32,63653,1,0,0:0:0:0:
72,328,63903,2,0,B|104:328|104:328|104:296|104:296|64:296|64:296|64:248|64:248|112:248,1,200
200,320,65903,5,0,0:0:0:0:
40,320,66153,1,0,0:0:0:0:
200,192,66403,1,0,0:0:0:0:
40,192,66653,1,0,0:0:0:0:
120,144,66903,2,0,P|120:344|120:328,1,200
256,192,67653,5,0,0:0:0:0:
312,64,67903,5,0,0:0:0:0:
472,64,68153,1,0,0:0:0:0:
312,192,68403,1,0,0:0:0:0:
472,192,68653,1,0,0:0:0:0:
392,176,68903,2,0,P|392:48|392:48,2,100
208,104,69903,5,0,0:0:0:0:
304,104,70153,1,0,0:0:0:0:
208,184,70403,1,0,0:0:0:0:
304,184,70653,1,0,0:0:0:0:
256,240,70903,2,0,L|256:344,1,100
104,48,71653,5,0,0:0:0:0:
408,48,71903,1,0,0:0:0:0:
104,336,72153,1,0,0:0:0:0:
416,336,72403,1,0,0:0:0:0:
256,48,72653,1,0,0:0:0:0:
256,192,72903,12,0,74403,0:0:0:0:
96,48,74903,5,0,0:0:0:0:
216,80,75153,1,0,0:0:0:0:
256,112,75278,1,0,0:0:0:0:
288,152,75403,1,0,0:0:0:0:
376,264,75653,1,0,0:0:0:0:
224,208,75903,1,0,0:0:0:0:
176,192,76028,1,0,0:0:0:0:
128,200,76153,1,0,0:0:0:0:
32,288,76403,1,0,0:0:0:0:
32,288,76653,1,0,0:0:0:0:
256,336,76903,6,0,B|232:328|232:328|280:320|280:320|232:312|232:312|280:304|280:304|232:296|232:296|280:288|280:288|232:280|232:280|280:272|280:272|232:264|232:264|280:256|280:256|232:248|232:248|280:240|280:240|232:232|232:232,1,600
440,168,78903,5,0,0:0:0:0:
432,160,79028,1,0,0:0:0:0:
416,160,79153,1,0,0:0:0:0:
400,168,79278,1,0,0:0:0:0:
408,208,79403,5,0,0:0:0:0:
392,232,79528,1,0,0:0:0:0:
352,232,79653,1,0,0:0:0:0:
328,208,79778,1,0,0:0:0:0:
344,168,79903,5,0,0:0:0:0:
312,136,80028,1,0,0:0:0:0:
264,136,80153,1,0,0:0:0:0:
232,168,80278,1,0,0:0:0:0:
248,208,80403,5,0,0:0:0:0:
216,248,80528,1,0,0:0:0:0:
160,248,80653,1,0,0:0:0:0:
128,208,80778,1,0,0:0:0:0:
144,160,80903,2,0,P|168:136|200:136,4,50
96,296,81653,1,0,0:0:0:0:
336,304,82153,5,0,0:0:0:0:
440,176,82403,1,0,0:0:0:0:
432,160,82528,1,0,0:0:0:0:
416,144,82653,1,0,0:0:0:0:
400,136,82778,1,0,0:0:0:0:
384,128,82903,2,0,P|360:120|336:120,4,50
176,48,83653,1,0,0:0:0:0:
280,312,84153,5,0,0:0:0:0:
120,208,84403,1,0,0:0:0:0:
104,184,84528,1,0,0:0:0:0:
96,160,84653,1,0,0:0:0:0:
96,136,84778,1,0,0:0:0:0:
104,112,84903,2,0,P|112:88|184:56,1,100
184,104,85278,2,0,P|176:128|144:144,1,50
40,232,85653,1,0,0:0:0:0:
328,56,86153,5,0,0:0:0:0:
264,160,86403,1,0,0:0:0:0:
256,304,86903,5,0,0:0:0:0:
200,264,87028,1,0,0:0:0:0:
168,208,87153,1,0,0:0:0:0:
160,144,87278,1,0,0:0:0:0:
184,80,87403,1,0,0:0:0:0:
240,40,87528,1,0,0:0:0:0:
304,48,87653,1,0,0:0:0:0:
360,88,87778,1,0,0:0:0:0:
376,152,87903,1,0,0:0:0:0:
328,264,88153,5,0,0:0:0:0:
328,264,88403,1,0,0:0:0:0:
