osu file format v14

[General]
AudioFilename: audio.mp3
AudioLeadIn: 0
PreviewTime: 52150
Countdown: 0
SampleSet: Soft
StackLeniency: 0.7
Mode: 0
LetterboxInBreaks: 0
WidescreenStoryboard: 0

[Editor]
DistanceSpacing: 1
BeatDivisor: 4
GridSize: 32
TimelineZoom: 1.442003

[Metadata]
Title:Vicinity Of Obscenity
TitleUnicode:Vicinity Of Obscenity
Artist:System Of A Down
ArtistUnicode:System Of A Down
Creator:-Kemsyt
Version:Extra
Source:
Tags:progressive metal rock english alternative hypnotize soad serj tankian aranel banana terracotta pie lasse skubi cptsqbany zelq icekalt apollo apo11o mrowswares isomirdiangelo mirash monsieursebas vitas2222 pw384 384059043 moonpoint daron malakian shavo odadjian john dolmayan
BeatmapID:3781623
BeatmapSetID:1841169

[Difficulty]
HPDrainRate:7
CircleSize:4.7
OverallDifficulty:9
ApproachRate:9.2
SliderMultiplier:2.55
SliderTickRate:0.5

[Events]
//Background and Video events
0,0,"3131.jpg",0,0
//Break Periods
//Storyboard Layer 0 (Background)
//Storyboard Layer 1 (Fail)
//Storyboard Layer 2 (Pass)
//Storyboard Layer 3 (Foreground)
//Storyboard Layer 4 (Overlay)
//Storyboard Sound Samples

[TimingPoints]
16418,526.315789473684,4,2,1,80,1,0
16418,-100,4,2,1,80,0,0
16681,524.017467248908,4,2,1,80,1,0
16681,-80,4,2,1,80,0,0
22969,525.394045534151,4,2,1,80,1,0
22969,-80,4,2,1,80,0,0
23691,-80,4,2,1,5,0,0
23757,-80,4,2,1,80,0,0
24545,-66.6666666666667,4,2,1,80,0,0
24807,588.235294117647,4,2,1,80,1,0
24807,-100,4,2,1,80,0,0
25101,526.315789473684,4,2,1,50,1,0
25101,-100,4,2,1,50,0,0
25890,562.060889929742,4,2,1,50,1,0
25890,-100,4,2,1,50,0,0
26171,562.060889929742,4,2,1,50,1,0
26171,-100,4,2,1,50,0,0
27295,558.139534883721,4,2,1,50,1,0
27295,-100,4,2,1,50,0,0
27853,566.037735849057,4,2,1,50,1,0
27853,-100,4,2,1,50,0,0
28419,576.923076923077,4,2,1,50,1,0
28419,-100,4,2,1,50,0,0
28995,547.945205479452,4,2,1,50,1,0
28995,-100,4,2,1,50,0,0
30090,571.428571428571,4,2,1,50,1,0
30090,-100,4,2,1,50,0,0
30804,560.747663551402,4,2,1,50,1,0
30804,-100,4,2,1,50,0,0
31224,563.380281690141,4,2,1,50,1,0
31224,-100,4,2,1,50,0,0
32350,526.315789473684,4,2,1,50,1,0
32350,-100,4,2,1,50,0,0
32876,538.116591928251,4,2,1,80,1,0
32876,-80,4,2,1,80,0,0
33952,528.63436123348,4,2,1,80,1,0
33952,-80,4,2,1,80,0,0
34744,574.162679425837,4,2,1,80,1,0
34744,-80,4,2,1,80,0,0
35031,547.945205479452,4,2,1,65,1,0
35031,-100,4,2,1,65,0,0
36674,511.727078891258,4,2,1,65,1,0
36705,-100,4,2,1,65,0,0
37185,555.555555555556,4,2,1,80,1,0
37185,-80,4,2,1,80,0,0
37740,526.315789473684,4,2,1,80,1,0
37740,-80,4,2,1,80,0,0
38200,-80,4,2,1,5,0,0
38266,-80,4,2,1,80,0,0
38792,555.555555555556,4,2,1,80,1,0
38792,-66.6666666666667,4,2,1,80,0,0
39347,552.995391705069,4,2,1,65,1,0
39347,-100,4,2,1,65,0,0
39899,542.986425339367,4,2,1,65,1,0
39899,-100,4,2,1,65,0,0
40984,461.538461538462,4,2,1,65,1,0
40984,-100,4,2,1,65,0,0
41445,526.315789473684,4,2,1,80,1,0
41445,-80,4,2,1,80,0,0
41773,-80,4,2,1,5,0,0
41839,-80,4,2,1,80,0,0
43023,-66.6666666666667,4,2,1,80,0,0
43287,609.137055837563,4,2,1,80,1,0
43287,-100,4,2,1,80,0,0
43591,523.1037489102,4,2,1,65,1,0
43591,-100,4,2,1,65,0,0
44114,-100,4,2,1,65,0,0
44637,-100,4,2,1,65,0,0
45193,-100,4,2,1,65,0,0
45683,526.315789473684,4,2,1,80,1,0
45683,-80,4,2,1,80,0,0
46669,-80,4,2,1,5,0,0
46735,-80,4,2,1,80,0,0
47261,-66.6666666666667,4,2,1,80,0,0
47525,579.710144927536,4,2,1,80,1,0
47525,-100,4,2,1,80,0,0
47814,554.272517321016,4,2,1,70,1,0
47814,-90.9090909090909,4,2,1,70,0,0
48645,-50,4,2,1,70,0,0
48922,555.555555555556,4,2,1,70,1,0
48922,-90.9090909090909,4,2,1,70,0,0
49755,-50,4,2,1,70,0,0
50033,555.555555555556,4,2,1,70,1,0
50033,-90.9090909090909,4,2,1,70,0,0
50866,-50,4,2,1,70,0,0
51144,-90.9090909090909,4,2,1,70,0,0
51699,535.714285714286,4,2,1,70,1,0
51699,-100,4,2,1,70,0,0
52234,544.21768707483,4,2,1,90,1,0
52234,-50,4,2,1,90,0,0
52778,-50,4,2,1,90,0,0
53866,-50,4,2,1,90,0,0
55431,-50,4,2,1,5,0,0
55499,574.162679425837,4,2,1,90,1,0
55499,-50,4,2,1,90,0,0
56073,539.325842696629,4,2,1,90,1,0
56073,-100,4,2,1,90,0,0
56612,545.454545454546,4,2,1,90,1,0
56612,-50,4,2,1,90,0,0
57157,-50,4,2,1,90,0,0
58793,536.193029490617,4,2,1,90,1,0
58793,-50,4,2,1,90,0,0
59798,-50,4,2,1,5,0,0
59865,550.45871559633,4,2,1,90,1,0
59865,-50,4,2,1,90,0,0
60415,575.539568345324,4,2,1,90,1,0
60415,-50,4,2,1,90,0,0
60990,566.037735849057,4,2,1,65,1,0
60990,-100,4,2,1,65,0,0
61839,555.555555555556,4,2,1,65,1,0
61839,-100,4,2,1,65,0,0
62116,555.555555555556,4,2,1,65,1,0
62116,-100,4,2,1,65,0,0
63227,550.45871559633,4,2,1,65,1,0
63227,-100,4,2,1,65,0,0
64052,559.440559440559,4,2,1,65,1,0
64052,-100,4,2,1,65,0,0
64331,559.440559440559,4,2,1,65,1,0
64331,-100,4,2,1,65,0,0
65449,549.199084668192,4,2,1,65,1,0
65449,-100,4,2,1,65,0,0
66272,560.747663551402,4,2,1,65,1,0
66272,-100,4,2,1,65,0,0
66552,560.747663551402,4,2,1,65,1,0
66552,-100,4,2,1,65,0,0
67673,536.912751677852,4,2,1,65,1,0
67673,-100,4,2,1,65,0,0
68478,560.747663551402,4,2,1,65,1,0
68478,-100,4,2,1,65,0,0
68758,560.747663551402,4,2,1,65,1,0
68758,-100,4,2,1,65,0,0
69879,549.199084668192,4,2,1,65,1,0
69879,-100,4,2,1,65,0,0
70702,558.139534883721,4,2,1,65,1,0
70702,-100,4,2,1,65,0,0
70981,558.139534883721,4,2,1,65,1,0
70981,-100,4,2,1,65,0,0
72097,550.45871559633,4,2,1,65,1,0
72097,-100,4,2,1,65,0,0
73748,560.747663551402,4,2,1,65,1,0
73748,-100,4,2,1,65,0,0
74308,540.540540540541,4,2,1,65,1,0
74308,-100,4,2,1,65,0,0
75118,555.555555555556,4,2,1,65,1,0
75118,-100,4,2,1,65,0,0
75395,555.555555555556,4,2,1,65,1,0
75395,-100,4,2,1,65,0,0
76506,536.672629695886,4,2,1,65,1,0
76506,-100,4,2,1,65,0,0
77311,563.380281690141,4,2,1,65,1,0
77311,-100,4,2,1,65,0,0
77592,563.380281690141,4,2,1,65,1,0
77592,-100,4,2,1,65,0,0
78155,584.795321637427,4,2,1,65,1,0
78155,-100,4,2,1,65,0,0
78739,535.714285714286,4,2,1,50,1,0
78739,-100,4,2,1,50,0,0
80346,550.45871559633,4,2,1,50,1,0
80346,-100,4,2,1,50,0,0
80896,561.797752808989,4,2,1,50,1,0
80896,-100,4,2,1,50,0,0
82019,606.060606060606,4,2,1,50,1,0
82019,-100,4,2,1,50,0,0
82625,545.454545454546,4,2,1,50,1,0
82625,-100,4,2,1,50,0,0
83715,566.037735849057,4,2,1,50,1,0
83715,-100,4,2,1,50,0,0
84847,566.037735849057,4,2,1,50,1,0
84847,-100,4,2,1,50,0,0
85979,552.995391705069,4,2,1,50,1,0
85979,-100,4,2,1,50,0,0
86531,545.454545454546,4,2,1,80,1,0
86531,-80,4,2,1,80,0,0
87531,-80,4,2,1,5,0,0
87621,530.973451327434,4,2,1,80,1,0
87621,-100,4,2,1,80,0,0
88151,-66.6666666666667,4,2,1,80,0,0
88417,576.923076923077,4,2,1,80,1,0
88417,-100,4,2,1,80,0,0
88705,533.333333333333,4,2,1,70,1,0
88705,-100,4,2,1,70,0,0
89771,-100,4,2,1,70,0,0
90305,519.480519480519,4,2,1,70,1,0
90337,-100,4,2,1,70,0,0
90824,528.63436123348,4,2,1,80,1,0
90824,-80,4,2,1,80,0,0
91881,539.325842696629,4,2,1,80,1,0
91881,-100,4,2,1,80,0,0
92420,-66.6666666666667,4,2,1,80,0,0
92959,564.705882352941,4,2,1,70,1,0
92959,-100,4,2,1,70,0,0
93806,-50,4,2,1,70,0,0
94088,559.440559440559,4,2,1,70,1,0
94088,-100,4,2,1,70,0,0
94927,-50,4,2,1,70,0,0
95206,559.440559440559,4,2,1,70,1,0
95206,-100,4,2,1,70,0,0
96045,-50,4,2,1,70,0,0
96324,-100,4,2,1,70,0,0
96884,491.803278688525,4,2,1,70,1,0
96884,-100,4,2,1,70,0,0
97129,588.235294117647,4,2,1,70,1,0
97129,-100,4,2,1,70,0,0
97423,540.540540540541,4,2,1,90,1,0
97423,-50,4,2,1,90,0,0
100598,-50,4,2,1,5,0,0
100666,535.714285714286,4,2,1,90,1,0
100666,-50,4,2,1,90,0,0
101201,-100,4,2,1,90,0,0
101737,539.932508436445,4,2,1,90,1,0
101737,-50,4,2,1,90,0,0
104886,-50,4,2,1,5,0,0
104976,-50,4,2,1,90,0,0
105516,570.071258907363,4,2,1,90,1,0
105516,-50,4,2,1,90,0,0
106086,556.844547563805,4,2,1,65,1,0
106086,-100,4,2,1,65,0,0
108313,540.540540540541,4,2,1,65,1,0
108313,-100,4,2,1,65,0,0
109123,564.705882352941,4,2,1,65,1,0
109123,-100,4,2,1,65,0,0
109405,564.705882352941,4,2,1,65,1,0
109405,-100,4,2,1,65,0,0
109969,571.428571428571,4,2,1,65,1,0
109969,-100,4,2,1,65,0,0
110540,555.555555555556,4,2,1,65,1,0
110540,-100,4,2,1,65,0,0
112206,562.060889929742,4,2,1,65,1,0
112206,-100,4,2,1,65,0,0
112768,545.454545454546,4,2,1,65,1,0
112768,-100,4,2,1,65,0,0
113586,560.747663551402,4,2,1,65,1,0
113586,-100,4,2,1,65,0,0
114146,592.592592592593,4,2,1,65,1,0
114146,-100,4,2,1,65,0,0
114442,558.139534883721,4,2,1,65,1,0
114442,-100,4,2,1,65,0,0
115000,535.714285714286,4,2,1,65,1,0
115000,-100,4,2,1,65,0,0
115334,-100,4,2,1,5,0,0
115401,-100,4,2,1,65,0,0
115803,556.328233657858,4,2,1,65,1,0
115803,-100,4,2,1,65,0,0
116081,556.328233657858,4,2,1,65,1,0
116081,-100,4,2,1,65,0,0
117193,535.714285714286,4,2,1,65,1,0
117193,-100,4,2,1,65,0,0
117996,558.659217877095,4,2,1,65,1,0
117996,-100,4,2,1,65,0,0
118275,558.659217877095,4,2,1,65,1,0
118275,-100,4,2,1,65,0,0
119392,535.714285714286,4,2,1,65,1,0
119392,-100,4,2,1,65,0,0
120195,563.380281690141,4,2,1,65,1,0
120195,-100,4,2,1,65,0,0
120476,563.380281690141,4,2,1,65,1,0
120476,-100,4,2,1,65,0,0
121039,550.45871559633,4,2,1,65,1,0
121039,-100,4,2,1,65,0,0
121589,528.63436123348,4,2,1,65,1,0
121589,-100,4,2,1,65,0,0
122646,550.45871559633,4,2,1,20,1,0
122646,-100,4,2,1,20,0,0
123196,-100,4,2,1,28,0,0
123471,-100,4,2,1,32,0,0
123746,-100,4,2,1,36,0,0
124022,-100,4,2,1,40,0,0
124297,540.540540540541,4,2,1,44,1,0
124297,-100,4,2,1,44,0,0
124567,-100,4,2,1,48,0,0
124837,547.945205479452,4,2,1,52,1,0
124837,-100,4,2,1,52,0,0
125110,-100,4,2,1,56,0,0
125384,-100,4,2,1,60,0,0
125658,-100,4,2,1,64,0,0
125932,-100,4,2,1,68,0,0
126172,-100,4,2,1,72,0,0
126446,-100,4,2,1,76,0,0
126480,526.315789473684,4,2,1,76,1,0
126480,-100,4,2,1,76,0,0
126743,-100,4,2,1,80,0,0
127006,530.973451327434,4,2,1,80,1,0
127006,-66.6666666666667,4,2,1,80,0,0
127536,-66.6666666666667,4,2,1,80,0,0
128598,-66.6666666666667,4,2,1,80,0,0
129129,528.63436123348,4,2,1,80,1,0
129129,-66.6666666666667,4,2,1,80,0,0
132829,-66.6666666666667,4,2,1,80,0,0
135472,534.521158129176,4,2,1,80,1,0
135472,-60.6060606060606,4,2,1,80,0,0
137610,530.973451327434,4,2,1,80,1,0
137610,-60.6060606060606,4,2,1,80,0,0
139733,534.521158129176,4,2,1,80,1,0
139733,-60.6060606060606,4,2,1,80,0,0
141871,-60.6060606060606,4,2,1,80,0,0
142940,-60.6060606060606,4,2,1,80,0,0
143474,531.914893617021,4,2,1,80,1,0
144005,536.912751677852,4,2,1,80,1,0
144005,-100,4,2,1,90,0,0
146152,-50,4,2,1,90,0,0
147159,-50,4,2,1,5,0,0
147226,-50,4,2,1,90,0,0
147763,551.724137931035,4,2,1,90,1,0
147763,-100,4,2,1,90,0,0
148314,538.116591928251,4,2,1,90,1,0
148314,-100,4,2,1,90,0,0
150466,535.714285714286,4,2,1,90,1,0
150466,-50,4,2,1,90,0,0
151470,-50,4,2,1,5,0,0
151537,-50,4,2,1,90,0,0
152073,-100,4,2,1,90,0,0
152608,532.859680284192,4,2,1,90,1,0
152608,-100,4,2,1,90,0,0
154739,-50,4,2,1,90,0,0
155272,539.325842696629,4,2,1,90,1,0
155272,-100,4,2,1,90,0,0
155541,-50,4,2,1,90,0,0
155743,-50,4,2,1,5,0,0
155811,-50,4,2,1,90,0,0
156350,524.017467248908,4,2,1,90,1,0
156350,-100,4,2,1,90,0,0
156874,525.164113785558,4,2,1,90,1,0
156874,-100,4,2,1,90,0,0
158974,512.820512820513,4,2,1,90,1,0
158974,-50,4,2,1,90,0,0
159486,535.714285714286,4,2,1,90,1,0
159486,-50,4,2,1,90,0,0
160021,512.820512820513,4,2,1,90,1,0
160405,666.666666666667,4,2,1,90,1,0
160571,526.315789473684,4,2,1,90,1,0
160571,-33.3333333333333,4,2,1,90,0,0

[Colours]
Combo1 : 209,162,230
Combo2 : 235,154,101
Combo3 : 121,196,168
Combo4 : 118,202,220

[HitObjects]
35,86,16681,6,0,B|102:90|128:151|125:162|145:226|214:235,1,239.0625,6|0,1:2|1:2,0:2:0:0:
312,49,17205,2,0,P|238:66|223:140,1,159.375,10|0,0:2|0:2,0:2:0:0:
311,198,17598,1,0,1:2:0:0:
311,198,17729,2,0,L|391:187,1,79.6875,2|8,1:2|0:2,0:2:0:0:
470,84,17991,2,0,L|391:94,1,79.6875,2|2,0:2|1:2,0:2:0:0:
223,140,18253,6,0,P|151:154|103:88,1,159.375,8|2,0:2|0:2,0:2:0:0:
32,29,18646,1,10,0:2:0:0:
0,149,18777,6,0,L|12:231,1,79.6875,2|0,1:2|0:2,0:2:0:0:
26,328,19039,1,0,0:2:0:0:
26,328,19170,1,2,1:2:0:0:
144,228,19301,5,10,0:2:0:0:
236,323,19432,1,0,0:2:0:0:
96,384,19563,2,0,P|101:345|107:303,1,79.6875,2|2,0:2|1:2,0:2:0:0:
238,227,19825,5,2,1:2:0:0:
315,307,19956,2,0,B|389:293|389:293|394:286|394:286|472:272,1,159.375,8|0,0:2|1:2,0:2:0:0:
512,121,20349,2,0,B|438:107|438:107|433:100|433:100|355:86,1,159.375,8|2,0:2|0:2,0:2:0:0:
271,0,20742,1,10,0:2:0:0:
149,138,20873,6,0,B|127:205|189:244|194:238|251:278|234:345,1,239.0625,6|0,1:2|1:2,0:2:0:0:
131,275,21397,2,0,P|176:198|259:204,1,159.375,10|0,0:2|0:2,0:2:0:0:
392,156,21790,1,0,1:2:0:0:
392,156,21921,2,0,P|352:158|317:142,1,79.6875,2|8,1:2|0:2,0:2:0:0:
472,14,22183,5,2,0:2:0:0:
512,101,22314,1,2,1:2:0:0:
460,8,22445,2,0,P|418:93|425:158,1,159.375,10|2,0:2|0:2,0:2:0:0:
358,265,22838,1,10,0:2:0:0:
498,357,22969,5,2,1:2:0:0:
461,261,23100,1,0,0:2:0:0:
384,358,23231,2,0,P|346:364|306:346,1,79.6875,2|2,0:2|1:2,0:2:0:0:
189,383,23494,6,0,L|47:363,1,119.53125,10|0,0:2|0:2,0:2:0:0:
59,377,23757,2,0,P|46:339|49:294,1,79.6875,2|0,0:2|1:2,0:2:0:0:
99,144,24019,5,2,1:2:0:0:
47,201,24151,2,0,P|122:217|175:148,1,159.375,8|2,0:2|1:2,0:2:0:0:
289,61,24545,6,0,P|197:52|82:-5,1,191.250007295609,14|14,0:2|0:2,0:2:0:0:
322,202,25101,5,2,0:2:0:0:
348,177,25232,1,2,0:2:0:0:
384,183,25364,1,2,0:2:0:0:
425,316,25495,5,2,0:2:0:0:
390,306,25627,1,2,0:2:0:0:
378,272,25758,1,2,0:2:0:0:
473,170,25890,5,2,0:2:0:0:
481,205,26030,1,2,0:2:0:0:
458,233,26171,1,2,0:2:0:0:
297,321,26311,5,2,0:2:0:0:
235,282,26452,1,2,0:2:0:0:
162,295,26592,1,2,0:2:0:0:
119,355,26733,1,2,0:2:0:0:
212,360,26873,5,2,0:2:0:0:
202,313,27014,1,2,0:2:0:0:
192,266,27154,1,2,0:2:0:0:
163,129,27295,5,2,0:2:0:0:
250,167,27434,1,2,0:2:0:0:
101,224,27574,1,2,0:2:0:0:
146,121,27713,1,2,0:2:0:0:
251,187,27853,5,2,0:2:0:0:
217,54,27994,1,2,0:2:0:0:
74,84,28136,1,2,0:2:0:0:
99,196,28277,1,2,0:2:0:0:
160,114,28419,5,2,0:2:0:0:
160,114,28995,5,2,0:2:0:0:
208,103,29131,1,2,0:2:0:0:
256,92,29268,1,2,0:2:0:0:
313,30,29405,5,2,0:2:0:0:
361,41,29542,1,2,0:2:0:0:
409,52,29679,1,2,0:2:0:0:
460,147,29816,5,2,0:2:0:0:
471,195,29953,1,2,0:2:0:0:
482,243,30090,1,2,0:2:0:0:
299,301,30232,5,2,0:2:0:0:
320,218,30375,1,2,0:2:0:0:
403,239,30518,1,2,0:2:0:0:
382,322,30661,1,2,0:2:0:0:
283,297,30804,5,2,0:2:0:0:
242,319,30944,1,2,0:2:0:0:
196,314,31084,1,2,0:2:0:0:
53,375,31224,5,2,0:2:0:0:
80,301,31364,1,2,0:2:0:0:
9,231,31505,1,2,0:2:0:0:
17,257,31646,1,2,0:2:0:0:
11,152,31787,5,2,0:2:0:0:
130,197,31928,1,2,0:2:0:0:
211,142,32069,1,2,0:2:0:0:
129,93,32209,1,2,0:2:0:0:
214,237,32350,5,2,0:2:0:0:
426,45,32876,5,2,1:2:0:0:
426,45,33010,2,0,B|477:131|477:131|450:184,1,159.375,2|0,0:2|1:2,0:2:0:0:
504,265,33414,1,10,0:2:0:0:
398,331,33548,2,0,L|316:312,1,79.6875,0|2,0:2|0:2,0:2:0:0:
233,287,33817,1,0,1:2:0:0:
284,384,33952,6,0,B|275:308|275:308|269:302|269:302|260:225,1,159.375,2|0,1:2|0:2,0:2:0:0:
158,172,34348,1,2,1:2:0:0:
272,66,34480,2,0,B|263:139|263:139|257:145|257:145|248:221,1,159.375,14|14,0:2|0:2,0:2:0:0:
389,100,35031,5,2,0:2:0:0:
499,74,35167,1,2,0:2:0:0:
476,70,35304,1,2,0:2:0:0:
455,68,35441,1,2,0:2:0:0:
369,194,35578,5,2,0:2:0:0:
479,168,35715,1,2,0:2:0:0:
456,164,35852,1,2,0:2:0:0:
435,162,35989,1,2,0:2:0:0:
349,288,36126,5,2,0:2:0:0:
459,262,36263,1,2,0:2:0:0:
436,258,36400,1,2,0:2:0:0:
415,256,36537,1,2,0:2:0:0:
329,382,36674,5,2,0:2:0:0:
20,328,37185,6,0,P|93:335|130:267,1,159.375,6|0,1:2|0:2,0:2:0:0:
250,206,37601,1,0,1:2:0:0:
250,206,37740,2,0,P|210:209|174:189,1,79.6875,10|0,0:2|0:2,0:2:0:0:
35,219,38003,2,0,L|44:99,1,119.53125,2|0,0:2|0:2,0:2:0:0:
37,90,38266,5,2,1:2:0:0:
96,5,38397,1,8,0:2:0:0:
151,100,38529,1,0,0:2:0:0:
151,100,38661,1,2,1:2:0:0:
287,32,38792,6,0,P|369:46|468:6,1,191.25,14|14,0:2|0:2,0:2:0:0:
366,280,39347,5,2,0:2:0:0:
387,208,39485,1,2,0:2:0:0:
459,229,39623,1,2,0:2:0:0:
438,301,39761,1,2,0:2:0:0:
348,276,39899,5,2,0:2:0:0:
390,190,40034,1,2,0:2:0:0:
476,232,40170,1,2,0:2:0:0:
434,318,40306,1,2,0:2:0:0:
335,266,40441,5,2,0:2:0:0:
400,177,40577,1,2,0:2:0:0:
489,242,40713,1,2,0:2:0:0:
424,331,40849,1,2,0:2:0:0:
413,254,40984,5,2,0:2:0:0:
190,378,41445,6,0,B|124:341|142:286|68:248,1,159.375,6|0,1:2|0:2,0:2:0:0:
20,229,41839,1,2,1:2:0:0:
161,303,41971,2,0,B|218:271|202:223|267:188,1,159.375,10|2,0:2|0:2,0:2:0:0:
164,117,42366,1,0,1:2:0:0:
302,79,42497,6,0,P|298:41|291:-38,1,79.6875,2|10,1:2|0:2,0:2:0:0:
424,78,42760,1,0,0:2:0:0:
363,122,42892,1,2,1:2:0:0:
485,34,43023,2,0,P|417:54|425:159,1,191.976757295609,14|14,0:2|0:2,0:2:0:0:
287,380,43591,5,2,0:2:0:0:
302,294,43721,1,2,0:2:0:0:
216,279,43852,1,2,0:2:0:0:
201,365,43983,1,2,0:2:0:0:
220,352,44114,5,2,0:2:0:0:
188,272,44244,1,2,0:2:0:0:
246,188,44375,1,2,0:2:0:0:
214,108,44506,1,2,0:2:0:0:
196,103,44637,5,2,0:2:0:0:
133,185,44767,1,2,0:2:0:0:
243,250,44898,1,2,0:2:0:0:
118,350,45029,1,2,0:2:0:0:
166,258,45160,5,2,0:2:0:0:
405,342,45683,6,0,P|470:342|498:260,1,159.375,6|0,1:2|0:2,0:2:0:0:
348,283,46077,1,2,1:2:0:0:
348,283,46209,2,0,L|356:197,1,79.6875,10|0,0:2|0:2,0:2:0:0:
436,63,46472,2,0,L|447:182,1,119.53125,2|0,0:2|0:2,0:2:0:0:
457,184,46735,5,2,1:2:0:0:
512,111,46867,1,8,0:2:0:0:
420,50,46998,1,0,0:2:0:0:
420,50,47130,1,2,1:2:0:0:
303,154,47261,6,0,B|220:147|220:147|200:140|200:140|109:133,1,191.976757295609,14|14,0:2|0:2,0:2:0:0:
347,85,47814,5,2,1:2:0:0:
311,174,47952,1,2,0:2:0:0:
371,254,48091,1,2,0:2:0:0:
407,165,48229,1,10,0:2:0:0:
279,263,48368,1,2,1:2:0:0:
41,369,48645,6,0,P|15:315|25:251,1,127.5,10|0,0:2|0:2,0:2:0:0:
168,138,48922,5,2,1:2:0:0:
153,212,49060,1,2,1:2:0:0:
79,197,49199,1,2,0:2:0:0:
94,123,49338,1,10,0:2:0:0:
165,232,49477,1,2,1:2:0:0:
499,41,49755,6,0,L|486:167,1,127.5,10|0,0:2|0:2,0:2:0:0:
342,372,50033,5,2,1:2:0:0:
391,300,50171,1,2,1:2:0:0:
310,233,50310,1,2,0:2:0:0:
364,131,50449,1,10,0:2:0:0:
329,358,50588,1,2,1:2:0:0:
500,189,50866,6,0,L|374:202,1,127.5,10|0,0:2|0:2,0:2:0:0:
135,113,51144,5,2,1:2:0:0:
216,44,51283,1,2,1:2:0:0:
44,82,51421,1,2,0:2:0:0:
226,144,51560,1,10,0:2:0:0:
116,0,51699,1,2,1:2:0:0:
41,239,51966,5,12,0:2:0:0:
325,377,52234,5,14,0:2:0:0:
281,245,52370,1,2,0:2:0:0:
417,326,52506,1,2,0:2:0:0:
398,336,52642,5,2,1:2:0:0:
413,199,52778,1,14,0:2:0:0:
428,62,52914,1,2,0:2:0:0:
406,69,53050,5,2,0:2:0:0:
437,197,53186,1,2,1:2:0:0:
496,36,53322,1,14,0:2:0:0:
393,59,53458,5,2,0:2:0:0:
430,212,53594,1,2,0:2:0:0:
501,19,53730,1,2,1:2:0:0:
355,153,53866,5,14,0:2:0:0:
503,136,54002,1,2,0:2:0:0:
347,170,54138,5,2,0:2:0:0:
511,119,54274,1,2,1:2:0:0:
318,15,54410,6,0,B|261:27|261:27|249:24|249:24|193:36,1,127.5,14|2,0:2|0:2,0:2:0:0:
39,66,54682,1,2,0:2:0:0:
185,222,54819,5,2,1:2:0:0:
149,92,54955,1,14,0:2:0:0:
57,220,55091,1,2,0:2:0:0:
147,337,55227,2,0,L|337:311,1,191.25,2|0,0:2|0:2,0:2:0:0:
341,299,55499,5,14,0:2:0:0:
453,372,55642,1,2,1:2:0:0:
347,286,55786,1,2,0:2:0:0:
465,201,55929,1,2,1:2:0:0:
498,312,56073,6,0,L|481:179,1,127.5,14|0,0:2|0:2,0:2:0:0:
253,92,56612,5,14,0:2:0:0:
346,127,56748,1,2,0:2:0:0:
412,29,56884,1,2,0:2:0:0:
394,36,57021,5,2,1:2:0:0:
328,134,57157,1,14,0:2:0:0:
262,232,57293,1,2,0:2:0:0:
259,215,57430,5,2,0:2:0:0:
385,180,57566,1,2,1:2:0:0:
318,303,57702,1,14,0:2:0:0:
236,212,57839,5,2,0:2:0:0:
399,166,57975,1,2,0:2:0:0:
312,326,58112,1,2,1:2:0:0:
483,382,58248,5,14,0:2:0:0:
475,241,58384,1,2,0:2:0:0:
492,368,58521,5,2,0:2:0:0:
466,255,58657,1,2,1:2:0:0:
318,349,58793,6,0,L|185:331,1,127.5,14|2,0:2|0:2,0:2:0:0:
24,307,59061,1,2,0:2:0:0:
178,345,59195,5,2,1:2:0:0:
86,266,59329,1,14,0:2:0:0:
267,163,59463,1,2,0:2:0:0:
163,268,59597,2,0,L|177:77,1,191.25,2|0,0:2|0:2,0:2:0:0:
168,67,59865,5,14,0:2:0:0:
281,178,60002,1,2,1:2:0:0:
343,17,60140,1,2,0:2:0:0:
265,72,60277,1,2,0:2:0:0:
384,172,60415,6,0,B|427:165|427:165|442:155|442:155|462:161|462:161|508:155,1,127.5,6|0,1:2|0:2,0:2:0:0:
254,355,60990,6,0,L|57:329,2,191.25,6|6|6,1:2|1:2|1:2,0:2:0:0:
154,384,62116,2,0,L|137:257,1,127.5,0|0,3:2|3:2,0:2:0:0:
69,188,62671,1,10,0:2:0:0:
69,188,62810,1,2,0:2:0:0:
310,290,63227,6,0,P|371:310|433:212,1,191.25,2|2,1:2|1:2,0:2:0:0:
480,163,63777,1,8,0:2:0:0:
392,61,64052,1,2,1:2:0:0:
263,225,64331,2,0,P|206:229|154:184,1,127.5,0|0,3:2|3:2,0:2:0:0:
41,98,64890,1,10,0:2:0:0:
41,98,65030,2,0,P|78:92|109:86,2,63.75,2|0|0,0:2|0:2|0:2,0:2:0:0:
153,0,65449,6,0,P|133:119|114:219,1,191.25,2|2,1:2|1:2,0:2:0:0:
183,247,65998,2,0,P|199:347|215:430,1,127.5,8|2,0:2|1:2,0:2:0:0:
377,335,66552,1,0,3:2:0:0:
272,295,66832,1,0,3:2:0:0:
458,196,67112,1,10,0:2:0:0:
458,196,67252,2,0,L|464:269,2,63.75,2|0|0,0:2|0:2|0:2,0:2:0:0:
375,168,67673,6,0,P|439:168|475:119,1,127.5,2|2,1:2|0:2,0:2:0:0:
332,106,68075,1,2,1:2:0:0:
332,106,68209,2,0,P|336:73|339:38,1,63.75,8|0,0:2|0:2,0:2:0:0:
146,0,68478,6,0,P|152:63|159:126,2,127.5,2|0|0,1:2|3:2|3:2,0:2:0:0:
120,192,69318,1,10,0:2:0:0:
120,192,69458,1,2,0:2:0:0:
274,349,69879,6,0,P|191:313|42:338,1,191.25,2|2,1:2|1:2,0:2:0:0:
31,282,70428,1,8,0:2:0:0:
191,231,70702,1,2,1:2:0:0:
346,321,70981,2,0,P|342:354|340:385,2,63.75,0|2|0,3:2|0:2|3:2,0:2:0:0:
326,252,71539,1,10,0:2:0:0:
326,252,71678,1,2,0:2:0:0:
326,252,71818,2,0,P|320:220|323:188,1,63.75
493,150,72097,6,0,P|445:148|412:266,1,191.25,2|2,1:2|1:2,0:2:0:0:
342,364,72647,2,0,P|277:355|216:342,1,127.5,8|2,0:2|1:2,0:2:0:0:
20,299,73197,1,0,3:2:0:0:
20,299,73473,1,0,3:2:0:0:
147,249,73748,1,10,0:2:0:0:
147,249,73888,1,2,0:2:0:0:
147,249,74028,2,0,L|142:176,1,63.75,0|0,0:2|0:2,0:2:0:0:
37,81,74308,5,2,1:2:0:0:
37,81,74443,2,0,L|28:208,1,127.5,0|2,0:2|1:2,0:2:0:0:
132,173,74848,2,0,B|194:155|201:197|263:186,1,127.5,8|2,0:2|1:2,0:2:0:0:
480,153,75395,1,0,3:2:0:0:
480,153,75672,1,0,3:2:0:0:
325,232,75950,1,10,0:2:0:0:
325,232,76089,2,0,L|332:167,1,63.75,2|0,0:2|0:2,0:2:0:0:
461,358,76506,6,0,B|380:347|380:347|364:339|364:339|273:326,1,191.25,2|2,1:2|1:2,0:2:0:0:
199,375,77042,2,0,B|162:323|162:323|200:271,1,127.97515,8|2,0:2|1:2,0:2:0:0:
158,134,77592,1,0,3:2:0:0:
158,134,77873,1,0,3:2:0:0:
308,4,78155,5,14,0:2:0:0:
292,91,78301,1,2,0:2:0:0:
506,229,78739,5,2,0:0:0:0:
479,211,78872,1,2,0:0:0:0:
447,213,79006,1,2,0:0:0:0:
411,336,79140,5,2,0:0:0:0:
440,322,79274,1,2,0:0:0:0:
455,293,79408,1,2,0:0:0:0:
366,201,79542,5,2,0:0:0:0:
363,233,79676,1,2,0:0:0:0:
381,260,79810,1,2,0:0:0:0:
459,141,79944,5,2,0:0:0:0:
404,74,80078,1,2,0:0:0:0:
460,1,80212,1,2,0:0:0:0:
511,61,80346,1,2,0:0:0:0:
392,90,80483,5,2,0:0:0:0:
341,84,80621,1,2,0:0:0:0:
306,46,80758,1,2,0:0:0:0:
218,6,80896,5,2,0:0:0:0:
197,75,81036,1,2,0:0:0:0:
130,105,81176,1,2,0:0:0:0:
60,82,81317,1,2,0:0:0:0:
55,65,81457,5,2,0:0:0:0:
123,13,81598,1,2,0:0:0:0:
186,65,81738,1,2,0:0:0:0:
266,4,81879,1,2,0:0:0:0:
357,81,82019,5,2,0:0:0:0:
357,81,82625,5,2,0:0:0:0:
340,113,82761,1,2,0:0:0:0:
340,149,82897,1,2,0:0:0:0:
286,206,83034,5,2,0:0:0:0:
296,240,83170,1,2,0:0:0:0:
322,266,83306,1,2,0:0:0:0:
324,344,83443,5,2,0:0:0:0:
355,361,83579,1,2,0:0:0:0:
392,361,83715,1,2,0:0:0:0:
493,382,83856,5,2,0:0:0:0:
421,341,83998,1,2,0:0:0:0:
444,263,84139,1,2,0:0:0:0:
467,185,84281,1,2,0:0:0:0:
460,167,84422,5,2,0:0:0:0:
465,210,84564,1,2,0:0:0:0:
470,253,84705,1,2,0:0:0:0:
479,331,84847,5,2,0:0:0:0:
493,258,84988,1,2,0:0:0:0:
397,194,85130,1,2,0:0:0:0:
406,279,85271,1,2,0:0:0:0:
413,264,85413,5,2,0:0:0:0:
429,174,85554,1,2,0:0:0:0:
312,97,85696,1,2,0:0:0:0:
323,200,85837,1,2,0:0:0:0:
404,82,85979,5,2,0:0:0:0:
115,0,86531,5,6,1:2:0:0:
115,0,86667,2,0,B|104:71|104:71|105:82|105:82|90:172,1,159.375,2|2,0:2|1:2,0:2:0:0:
20,296,87076,2,0,P|4:255|16:188,1,79.6875,10|0,0:2|0:2,0:2:0:0:
111,238,87349,2,0,B|188:264|188:264|235:246,1,119.53125,2|0,0:2|0:2,0:2:0:0:
228,237,87621,5,2,1:2:0:0:
380,310,87753,1,10,0:2:0:0:
274,365,87886,1,0,0:2:0:0:
274,365,88019,1,2,1:2:0:0:
398,320,88151,6,0,L|406:122,1,191.970382295609,14|14,0:2|0:2,0:2:0:0:
172,11,88705,5,2,0:0:0:0:
115,73,88838,1,2,0:0:0:0:
118,98,88971,1,2,0:0:0:0:
121,123,89105,1,2,0:0:0:0:
233,110,89238,5,2,0:0:0:0:
290,172,89371,1,2,0:0:0:0:
287,197,89505,1,2,0:0:0:0:
284,222,89638,1,2,0:0:0:0:
172,209,89771,5,2,0:0:0:0:
115,271,89905,1,2,0:0:0:0:
118,296,90038,1,2,0:0:0:0:
121,321,90171,1,2,0:0:0:0:
233,334,90305,5,2,0:0:0:0:
6,170,90824,6,0,P|68:183|108:70,1,159.375,6|2,1:2|0:2,0:2:0:0:
297,27,91220,1,2,1:2:0:0:
202,0,91352,2,0,P|199:39|212:77,1,79.6875,10|0,0:2|0:2,0:2:0:0:
298,125,91616,1,2,0:2:0:0:
298,125,91749,1,0,1:2:0:0:
435,53,91881,5,2,1:2:0:0:
500,163,92015,1,8,0:2:0:0:
383,238,92150,1,0,0:2:0:0:
387,206,92285,1,2,1:2:0:0:
508,316,92420,6,0,P|417:306|369:384,1,191.25,14|14,0:2|0:2,0:2:0:0:
129,233,92959,5,2,1:2:0:0:
170,323,93100,1,2,0:2:0:0:
110,227,93241,1,2,0:2:0:0:
171,145,93382,1,10,0:2:0:0:
231,241,93523,1,2,1:2:0:0:
397,142,93806,6,0,B|388:86|388:86|393:78|393:78|382:17,1,127.5,10|0,0:2|0:2,0:2:0:0:
348,206,94088,5,2,1:2:0:0:
463,98,94227,1,2,1:2:0:0:
498,268,94367,1,2,0:2:0:0:
428,223,94507,1,10,0:2:0:0:
503,288,94647,1,2,1:2:0:0:
290,376,94927,6,0,P|239:340|170:336,1,127.5,10|0,0:2|0:2,0:2:0:0:
66,178,95206,5,2,1:2:0:0:
146,132,95345,1,2,1:2:0:0:
167,12,95485,1,2,0:2:0:0:
159,149,95625,1,10,0:2:0:0:
238,198,95765,1,2,1:2:0:0:
435,24,96045,6,0,P|371:33|319:3,1,127.5,10|0,0:0|0:0,0:0:0:0:
371,270,96324,5,2,1:2:0:0:
397,154,96464,1,2,1:2:0:0:
512,181,96604,1,2,0:2:0:0:
486,296,96744,1,10,0:2:0:0:
441,225,96884,1,2,1:2:0:0:
405,384,97129,5,12,0:2:0:0:
245,293,97423,5,14,0:2:0:0:
122,313,97558,1,2,0:2:0:0:
0,333,97693,1,2,0:2:0:0:
16,344,97828,5,2,1:2:0:0:
37,222,97963,1,14,0:2:0:0:
57,99,98098,1,2,0:2:0:0:
46,116,98233,5,2,0:2:0:0:
162,181,98368,1,2,1:2:0:0:
256,87,98504,1,14,0:2:0:0:
32,120,98639,5,2,0:2:0:0:
165,194,98774,1,2,0:2:0:0:
272,87,98909,1,2,1:2:0:0:
140,0,99044,5,14,0:2:0:0:
111,122,99179,1,2,0:2:0:0:
129,9,99314,5,2,0:2:0:0:
122,113,99450,1,2,1:2:0:0:
300,165,99585,6,0,B|355:155|355:155|368:160|368:160|429:148,1,127.5,14|2,0:2|0:2,0:0:0:0:
512,132,99855,1,2,0:2:0:0:
405,269,99990,5,2,1:2:0:0:
434,135,100125,1,14,0:2:0:0:
313,78,100260,1,2,0:2:0:0:
291,176,100395,2,0,L|313:372,1,191.25,2|0,0:2|0:2,0:2:0:0:
303,376,100666,5,14,0:2:0:0:
328,249,100799,1,2,1:2:0:0:
496,333,100933,1,2,0:2:0:0:
388,327,101067,1,2,1:2:0:0:
475,169,101201,6,0,L|460:42,1,127.5,14|0,0:2|0:2,0:2:0:0:
221,0,101737,5,14,0:2:0:0:
194,156,101871,1,2,0:2:0:0:
282,69,102006,1,2,0:2:0:0:
271,57,102141,5,2,1:2:0:0:
147,69,102276,1,14,0:2:0:0:
23,81,102411,1,2,0:2:0:0:
34,69,102546,5,2,0:2:0:0:
116,220,102681,1,2,1:2:0:0:
209,140,102816,1,14,0:2:0:0:
24,59,102951,5,2,0:2:0:0:
115,230,103086,1,2,0:2:0:0:
218,138,103221,1,2,1:2:0:0:
20,180,103356,5,14,0:2:0:0:
139,42,103491,1,2,0:2:0:0:
19,163,103626,5,2,0:2:0:0:
140,59,103761,1,2,1:2:0:0:
219,243,103896,6,0,L|345:231,1,127.5,14|2,0:2|0:2,0:2:0:0:
417,142,104166,1,2,0:2:0:0:
253,15,104301,5,2,1:2:0:0:
283,147,104436,1,14,0:2:0:0:
351,58,104571,1,2,0:2:0:0:
508,171,104706,2,0,P|422:199|352:138,1,191.25,2|0,0:2|0:2,0:2:0:0:
359,128,104976,5,14,0:2:0:0:
442,236,105111,1,2,1:2:0:0:
508,50,105246,1,2,0:2:0:0:
440,109,105381,1,2,0:2:0:0:
498,319,105516,6,0,B|452:313|452:313|434:318|434:318|417:309|417:309|374:302,1,127.5,6|0,1:2|0:2,0:2:0:0:
51,371,106086,6,0,L|32:154,2,191.25,6|6|6,1:2|1:2|1:2,0:2:0:0:
180,291,107199,1,0,3:2:0:0:
180,291,107478,1,0,3:2:0:0:
46,161,107756,1,10,0:2:0:0:
46,161,107895,2,0,L|125:147,2,63.75,2|0|0,0:2|0:2|0:2,0:2:0:0:
206,52,108313,6,0,L|441:93,1,191.25,2|2,1:2|1:2,0:2:0:0:
459,48,108853,1,10,0:2:0:0:
321,104,109123,1,2,1:2:0:0:
403,270,109405,1,0,3:2:0:0:
403,270,109687,1,0,3:2:0:0:
509,173,109969,1,10,0:2:0:0:
509,173,110111,2,0,P|460:186|434:190,1,63.75,2|0,0:2|0:2,0:2:0:0:
318,306,110540,5,2,1:2:0:0:
318,306,110678,2,0,P|257:292|209:336,1,127.5,0|2,0:2|1:2,0:2:0:0:
157,384,111095,2,0,P|112:328|45:271,1,127.5,8|2,0:2|1:2,0:2:0:0:
39,151,111651,1,0,3:2:0:0:
39,151,111928,1,0,3:2:0:0:
161,274,112206,1,10,0:2:0:0:
152,192,112346,1,2,0:2:0:0:
271,3,112768,6,0,P|266:63|209:92,1,127.5,2|0,1:2|0:2,0:2:0:0:
288,159,113177,1,2,1:2:0:0:
288,159,113313,2,0,P|322:152|385:135,1,63.75,8|0,0:2|0:2,0:2:0:0:
467,74,113586,2,0,L|444:237,1,127.5,2|0,1:2|3:2,0:2:0:0:
449,200,114146,1,0,3:2:0:0:
505,334,114442,1,10,0:2:0:0:
505,334,114581,1,2,0:2:0:0:
238,248,115000,5,2,1:2:0:0:
238,248,115133,2,0,P|222:276|215:307,1,63.75,0|0,0:2|0:2,0:2:0:0:
225,384,115401,1,2,1:2:0:0:
144,248,115535,2,0,P|114:260|82:264,1,63.75,8|0,0:2|0:2,0:2:0:0:
14,207,115803,2,0,L|27:79,1,127.5,2|0,1:2|3:2,0:2:0:0:
26,80,116359,1,0,3:2:0:0:
150,28,116637,1,10,0:2:0:0:
150,28,116776,2,0,L|156:91,2,63.75,2|0|0,0:2|0:2|0:2,0:2:0:0:
104,150,117193,6,0,P|143:123|243:200,1,191.25,2|2,1:2|1:2,0:2:0:0:
314,233,117728,2,0,P|343:245|376:244,1,63.75,8|0,0:2|0:2,0:2:0:0:
439,206,117996,1,2,1:2:0:0:
496,373,118275,2,0,P|437:343|370:338,1,127.5,0|0,3:2|3:2,0:2:0:0:
505,271,118833,1,10,0:2:0:0:
505,271,118973,1,2,0:2:0:0:
357,166,119392,6,0,L|367:35,1,127.5,2|0,1:2|0:2,0:2:0:0:
459,0,119793,1,2,1:2:0:0:
459,0,119927,2,0,P|483:24|514:32,1,63.75,8|0,0:2|0:2,0:2:0:0:
443,112,120195,2,0,B|331:101|331:101|311:83|311:83|193:72,1,254.547375,2|0,1:2|3:2,0:2:0:0:
82,0,121039,1,10,0:2:0:0:
82,0,121176,1,2,0:2:0:0:
2,152,121589,6,0,L|22:279,1,127.5,2|0,1:2|0:2,0:2:0:0:
91,350,121985,1,2,1:2:0:0:
91,350,122117,2,0,L|100:287,1,63.75,8|0,0:2|0:2,0:2:0:0:
110,214,122381,1,2,1:2:0:0:
358,384,122646,5,2,1:2:0:0:
386,375,122921,1,2,1:2:0:0:
423,337,123196,1,2,1:2:0:0:
452,265,123471,1,2,1:2:0:0:
451,174,123746,1,2,1:2:0:0:
401,87,124022,1,2,1:2:0:0:
300,39,124297,1,2,1:2:0:0:
179,50,124567,1,2,1:2:0:0:
102,156,124837,5,2,1:2:0:0:
401,87,125110,1,2,1:2:0:0:
81,80,125384,5,2,1:2:0:0:
439,162,125658,1,2,1:2:0:0:
32,172,125932,5,2,1:2:0:0:
470,70,126206,1,2,1:2:0:0:
9,63,126480,5,2,1:2:0:0:
511,179,126743,1,2,1:2:0:0:
184,375,127006,6,0,B|173:295|173:295|163:278|163:278|152:188,1,191.25,4|0,1:2|0:2,0:2:0:0:
253,251,127404,1,2,1:2:0:0:
85,308,127536,2,0,B|155:320|199:250|266:263,1,191.25,10|0,0:2|0:2,0:2:0:0:
366,178,127935,1,0,1:2:0:0:
474,282,128067,5,2,1:2:0:0:
366,369,128200,1,10,0:2:0:0:
339,249,128333,1,0,0:2:0:0:
339,249,128466,1,2,1:2:0:0:
471,298,128598,6,0,B|528:285|528:285|496:116,1,191.25,10|0,0:2|0:2,0:2:0:0:
427,104,128997,1,10,0:2:0:0:
512,29,129129,6,0,B|476:98|375:66|378:60|381:54|298:31|253:94,1,286.875,2|0,1:2|1:2,0:2:0:0:
106,0,129657,2,0,B|116:94|116:94|111:97|111:97|123:191,1,191.25,10|0,0:2|0:2,0:2:0:0:
178,231,130054,1,2,1:2:0:0:
53,308,130186,5,2,1:2:0:0:
53,308,130318,2,0,P|126:288|189:376,1,191.25,10|0,0:2|1:2,0:2:0:0:
109,367,130714,1,10,0:2:0:0:
268,288,130979,5,2,0:2:0:0:
343,316,131111,1,10,0:2:0:0:
405,266,131243,2,0,L|389:71,1,191.25,2|0,1:2|0:2,0:2:0:0:
442,0,131640,1,2,1:2:0:0:
512,155,131772,2,0,B|350:202|402:86|238:131,1,286.875,10|0,0:2|1:2,0:2:0:0:
102,192,132300,5,2,1:2:0:0:
177,91,132432,1,10,0:2:0:0:
110,37,132565,1,0,0:2:0:0:
110,37,132697,1,2,1:2:0:0:
310,0,132829,6,0,B|317:85|317:85|329:95|329:95|336:189,1,191.25,10|0,0:2|0:2,0:2:0:0:
303,257,133225,1,10,0:2:0:0:
435,384,133358,6,0,P|459:302|376:286,1,191.25,2|0,1:2|0:2,0:2:0:0:
358,364,133754,1,0,1:2:0:0:
477,289,133886,2,0,P|483:245|490:192,1,95.6249999999999,10|0,0:2|0:2,0:2:0:0:
464,125,134151,1,0,0:2:0:0:
464,125,134283,1,2,1:2:0:0:
382,270,134415,5,2,1:2:0:0:
321,201,134547,2,0,P|241:233|134:242,1,191.25,10|0,0:2|1:2,0:2:0:0:
12,337,134943,2,0,P|39:195|68:-40,1,286.875,14|8,0:2|0:2,0:2:0:0:
285,6,135472,6,0,P|359:34|350:178,1,210.375,2|0,1:2|0:2,0:2:0:0:
439,212,135872,1,2,1:2:0:0:
351,276,136006,2,0,P|361:327|371:386,1,105.1875,14|0,0:2|0:2,0:2:0:0:
447,363,136273,1,0,0:2:0:0:
447,363,136407,1,0,1:2:0:0:
347,261,136541,5,2,1:2:0:0:
278,340,136674,2,0,B|187:367|170:284|76:308,1,210.375,10|0,0:2|1:2,0:2:0:0:
243,255,137075,2,0,B|239:209|239:209|240:202|240:202|236:138,1,105.1875,14|0,0:2|0:2,0:2:0:0:
184,86,137342,1,0,0:2:0:0:
184,86,137476,1,10,0:2:0:0:
286,0,137610,5,2,1:2:0:0:
346,69,137742,2,0,P|437:95|507:14,1,210.375,2|0,0:2|1:2,0:2:0:0:
456,117,138140,2,0,P|462:166|482:283,1,105.1875,14|0,0:2|0:2,0:2:0:0:
451,293,138406,1,2,0:2:0:0:
451,293,138539,1,0,1:2:0:0:
512,384,138671,5,2,1:2:0:0:
431,283,138804,2,0,B|320:262|334:342|225:321,1,210.375,10|2,0:2|1:2,0:2:0:0:
141,382,139202,2,0,P|135:329|131:277,1,105.1875,14|0,0:2|0:2,0:2:0:0:
26,103,139468,5,2,0:2:0:0:
42,186,139601,1,10,0:2:0:0:
12,90,139733,2,0,P|92:46|170:123,1,210.375,2|0,1:2|0:2,0:2:0:0:
144,186,140133,1,2,1:2:0:0:
233,240,140267,6,0,L|339:225,1,105.1875,14|0,0:2|0:2,0:2:0:0:
403,125,140534,1,2,0:2:0:0:
473,196,140668,1,0,1:2:0:0:
406,108,140802,1,2,1:2:0:0:
343,214,140935,6,0,B|345:314|440:290|452:390,1,210.375,10|0,0:2|1:2,0:2:0:0:
512,303,141336,2,0,P|405:323|246:361,1,210.375,14|0,0:2|0:2,0:2:0:0:
241,306,141737,1,10,0:2:0:0:
132,338,141871,6,0,B|109:224|191:252|168:138,1,210.375,2|2,1:2|0:2,0:2:0:0:
197,66,142271,1,2,1:2:0:0:
310,174,142405,2,0,P|404:172|435:64,1,210.375,14|0,0:2|0:2,0:2:0:0:
470,6,142806,1,2,1:2:0:0:
356,99,142940,5,2,1:2:0:0:
460,169,143073,2,0,P|474:273|491:379,1,210.375,10|0,0:2|1:2,0:2:0:0:
504,280,143474,5,10,0:2:0:0:
504,280,143606,1,10,0:2:0:0:
307,199,143739,5,10,0:2:0:0:
307,199,143872,1,10,0:2:0:0:
134,335,144005,5,14,0:2:0:0:
173,251,144139,1,2,0:2:0:0:
110,184,144273,1,2,0:2:0:0:
24,208,144407,5,2,1:2:0:0:
111,166,144541,1,14,0:2:0:0:
126,71,144676,1,2,0:2:0:0:
116,56,144810,5,2,0:2:0:0:
232,45,144944,1,2,1:2:0:0:
348,34,145078,1,14,0:2:0:0:
106,41,145213,5,2,0:2:0:0:
222,30,145347,1,2,0:2:0:0:
338,19,145481,1,2,1:2:0:0:
469,111,145615,5,14,0:2:0:0:
454,233,145749,1,2,0:2:0:0:
476,124,145884,5,2,0:2:0:0:
447,220,146018,1,2,1:2:0:0:
308,142,146152,6,0,B|318:193|318:193|312:211|312:211|327:279,1,127.5,14|2,0:2|0:2,0:2:0:0:
340,350,146421,1,2,0:2:0:0:
254,384,146555,5,2,1:2:0:0:
318,280,146689,1,14,0:2:0:0:
425,351,146823,1,2,0:2:0:0:
333,365,146958,2,0,L|139:342,1,191.25,2|0,0:2|0:2,0:2:0:0:
135,334,147226,5,14,0:2:0:0:
36,376,147360,1,2,1:2:0:0:
127,326,147494,1,2,0:2:0:0:
40,241,147629,1,2,1:2:0:0:
124,139,147763,6,0,P|167:131|229:181,1,127.5,14|0,0:2|0:2,0:2:0:0:
468,84,148314,5,14,0:2:0:0:
452,181,148448,1,2,0:2:0:0:
436,278,148583,1,2,0:2:0:0:
505,348,148717,5,2,1:2:0:0:
428,261,148852,1,14,0:2:0:0:
365,358,148986,1,2,0:2:0:0:
379,354,149121,5,2,0:2:0:0:
272,339,149255,1,2,1:2:0:0:
165,324,149390,1,14,0:2:0:0:
393,350,149524,5,2,0:2:0:0:
286,335,149659,1,2,0:2:0:0:
179,320,149793,1,2,1:2:0:0:
240,117,149928,5,14,0:2:0:0:
243,250,150062,1,2,0:2:0:0:
232,129,150197,5,2,0:2:0:0:
251,238,150331,1,2,1:2:0:0:
419,142,150466,6,0,P|358:131|310:170,1,127.5,14|2,0:2|0:2,0:2:0:0:
378,208,150733,1,2,0:2:0:0:
482,104,150867,5,2,1:2:0:0:
512,224,151001,1,14,0:2:0:0:
488,85,151135,1,2,0:2:0:0:
354,112,151269,2,0,P|368:224|378:315,1,191.25,2|0,0:2|0:2,0:2:0:0:
370,312,151537,5,14,0:2:0:0:
406,193,151671,1,2,1:2:0:0:
287,157,151805,1,2,0:2:0:0:
251,276,151939,1,2,1:2:0:0:
329,235,152073,6,0,P|269:250|192:263,1,127.5,14|0,0:2|0:2,0:2:0:0:
11,343,152608,5,14,0:2:0:0:
68,236,152741,1,2,1:2:0:0:
135,361,152874,1,2,0:2:0:0:
0,268,153007,5,2,1:2:0:0:
81,211,153140,1,14,0:2:0:0:
95,112,153274,1,2,1:2:0:0:
80,98,153407,5,2,0:2:0:0:
178,25,153540,1,2,1:2:0:0:
290,74,153673,1,14,0:2:0:0:
65,84,153806,5,2,1:2:0:0:
174,4,153940,1,2,0:2:0:0:
298,58,154073,1,2,1:2:0:0:
177,220,154206,5,14,0:2:0:0:
139,85,154339,1,2,1:2:0:0:
160,210,154473,5,2,0:2:0:0:
156,95,154606,1,2,1:2:0:0:
241,258,154739,6,0,P|282:263|339:206,1,127.38676731794,14|2,0:2|1:2,0:2:0:0:
328,133,155005,1,2,0:2:0:0:
470,206,155139,5,2,1:2:0:0:
399,124,155272,1,14,0:2:0:0:
506,51,155406,1,2,1:2:0:0:
452,194,155541,2,0,P|465:291|482:383,1,190.820224719101,2|0,0:2|0:2,0:2:0:0:
490,371,155811,5,14,0:2:0:0:
435,274,155946,1,2,1:2:0:0:
507,133,156080,1,2,0:2:0:0:
452,36,156215,1,2,1:2:0:0:
380,177,156350,6,0,P|326:183|279:134,1,127.5,14|0,0:2|0:2,0:2:0:0:
123,239,156874,5,14,0:2:0:0:
161,127,157005,1,2,1:2:0:0:
67,61,157136,1,10,0:2:0:0:
29,173,157267,5,2,1:2:0:0:
139,251,157399,1,14,0:2:0:0:
177,139,157530,1,2,1:2:0:0:
161,127,157661,5,10,0:2:0:0:
322,101,157793,1,2,1:2:0:0:
398,166,157924,5,14,0:2:0:0:
388,6,158055,1,2,1:2:0:0:
407,152,158186,5,10,0:2:0:0:
379,20,158318,1,2,1:2:0:0:
315,189,158449,5,14,0:2:0:0:
416,138,158580,1,2,1:2:0:0:
467,239,158712,1,10,0:2:0:0:
366,290,158843,1,2,1:2:0:0:
477,223,158974,6,0,P|472:285|467:357,1,127.5,14|2,0:2|1:2,0:2:0:0:
405,384,159230,1,10,0:2:0:0:
512,296,159358,5,2,1:2:0:0:
392,209,159486,1,14,0:2:0:0:
465,91,159619,1,2,1:2:0:0:
370,212,159753,2,0,P|322:227|260:186,1,127.5,10|0,0:2|1:2,0:2:0:0:
173,272,160021,5,14,0:2:0:0:
156,122,160149,1,2,1:2:0:0:
6,139,160277,1,10,0:2:0:0:
23,289,160405,1,2,1:2:0:0:
89,206,160571,6,0,B|80:122|80:122|83:114|83:114|75:114|75:114|78:106|78:106|71:25,1,188.314144736842,14|0,0:2|0:2,0:2:0:0:
