osu file format v14

[General]
AudioFilename: audio.mp3
AudioLeadIn: 0
PreviewTime: -1
Countdown: 1
SampleSet: Normal
StackLeniency: 0.7
Mode: 0
LetterboxInBreaks: 0
WidescreenStoryboard: 0

[Editor]
DistanceSpacing: 1.3
BeatDivisor: 4
GridSize: 32
TimelineZoom: 1

[Metadata]
Title:Chop Suey
TitleUnicode:Chop Suey
Artist:System of a Down
ArtistUnicode:System of a Down
Creator:Viktor
Version:Insanity!!!!
Source:
Tags:
BeatmapID:1860127
BeatmapSetID:889834

[Difficulty]
HPDrainRate:6
CircleSize:4
OverallDifficulty:8
ApproachRate:9
SliderMultiplier:1.4
SliderTickRate:1

[Events]
//Background and Video events
0,0,"system-of-a-down.jpg",0,0
//Break Periods
//Storyboard Layer 0 (Background)
//Storyboard Layer 1 (Fail)
//Storyboard Layer 2 (Pass)
//Storyboard Layer 3 (Foreground)
//Storyboard Sound Samples

[TimingPoints]
2152.13200610182,468.75,4,1,0,100,1,0

[HitObjects]
51,115,29925,5,0,0:0:0:0:
84,103,30042,1,0,0:0:0:0:
117,94,30159,1,0,0:0:0:0:
151,86,30276,1,0,0:0:0:0:
186,81,30393,1,8,0:0:0:0:
221,79,30510,1,0,0:0:0:0:
256,78,30628,1,0,0:0:0:0:
291,80,30745,1,0,0:0:0:0:
371,132,30863,5,0,0:0:0:0:
338,144,30980,1,0,0:0:0:0:
305,153,31097,1,0,0:0:0:0:
271,161,31214,1,0,0:0:0:0:
236,166,31331,1,8,0:0:0:0:
201,168,31448,1,0,0:0:0:0:
166,169,31566,1,0,0:0:0:0:
131,167,31683,1,0,0:0:0:0:
49,245,31800,5,0,0:0:0:0:
82,257,31917,1,0,0:0:0:0:
115,266,32034,1,0,0:0:0:0:
149,274,32151,1,0,0:0:0:0:
184,279,32268,1,8,0:0:0:0:
219,281,32385,1,0,0:0:0:0:
254,282,32503,1,0,0:0:0:0:
289,280,32620,1,0,0:0:0:0:
358,348,32738,5,0,0:0:0:0:
369,314,32855,1,0,0:0:0:0:
378,281,32972,1,0,0:0:0:0:
386,247,33089,1,0,0:0:0:0:
391,212,33206,1,8,0:0:0:0:
393,177,33323,1,0,0:0:0:0:
394,142,33441,1,0,0:0:0:0:
392,107,33558,1,0,0:0:0:0:
297,87,33675,6,0,L|275:28,7,35,8|0|8|0|8|0|8|0,0:0|0:0|0:0|0:0|0:0|0:0|0:0|0:0,0:0:0:0:
221,103,34613,6,0,L|208:135,7,35,8|0|8|0|8|0|8|0,0:0|0:0|0:0|0:0|0:0|0:0|0:0|0:0,0:0:0:0:
133,76,35550,6,0,L|111:17,7,35,8|0|8|0|8|0|8|0,0:0|0:0|0:0|0:0|0:0|0:0|0:0|0:0,0:0:0:0:
60,109,36488,6,0,L|38:168,7,35,8|0|8|0|8|0|8|0,0:0|0:0|0:0|0:0|0:0|0:0|0:0|0:0,0:0:0:0:
105,208,37542,5,0,0:0:0:0:
101,335,37776,5,8,0:0:0:0:
221,333,38011,5,0,0:0:0:0:
221,209,38245,5,0,0:0:0:0:
217,82,38480,5,0,0:0:0:0:
337,84,38715,5,8,0:0:0:0:
337,208,38949,5,0,0:0:0:0:
307,320,39183,6,0,P|272:306|226:268,1,70
177,333,39652,2,0,P|149:308|120:256,1,70,8|0,0:0|0:0,0:0:0:0:
230,180,40120,6,0,P|195:166|149:128,1,70
100,193,40589,2,0,P|72:168|43:116,1,70,8|0,0:0|0:0,0:0:0:0:
91,47,41058,5,0,0:0:0:0:
196,150,41292,1,0,0:0:0:0:
197,42,41527,5,8,0:0:0:0:
302,145,41761,1,0,0:0:0:0:
277,330,41995,5,0,0:0:0:0:
172,227,42229,1,0,0:0:0:0:
171,335,42464,5,8,0:0:0:0:
66,232,42698,1,0,0:0:0:0:
73,130,42933,6,0,P|71:98|107:43,1,70
164,92,43402,2,0,P|166:60|130:5,1,70,8|0,0:0|0:0,0:0:0:0:
255,126,43870,6,0,P|253:94|289:39,1,70
346,88,44339,2,0,P|348:56|312:1,1,70,8|0,0:0|0:0,0:0:0:0:
163,152,45511,5,0,0:0:0:0:
341,207,45628,1,0,0:0:0:0:
379,147,45745,5,0,0:0:0:0:
102,206,45862,1,0,0:0:0:0:
61,95,45980,5,0,0:0:0:0:
387,273,46097,1,0,0:0:0:0:
126,28,46214,5,0,0:0:0:0:
317,348,46331,1,0,0:0:0:0:
349,232,47269,5,0,0:0:0:0:
171,177,47386,1,0,0:0:0:0:
133,237,47503,5,0,0:0:0:0:
410,178,47620,1,0,0:0:0:0:
451,289,47738,5,0,0:0:0:0:
125,111,47855,1,0,0:0:0:0:
386,356,47972,5,0,0:0:0:0:
195,36,48089,1,0,0:0:0:0:
