osu file format v14

[General]
AudioFilename: audio.mp3
AudioLeadIn: 0
PreviewTime: 135877
Countdown: 0
SampleSet: Soft
StackLeniency: 0.7
Mode: 0
LetterboxInBreaks: 0
WidescreenStoryboard: 0

[Editor]
Bookmarks: 12717,15679,18666,21628,24621,27506,30481,33396,36408,48871,61398,73979,76941,79972,82941,85991,88905,91905,94901,97945,110603,123286,135810,138950,141975,144949,147999,150902,153927,156865,159912,165587,171405,177223,183094,186049,189172,192144,195168,198106,201112,204003,207030,212690,218171
DistanceSpacing: 0.9
BeatDivisor: 4
GridSize: 32
TimelineZoom: 3.523998

[Metadata]
Title:Toxicity
TitleUnicode:Toxicity
Artist:System Of A Down
ArtistUnicode:System Of A Down
Creator:Icekalt
Version:Disorder
Source:
Tags:soad lasse lmt circlechu nao tomori naotoshi hectic h4d0uk3n1 GazPriest progressive metal english Serj Tankian Mirash pw384 rock
BeatmapID:2176046
BeatmapSetID:1041151

[Difficulty]
HPDrainRate:5
CircleSize:4.2
OverallDifficulty:9
ApproachRate:9.6
SliderMultiplier:2
SliderTickRate:1

[Events]
//Background and Video events
0,0,"dark city2.jpg",0,0
//Break Periods
2,101081,110093
//Storyboard Layer 0 (Background)
//Storyboard Layer 1 (Fail)
//Storyboard Layer 2 (Pass)
//Storyboard Layer 3 (Foreground)
//Storyboard Layer 4 (Overlay)
//Storyboard Sound Samples

[TimingPoints]
380,506.329113924052,6,2,34,36,1,0
380,-166.666666666667,6,2,34,36,0,0
886,535.714285714287,6,2,34,36,1,0
1153,-166.666666666667,6,2,34,36,0,0
1957,510.638297872342,6,2,34,36,1,0
1957,-166.666666666667,6,2,34,36,0,0
2978,517.241379310346,6,2,34,36,1,0
3495,-166.666666666667,6,2,34,38,0,0
5046,521.739130434784,6,2,34,40,1,0
5046,-166.666666666667,6,2,34,38,0,0
6089,493.82716049383,6,2,34,40,1,0
6829,-166.666666666667,6,2,34,40,0,0
7076,508.474576271188,6,2,34,42,1,0
7076,-166.666666666667,6,2,34,42,0,0
7830,-166.666666666667,6,2,34,42,0,0
8601,517.241379310345,6,2,34,42,1,0
8601,-166.666666666667,6,2,34,42,0,0
9118,528.634361233482,6,2,34,44,1,0
9646,-166.666666666667,6,2,34,44,0,0
10175,506.329113924052,6,2,34,46,1,0
10428,-166.666666666667,6,2,34,46,0,0
11187,495.867768595042,6,2,34,48,1,0
11187,-166.666666666667,6,2,34,48,0,0
11682,506.329113924052,6,2,34,50,1,0
11935,-166.666666666667,6,2,34,50,0,0
12694,256.410256410257,6,2,34,60,1,0
13719,247.933884297521,6,2,34,60,1,0
14214,237.15415019763,6,2,34,60,1,0
14925,246.913580246914,6,2,34,60,1,0
15665,251.572327044026,6,2,34,60,1,0
15674,-125,6,2,34,60,0,0
15860,-125,6,2,34,5,0,0
15922,-125,6,2,34,60,0,0
16419,255.319148936171,6,2,34,60,1,0
16419,-125,6,2,34,60,0,0
17184,252.631578947369,6,2,34,60,1,0
17184,-125,6,2,35,60,0,0
17436,-125,6,2,34,60,0,0
17941,250.000000000001,6,2,34,60,1,0
17941,-125,6,2,34,60,0,0
18691,240.000000000001,6,2,34,60,1,0
18691,-100,6,2,34,60,0,0
18931,251.046025104603,6,2,34,60,1,0
19433,245.901639344263,6,2,34,60,1,0
20170,242.914979757086,6,2,34,60,1,0
20898,238.095238095238,6,2,34,60,1,0
21612,254.237288135594,6,2,34,60,1,0
21612,-125,6,2,34,60,0,0
22374,258.620689655173,6,2,34,60,1,0
22374,-125,6,2,34,60,0,0
23123,-125,6,2,35,60,0,0
23149,248.96265560166,6,2,34,60,1,0
23149,-125,6,2,34,60,0,0
23895,244.897959183674,6,2,34,60,1,0
23895,-125,6,2,34,60,0,0
24629,236.220472440945,6,2,34,60,1,0
24736,-100,6,2,34,60,0,0
25337,241.935483870968,6,2,34,60,1,0
26062,242.914979757086,6,2,34,60,1,0
26181,-100,6,2,34,60,0,0
26790,238.095238095239,6,2,34,60,1,0
27501,-125,6,2,34,60,0,0
27504,245.901639344263,6,2,34,60,1,0
27504,-125,6,2,34,60,0,0
28241,257.510729613735,6,2,34,60,1,0
28241,-125,6,2,34,60,0,0
29013,242.914979757086,6,2,34,60,1,0
29013,-125,6,2,34,60,0,0
29741,245.901639344263,6,2,34,60,1,0
29741,-125,6,2,34,60,0,0
30478,247.93388429752,6,2,34,60,1,0
30478,-100,6,2,34,60,0,0
31221,245.901639344263,6,2,34,60,1,0
31958,237.154150197628,6,2,34,60,1,0
32669,244.897959183674,6,2,34,60,1,0
33403,253.164556962026,6,2,34,60,1,0
33403,-125,6,2,34,60,0,0
33580,-125,6,2,34,5,0,0
33643,-125,6,2,34,60,0,0
34162,255.319148936171,6,2,34,60,1,0
34162,-125,6,2,34,60,0,0
34927,240.000000000001,6,2,34,36,1,0
35153,-100,6,2,34,65,0,0
35647,253.164556962026,6,2,34,65,1,0
36406,257.510729613735,6,2,34,50,1,0
36406,-200,6,2,35,50,0,0
36662,-200,6,2,34,50,0,0
37178,259.740259740261,6,2,34,50,1,0
37178,-200,6,2,34,50,0,0
37957,256.410256410257,6,2,34,50,1,0
37957,-200,6,2,34,50,0,0
38726,259.74025974026,6,2,34,50,1,0
38726,-200,6,2,34,50,0,0
39505,258.620689655174,6,2,34,50,1,0
39505,-200,6,2,34,50,0,0
40280,262.008733624455,6,2,34,50,1,0
40280,-200,6,2,34,50,0,0
41066,256.410256410257,6,2,34,50,1,0
41835,262.008733624456,6,2,34,50,1,0
41835,-200,6,2,34,50,0,0
42621,264.317180616742,6,2,34,50,1,0
42621,-200,6,2,34,50,0,0
42623,-200,6,2,34,50,0,0
43413,260.869565217393,6,2,34,50,1,0
43413,-200,6,2,34,50,0,0
44978,258.620689655174,6,2,34,50,1,0
44978,-200,6,2,34,50,0,0
45753,260.869565217393,6,2,34,50,1,0
45753,-200,6,2,34,50,0,0
46535,256.410256410258,6,2,34,50,1,0
46535,-200,6,2,34,50,0,0
47304,257.510729613735,6,2,34,50,1,0
47318,-200,6,2,34,50,0,0
48076,263.157894736844,6,2,34,50,1,0
48076,-200,6,2,34,50,0,0
48865,259.740259740261,6,2,34,50,1,0
48865,-200,6,2,34,50,0,0
48866,-200,6,2,34,50,0,0
49644,262.008733624456,6,2,34,50,1,0
49644,-200,6,2,34,50,0,0
50430,258.620689655174,6,2,34,50,1,0
50430,-200,6,2,34,50,0,0
51205,264.317180616742,6,2,34,50,1,0
51205,-200,6,2,34,50,0,0
51997,257.510729613735,6,2,34,50,1,0
51997,-200,6,2,34,50,0,0
52769,263.157894736844,6,2,34,50,1,0
52769,-200,6,2,34,50,0,0
53558,254.237288135595,6,2,34,50,1,0
53558,-200,6,2,34,50,0,0
54320,264.317180616742,6,2,34,50,1,0
54320,-200,6,2,34,50,0,0
55112,258.620689655174,6,2,34,50,1,0
55112,-200,6,2,34,50,0,0
55887,267.857142857145,6,2,34,50,1,0
55887,-200,6,2,34,50,0,0
56690,256.410256410258,6,2,34,50,1,0
56690,-200,6,2,34,50,0,0
57459,265.486725663718,6,2,34,50,1,0
57459,-200,6,2,34,50,0,0
58255,259.740259740261,6,2,34,50,1,0
58255,-200,6,2,34,50,0,0
59034,264.317180616742,6,2,34,50,1,0
59034,-200,6,2,34,50,0,0
59826,256.410256410258,6,2,34,50,1,0
59826,-200,6,2,34,50,0,0
60595,260.869565217393,6,2,34,50,1,0
60595,-200,6,2,34,50,0,0
61377,265.486725663718,6,2,34,55,1,0
61377,-125,6,2,35,55,0,0
61642,-125,6,2,34,55,0,0
62173,269.058295964127,6,2,34,55,1,0
62173,-125,6,2,34,55,0,0
62980,263.157894736843,6,2,34,55,1,0
62980,-125,6,2,34,55,0,0
63769,266.666666666668,6,2,34,55,1,0
63769,-125,6,2,34,55,0,0
64569,258.620689655174,6,2,34,55,1,0
64569,-125,6,2,34,55,0,0
65344,260.869565217392,6,2,34,55,1,0
65344,-125,6,2,34,55,0,0
66126,267.857142857144,6,2,34,55,1,0
66126,-125,6,2,34,55,0,0
66929,262.008733624455,6,2,34,55,1,0
66929,-125,6,2,34,55,0,0
67715,264.317180616741,6,2,34,58,1,0
67715,-125,6,2,34,58,0,0
68507,266.666666666668,6,2,34,58,1,0
68507,-125,6,2,34,58,0,0
69300,-125,6,2,34,60,0,0
70107,262.008733624455,6,2,34,60,1,0
70107,-125,6,2,34,60,0,0
70893,264.317180616741,6,2,34,62,1,0
70893,-125,6,2,34,62,0,0
71685,254.237288135594,6,2,34,62,1,0
71685,-125,6,2,34,62,0,0
72447,258.620689655174,6,2,34,65,1,0
73222,250.000000000001,6,2,34,67,1,0
73222,-100,6,2,34,67,0,0
73972,246.913580246914,6,2,34,75,1,1
74712,248.962655601661,6,2,34,75,1,1
75458,247.933884297522,6,2,34,75,1,1
76201,244.897959183674,6,2,34,75,1,1
76935,256.410256410257,6,2,34,75,1,1
76935,-83.3333333333333,6,2,34,75,0,1
77704,253.164556962026,6,2,34,75,1,1
77704,-83.3333333333333,6,2,34,75,0,1
78463,251.046025104603,6,2,34,75,1,1
78463,-83.3333333333333,6,2,35,75,0,1
78714,-83.3333333333333,6,2,34,75,0,1
79216,253.164556962026,6,2,34,75,1,1
79216,-83.3333333333333,6,2,34,75,0,1
79975,250.000000000001,6,2,34,75,1,1
80584,250,6,2,34,36,1,1
80725,244.897959183675,6,2,34,75,1,1
81214,256.410256410257,6,2,34,75,1,1
81726,233.463035019456,6,2,34,75,1,1
82192,251.046025104604,6,2,34,75,1,1
82936,-83.3333333333333,6,2,34,75,0,1
82945,253.164556962026,6,2,34,75,1,1
82945,-83.3333333333333,6,2,34,75,0,1
83704,257.510729613735,6,2,34,75,1,1
83704,-83.3333333333333,6,2,34,75,0,1
84476,252.100840336135,6,2,34,75,1,1
84476,-83.3333333333333,6,2,35,75,0,1
84715,-83.3333333333333,6,2,34,75,0,1
85232,248.962655601661,6,2,34,75,1,1
85232,-83.3333333333333,6,2,34,75,0,1
85978,247.933884297522,6,2,35,75,1,1
86101,-100,6,2,34,75,0,1
86721,238.095238095239,6,2,34,75,1,1
87435,248.962655601661,6,2,34,75,1,1
87435,-100,6,2,35,75,0,1
87559,-100,6,2,34,75,0,1
88181,235.29411764706,6,2,34,75,1,1
88886,251.046025104604,6,2,34,75,1,1
88886,-83.3333333333333,6,2,34,75,0,1
89639,253.164556962026,6,2,34,75,1,1
89639,-83.3333333333333,6,2,34,75,0,1
90400,-83.3333333333333,6,2,35,75,0,1
90650,-83.3333333333333,6,2,34,75,0,1
91157,251.046025104604,6,2,34,75,1,1
91157,-83.3333333333333,6,2,34,75,0,1
91910,248.962655601661,6,2,34,75,1,1
92656,256.410256410257,6,2,34,75,1,1
93425,242.914979757086,6,2,34,75,1,1
94153,245.901639344263,6,2,34,75,1,1
94153,-100,6,2,34,75,0,1
94890,259.740259740261,6,2,34,75,1,1
94890,-83.3333333333333,6,2,34,75,0,1
95669,253.164556962026,6,2,34,75,1,1
95669,-83.3333333333333,6,2,34,75,0,1
96428,251.046025104603,6,2,34,72,1,1
96428,-83.3333333333333,6,2,35,72,0,1
96671,-83.3333333333333,6,2,34,70,0,1
97052,-83.3333333333333,6,2,34,68,0,1
97181,253.164556962026,6,2,34,68,1,1
97181,-83.3333333333333,6,2,34,68,0,1
97432,-83.3333333333333,6,2,34,66,0,1
97559,-83.3333333333333,6,2,34,64,0,1
97686,-83.3333333333333,6,2,34,62,0,1
97813,-83.3333333333333,6,2,34,60,0,1
97940,262.008733624454,6,2,34,58,1,0
97940,-166.112956810631,6,2,35,58,0,0
98726,259.74025974026,6,2,34,50,1,0
99505,263.157894736843,6,2,34,50,1,0
100294,260.869565217392,6,2,34,50,1,0
101076,264.317180616741,6,2,34,50,1,0
101868,267.857142857144,6,2,34,50,1,0
102671,262.008733624455,6,2,34,50,1,0
103457,267.857142857144,6,2,34,50,1,0
104260,260.869565217392,6,2,34,50,1,0
105042,270.270270270271,6,2,34,50,1,0
105852,259.74025974026,6,2,34,50,1,0
106631,266.666666666667,6,2,34,50,1,0
107431,262.008733624455,6,2,34,50,1,0
108217,264.317180616741,6,2,34,50,1,0
109009,269.058295964126,6,2,34,50,1,0
109816,262.008733624455,6,2,34,50,1,0
110602,265.486725663717,6,2,34,50,1,0
110602,-200,6,2,35,50,0,0
110867,-200,6,2,34,50,0,0
111398,264.317180616741,6,2,34,50,1,0
111398,-200,6,2,34,50,0,0
112190,266.666666666668,6,2,34,50,1,0
112190,-200,6,2,34,50,0,0
113790,262.58205689278,6,2,34,50,1,0
113790,-200,6,2,34,50,0,0
115365,265.486725663718,6,2,34,50,1,0
115365,-200,6,2,34,50,0,0
116161,263.157894736843,6,2,34,50,1,0
116161,-200,6,2,34,50,0,0
116950,267.857142857144,6,2,34,50,1,0
116950,-200,6,2,34,50,0,0
117753,266.075388026609,6,2,34,50,1,0
117753,-200,6,2,34,50,0,0
119349,260.869565217392,6,2,34,50,1,0
119349,-200,6,2,34,50,0,0
120124,-200,6,2,34,50,0,0
120914,263.736263736265,6,2,34,50,1,0
120914,-200,6,2,34,50,0,0
122496,262.008733624455,6,2,34,50,1,0
122496,-200,6,2,34,50,0,0
123281,-125,6,2,35,55,0,0
123282,269.058295964127,6,2,34,55,1,0
123282,-125,6,2,35,55,0,0
123551,-125,6,2,34,55,0,0
124089,266.075388026609,6,2,34,55,1,0
124089,-125,6,2,34,55,0,0
125685,263.157894736843,6,2,34,55,1,0
125685,-125,6,2,34,55,0,0
126474,266.666666666668,6,2,34,55,1,0
126474,-125,6,2,34,55,0,0
128074,266.370699223087,6,2,34,55,1,0
128074,-125,6,2,34,55,0,0
129672,260.869565217392,6,2,34,58,1,0
129672,-125,6,2,34,58,0,0
130454,270.270270270272,6,2,34,58,1,0
130454,-125,6,2,34,58,0,0
131264,264.317180616741,6,2,34,60,1,0
131264,-125,6,2,34,60,0,0
132056,266.666666666668,6,2,34,60,1,0
132056,-125,6,2,34,60,0,0
132856,258.620689655174,6,2,34,60,1,0
133631,262.008733624455,6,2,34,62,1,0
134417,252.100840336136,6,2,34,65,1,0
135173,254.237288135594,6,2,34,67,1,0
135173,-100,6,2,34,67,0,0
135935,258.620689655174,6,2,34,75,1,1
136710,256.410256410258,6,2,34,75,1,1
137479,240.000000000001,6,2,34,75,1,1
138199,246.913580246915,6,2,34,75,1,1
138939,255.319148936172,6,2,34,75,1,1
138939,-83.3333333333333,6,2,34,75,0,1
139704,257.510729613735,6,2,34,75,1,1
139704,-83.3333333333333,6,2,34,75,0,1
140476,250.000000000001,6,2,34,75,1,1
140476,-83.3333333333333,6,2,35,75,0,1
140726,-83.3333333333333,6,2,34,75,0,1
141226,252.100840336136,6,2,34,75,1,1
141226,-83.3333333333333,6,2,34,75,0,1
141982,240.963855421688,6,2,34,75,1,1
142704,251.046025104604,6,2,34,75,1,1
143457,246.913580246915,6,2,34,75,1,1
144938,262.008733624456,6,2,34,75,1,1
144938,-83.3333333333333,6,2,34,75,0,1
145724,253.164556962027,6,2,34,75,1,1
145724,-83.3333333333333,6,2,34,75,0,1
146483,259.740259740261,6,2,34,75,1,1
146483,-83.3333333333333,6,2,35,75,0,1
146742,-83.3333333333333,6,2,34,75,0,1
147262,244.897959183675,6,2,34,75,1,1
147262,-83.3333333333333,6,2,34,75,0,1
147996,240.963855421688,6,2,35,75,1,1
148116,-100,6,2,34,75,0,1
148718,239.043824701197,6,2,34,75,1,1
149435,247.933884297522,6,2,34,75,1,1
149435,-100,6,2,35,75,0,1
149558,-100,6,2,34,75,0,1
150178,243.902439024392,6,2,34,75,1,1
150909,247.933884297522,6,2,34,75,1,1
150909,-83.3333333333333,6,2,34,75,0,1
151652,257.510729613735,6,2,34,75,1,1
151652,-83.3333333333333,6,2,34,75,0,1
152424,253.164556962027,6,2,34,75,1,1
152424,-83.3333333333333,6,2,35,75,0,1
152677,-83.3333333333333,6,2,34,75,0,1
153183,247.933884297522,6,2,34,75,1,1
153183,-83.3333333333333,6,2,34,75,0,1
153926,244.897959183675,6,2,34,75,1,1
153926,-83.3333333333333,6,2,34,75,0,1
154660,246.913580246915,6,2,34,75,1,1
155400,243.902439024392,6,2,34,75,1,1
155881,-100,6,2,34,75,0,1
156860,-83.3333333333333,6,2,34,75,0,1
156862,260.869565217393,6,2,34,75,1,1
156862,-83.3333333333333,6,2,34,75,0,1
157644,254.237288135595,6,2,34,75,1,1
157644,-83.3333333333333,6,2,34,75,0,1
158406,255.319148936172,6,2,34,72,1,1
158406,-83.3333333333333,6,2,35,72,0,1
158788,-83.3333333333333,6,2,34,70,0,1
159171,247.933884297522,6,2,34,68,1,1
159171,-83.3333333333333,6,2,34,68,0,1
159914,250.000000000001,6,2,34,50,1,0
160664,235.29411764706,6,2,34,50,1,0
160664,-120.481927710843,6,2,34,50,0,0
161369,232.558139534885,6,2,34,55,1,0
162066,240.000000000001,6,2,34,55,1,0
162066,-120.481927710843,6,2,34,50,0,0
162786,229.007633587787,6,2,34,60,1,0
163473,230.769230769232,6,2,34,60,1,0
163473,-120.481927710843,6,2,34,50,0,0
164165,242.914979757086,6,2,34,60,1,0
164893,235.29411764706,6,2,34,60,1,0
164893,-120.481927710843,6,2,34,50,0,0
165598,238.095238095239,6,2,34,80,1,1
166312,240.963855421688,6,2,34,80,1,1
167034,239.043824701196,6,2,34,80,1,1
167751,245.901639344263,6,2,34,80,1,1
168488,240.963855421688,6,2,34,80,1,1
169210,244.897959183674,6,2,34,80,1,1
169944,240.963855421688,6,2,34,80,1,1
171389,243.902439024391,6,2,34,74,1,1
171389,-71.4285714285714,6,2,34,74,0,1
171632,-50,6,2,34,74,0,1
172120,246.913580246914,6,2,34,74,1,1
172490,-75.187969924812,6,2,35,74,0,1
172860,240.963855421687,6,2,34,74,1,1
172860,-50,6,2,34,74,0,1
173582,242.914979757086,6,2,34,74,1,1
173945,-71.4285714285714,6,2,35,74,0,1
174310,-47.6190476190476,6,2,34,74,0,1
175039,245.901639344263,6,2,34,74,1,1
175407,-66.6666666666667,6,2,35,74,0,1
175776,242.914979757086,6,2,34,74,1,1
175776,-45.4545454545455,6,2,34,74,0,1
176869,-62.5,6,2,35,74,0,1
177175,-62.5,6,2,35,5,0,1
177233,228.136882129278,6,2,34,80,1,1
177233,-43.4782608695652,6,2,34,80,0,1
177917,252.100840336135,6,2,34,80,1,1
178673,247.933884297521,6,2,34,80,1,1
178673,-90.9090909090909,4,2,34,80,0,1
179416,245.901639344263,6,2,34,80,1,1
179416,-90.9090909090909,4,2,34,80,0,1
180153,241.935483870968,6,2,34,80,1,1
180878,245.901639344263,6,2,34,80,1,1
180878,-90.9090909090909,4,2,34,80,0,1
181615,243.902439024391,6,2,34,80,1,1
182346,247.933884297521,6,2,34,80,1,1
183089,251.046025104603,6,2,35,65,1,0
183089,-111.111111111111,4,2,35,65,0,0
183465,-71.4285714285714,4,2,34,65,0,0
183842,257.510729613734,6,2,34,65,1,0
183842,-111.111111111111,4,2,34,65,0,0
184614,240.963855421687,6,2,34,65,1,0
185345,235.294117647059,6,2,34,65,1,0
186050,264.317180616741,6,2,34,75,1,1
186050,-71.4285714285714,6,2,34,75,0,1
186842,258.620689655173,6,2,34,75,1,1
186842,-71.4285714285714,6,2,34,75,0,1
187617,260.869565217392,6,2,34,75,1,1
187617,-71.4285714285714,6,2,35,75,0,1
187877,-71.4285714285714,6,2,34,75,0,1
188399,254.237288135594,6,2,34,75,1,1
188399,-71.4285714285714,6,2,34,75,0,1
189161,251.046025104603,6,2,34,75,1,1
189161,-83.3333333333333,6,2,34,75,0,1
189914,253.164556962026,6,2,34,75,1,1
189914,-83.3333333333333,6,2,34,75,0,1
190673,241.935483870968,6,2,34,75,1,1
191156,-100,6,2,34,75,0,1
191398,247.933884297521,6,2,34,75,1,1
192141,253.699788583511,6,2,34,75,1,1
192141,-71.4285714285714,6,2,34,75,0,1
193663,252.100840336135,6,2,34,75,1,1
193663,-71.4285714285714,6,2,35,75,0,1
193915,-71.4285714285714,6,2,34,75,0,1
194419,250,6,2,34,75,1,1
194419,-71.4285714285714,6,2,34,75,0,1
195169,244.897959183674,6,2,34,75,1,1
195291,-100,6,2,34,75,0,1
195903,240.963855421687,6,2,34,75,1,1
196625,253.164556962026,6,2,34,75,1,1
196625,-100,6,2,35,75,0,1
196754,-100,6,2,34,75,0,1
197384,240,6,2,34,75,1,1
198104,251.046025104603,6,2,34,75,1,1
198104,-71.4285714285714,6,2,34,75,0,1
198857,254.237288135594,6,2,34,75,1,1
198857,-71.4285714285714,6,2,34,75,0,1
199619,250,6,2,34,75,1,1
199619,-71.4285714285714,6,2,35,75,0,1
199869,-71.4285714285714,6,2,34,75,0,1
200369,244.897959183674,6,2,34,75,1,1
200369,-71.4285714285714,6,2,34,75,0,1
201103,245.901639344263,6,2,34,75,1,1
201103,-83.3333333333333,6,2,34,75,0,1
201840,240.000000000001,6,2,34,75,1,1
201840,-83.3333333333333,6,2,34,75,0,1
202560,245.901639344263,6,2,34,75,1,1
203297,238.095238095239,6,2,34,75,1,1
204011,256.410256410257,6,2,34,75,1,1
204011,-66.6666666666667,6,2,34,75,0,1
204780,252.631578947369,6,2,34,75,1,1
204780,-66.6666666666667,6,2,34,75,0,1
205529,-66.6666666666667,6,2,35,75,0,1
205910,-66.6666666666667,6,2,34,75,0,1
206164,-66.6666666666667,6,2,34,75,0,1
206295,244.897959183674,6,2,34,75,1,1
206295,-66.6666666666667,6,2,34,75,0,1
206780,-66.6666666666667,6,2,34,75,0,1
207025,-55.5555555555556,4,3,34,75,0,1
207029,236.220472440945,6,2,34,78,1,1
207029,-83.3333333333333,6,2,34,78,0,1
208446,239.043824701196,6,2,34,78,1,1
208446,-83.3333333333333,4,3,34,78,0,1
209163,237.154150197629,6,2,34,78,1,1
209163,-83.3333333333333,4,3,34,78,0,1
209874,235.294117647059,6,2,34,80,1,1
209874,-83.3333333333333,4,3,34,80,0,1
210579,238.095238095239,6,2,34,80,1,1
211293,234.375,6,2,34,82,1,1
211293,-83.3333333333333,4,3,34,82,0,1
211996,224.719101123596,6,2,34,82,1,1
212670,253.164556962026,6,2,34,72,1,0
212670,-95.2380952380952,4,2,34,72,0,0
213429,243.902439024391,6,2,34,72,1,0
213429,-95.2380952380952,4,2,34,72,0,0
214160,246.913580246914,6,2,34,72,1,0
214160,-95.2380952380952,4,2,35,72,0,0
214394,-62.5,4,2,34,72,0,0
214900,240.963855421687,6,2,34,72,1,0
214900,-95.2380952380952,4,2,34,72,0,0
215622,244.897959183674,6,2,34,72,1,0
215622,-95.2380952380952,4,2,34,72,0,0
217091,243.902439024391,6,2,34,72,1,0
217091,-95.2380952380952,4,2,35,72,0,0
217334,-62.5,4,2,34,72,0,0
217822,246.913580246914,6,2,34,74,1,0
217822,-62.5,4,2,34,74,0,0
218192,-62.5,4,2,35,76,0,0

[Colours]
Combo1 : 83,83,255
Combo2 : 0,128,255
Combo3 : 128,128,255

[HitObjects]
18,158,380,5,2,0:0:0:0:
69,102,633,2,0,P|61:64|62:30,1,59.9999981689454,2|0,0:0|0:0,0:0:0:0:
112,159,1153,2,0,P|91:126|80:93,1,59.9999981689454,2|0,0:0|0:0,0:0:0:0:
171,197,1689,2,0,P|140:173|119:146,1,59.9999981689454,2|0,0:0|0:0,0:0:0:0:
240,213,2212,2,0,P|203:200|174:183,1,59.9999981689454,2|0,0:0|0:0,0:0:0:0:
310,204,2722,2,0,P|271:205|237:198,1,59.9999981689454,2|0,0:0|0:0,0:0:0:0:
353,131,3236,1,0,0:0:0:0:
273,291,3495,5,2,0:0:0:0:
170,244,3753,2,0,P|182:280|201:309,1,59.9999981689454,2|0,0:0|0:0,0:0:0:0:
178,173,4271,2,0,P|177:211|184:245,1,59.9999981689454,2|0,0:0|0:0,0:0:0:0:
209,110,4788,2,0,P|195:146|190:180,1,59.9999981689454,2|0,0:0|0:0,0:0:0:0:
259,61,5306,2,0,P|233:90|217:120,1,59.9999981689454,2|0,0:0|0:0,0:0:0:0:
324,33,5828,2,0,P|290:51|265:74,1,59.9999981689454,2|0,0:0|0:0,0:0:0:0:
393,92,6335,1,2,0:0:0:0:
267,205,6582,5,2,0:0:0:0:
346,263,6829,2,0,P|359:226|362:190,1,59.9999981689454,2|0,0:0|0:0,0:0:0:0:
296,312,7330,2,0,P|321:282|332:258,1,59.9999981689454,2|0,0:0|0:0,0:0:0:0:
191,340,7838,5,2,0:0:0:0:
102,236,8092,2,0,P|103:266|115:294,1,59.9999981689454,2|0,0:0|0:0,0:0:0:0:
162,163,8601,1,2,0:0:0:0:
250,266,8859,2,0,P|248:236|237:208,1,59.9999981689454,2|0,0:0|0:0,0:0:0:0:
191,340,9382,1,0,0:0:0:0:
342,284,9646,5,2,0:0:0:0:
434,322,9910,2,0,P|411:351|376:360,1,59.9999981689454,2|0,0:0|0:0,0:0:0:0:
320,207,10428,2,0,P|303:264|306:326,1,119.999996337891,2|0,0:0|0:0,0:0:0:0:
208,145,11187,2,0,P|250:186|277:240,1,119.999996337891,2|0,0:0|0:0,0:0:0:0:
322,11,11935,2,0,P|305:68|308:141,1,119.999996337891,2|0,0:0|0:0,0:0:0:0:
57,310,12694,6,0,B|31:269|31:269|45:218,1,100,14|0,0:1|0:0,0:0:0:0:
133,155,12950,1,8,0:0:0:0:
5,114,13078,1,8,0:1:0:0:
304,128,13335,1,8,0:1:0:0:
344,248,13463,2,0,B|305:277|305:277|245:271,1,100,8|0,0:0|0:0,0:0:0:0:
384,364,13719,2,0,B|304:350|304:350|325:204,1,200,8|8,0:1|0:0,0:0:0:0:
37,59,14214,5,8,0:0:0:0:
237,85,14332,1,8,0:3:0:0:
130,119,14451,1,8,0:0:0:0:
142,25,14569,1,4,0:3:0:0:
331,2,14688,2,0,B|306:46|306:46|322:100,1,100,8|8,0:3|0:3,0:0:0:0:
389,166,14925,5,0,1:0:0:0:
391,172,14986,1,0,1:0:0:0:
393,178,15048,1,0,1:0:0:0:
396,184,15110,1,0,1:0:0:0:
398,191,15171,1,0,1:0:0:0:
337,258,15295,1,8,0:3:0:0:
403,309,15418,1,4,0:3:0:0:
356,363,15542,1,8,0:3:0:0:
245,180,15665,5,14,0:1:0:0:
134,218,15790,2,0,P|195:196|226:287,1,160,0|8,0:0|0:0,0:0:0:0:
166,383,16168,2,0,L|154:293,1,80,2|8,0:0|0:1,0:0:0:0:
66,120,16419,2,0,B|27:168|27:168|47:294,1,160,10|2,0:0|0:0,0:0:0:0:
86,338,16801,1,8,0:0:0:0:
235,267,16929,2,0,L|242:160,1,80,10|0,0:1|0:0,0:0:0:0:
383,365,17184,5,14,0:1:0:0:
449,316,17310,2,0,P|414:277|389:294,1,80,2|0,0:0|0:0,0:0:0:0:
306,363,17562,2,0,P|313:281|352:200,1,160,8|10,0:0|0:1,0:0:0:0:
318,0,17941,2,0,B|294:31|294:31|294:72,1,80,10|0,0:1|0:0,0:0:0:0:
142,67,18191,2,0,B|142:108|142:108|172:149,1,80,10|0,0:1|0:0,0:0:0:0:
218,304,18441,2,0,B|218:263|218:263|188:222,1,80,10|0,0:2|0:0,0:0:0:0:
416,210,18691,6,0,L|290:184,1,100,14|0,0:1|0:0,0:0:0:0:
296,336,18931,1,8,0:0:0:0:
386,307,19056,1,8,0:1:0:0:
194,231,19307,1,8,0:1:0:0:
104,260,19433,2,0,B|52:253|52:253|15:209,1,100,8|0,0:0|0:0,0:0:0:0:
33,39,19678,2,0,B|113:53|113:53|92:199,1,200,8|8,0:1|0:0,0:0:0:0:
313,28,20170,5,8,0:1:0:0:
336,186,20291,1,8,0:0:0:0:
245,114,20412,1,8,0:0:0:0:
403,91,20534,1,8,0:1:0:0:
329,287,20655,2,0,B|315:235|315:235|331:171,1,100,8|4,0:3|0:3,0:0:0:0:
408,339,20898,1,8,0:0:0:0:
448,216,21017,1,8,0:0:0:0:
328,370,21136,1,8,0:3:0:0:
318,367,21255,1,8,0:3:0:0:
308,364,21374,1,4,0:3:0:0:
298,361,21493,1,4,0:3:0:0:
208,267,21612,5,14,0:1:0:0:
145,350,21739,2,0,P|168:262|173:158,1,160,2|8,0:0|0:0,0:0:0:0:
232,56,22120,2,0,P|239:95|241:135,1,80,2|8,0:0|0:1,0:0:0:0:
42,200,22374,2,0,B|32:138|32:138|141:118,1,160,10|2,0:0|0:0,0:0:0:0:
173,193,22761,1,8,0:0:0:0:
145,350,22891,2,0,L|128:271,1,80,10|0,0:1|0:0,0:0:0:0:
294,167,23149,5,14,0:1:0:0:
362,210,23273,2,0,P|327:249|297:226,1,80,2|0,0:0|0:0,0:0:0:0:
230,109,23522,2,0,P|202:184|211:277,1,160,8|8,0:0|0:1,0:0:0:0:
53,332,23895,2,0,B|32:295|32:295|41:232,1,80,10|0,0:0|0:0,0:0:0:0:
162,356,24139,2,0,B|197:331|197:331|216:271,1,80,10|0,0:1|0:0,0:0:0:0:
102,119,24384,2,0,B|66:143|66:143|47:203,1,80,10|0,0:0|0:0,0:0:0:0:
208,296,24629,5,14,2:1:0:0:
275,254,24747,1,8,2:2:0:0:
354,245,24865,1,8,2:3:0:0:
430,270,24983,1,8,2:3:0:0:
495,224,25101,1,4,2:3:0:0:
486,144,25219,1,4,2:3:0:0:
417,103,25337,5,8,2:2:0:0:
233,166,25457,1,8,2:2:0:0:
180,92,25578,5,8,2:3:0:0:
186,73,25699,1,8,2:3:0:0:
167,65,25820,1,4,2:3:0:0:
161,84,25941,1,4,2:3:0:0:
107,155,26062,5,14,2:1:0:0:
92,233,26183,1,8,2:0:0:0:
126,304,26304,1,8,2:3:0:0:
198,338,26426,1,8,2:3:0:0:
276,324,26547,1,4,2:3:0:0:
329,264,26669,1,4,2:3:0:0:
401,230,26790,5,8,2:2:0:0:
224,263,26909,1,8,2:2:0:0:
296,177,27028,5,8,2:3:0:0:
303,158,27147,1,8,2:3:0:0:
301,138,27266,1,4,2:3:0:0:
289,121,27385,1,4,2:3:0:0:
191,178,27504,5,14,0:1:0:0:
77,107,27626,2,0,P|149:146|153:254,1,160,2|8,0:0|0:0,0:0:0:0:
59,342,27995,2,0,P|60:302|67:262,1,80,2|0,0:0|0:0,0:0:0:0:
229,384,28241,2,0,B|289:368|289:368|265:260,1,160,14|2,0:0|0:0,0:0:0:0:
285,189,28627,1,8,0:0:0:0:
378,338,28756,2,0,L|395:259,1,80,10|0,0:1|0:0,0:0:0:0:
369,69,29013,6,0,P|336:57|311:95,1,80,14|0,0:1|0:0,0:0:0:0:
285,189,29255,1,2,0:0:0:0:
215,51,29377,2,0,P|187:126|196:219,1,160,8|8,0:0|0:1,0:0:0:0:
19,200,29741,2,0,B|33:160|33:160|87:126,1,80,14|0,0:0|0:0,0:0:0:0:
14,316,29986,2,0,B|26:357|26:357|76:394,1,80,10|0,0:1|0:0,0:0:0:0:
157,136,30232,2,0,B|184:161|184:161|191:204,1,80,10|0,0:0|0:0,0:0:0:0:
366,347,30478,6,0,L|380:220,1,100,14|0,0:1|0:0,0:0:0:0:
297,106,30725,1,8,0:0:0:0:
272,212,30849,1,8,0:1:0:0:
55,379,31097,1,8,0:1:0:0:
33,269,31221,2,0,B|75:240|75:240|131:257,1,100,8|0,0:0|0:0,0:0:0:0:
157,136,31466,2,0,B|104:73|104:73|-11:164,1,200,8|8,0:1|0:0,0:0:0:0:
385,336,31958,5,8,0:0:0:0:
413,129,32076,1,8,0:1:0:0:
341,266,32195,1,8,0:1:0:0:
456,200,32313,1,8,0:0:0:0:
275,65,32432,2,0,B|250:109|250:109|286:188,1,100,8|8,0:3|0:3,0:0:0:0:
140,372,32669,5,8,0:0:0:0:
250,241,32791,1,8,0:0:0:0:
86,225,32913,1,8,0:3:0:0:
162,280,33036,1,8,0:3:0:0:
169,201,33158,1,4,0:3:0:0:
225,142,33281,1,4,0:3:0:0:
404,80,33403,6,0,P|370:86|339:137,1,80,14|0,0:1|0:0,0:0:0:0:
435,260,33656,2,0,P|440:196|398:55,1,160,2|0,0:0|0:0,0:0:0:0:
362,196,34035,1,8,0:1:0:0:
268,68,34162,2,0,P|284:32|328:6,1,80,10|0,0:0|0:0,0:0:0:0:
267,189,34417,1,2,0:0:0:0:
133,119,34544,1,8,0:0:0:0:
67,171,34672,2,0,P|99:154|161:154,1,80,8|0,0:1|0:0,0:0:0:0:
256,293,34927,6,0,P|299:310|361:311,1,100,14|0,0:1|0:0,0:0:0:0:
415,164,35167,1,8,0:0:0:0:
496,266,35287,2,0,L|516:387,1,100,8|2,0:0|0:0,0:0:0:0:
358,232,35527,1,8,0:1:0:0:
326,154,35647,2,0,B|311:105|311:105|332:41,1,100,14|0,0:2|0:0,0:0:0:0:
230,217,35900,1,8,0:0:0:0:
178,135,36026,1,8,0:1:0:0:
121,197,36153,1,8,0:3:0:0:
58,152,36279,1,4,0:3:0:0:
72,132,36406,6,0,P|91:90|95:29,2,100,14|0|0,0:1|0:0|0:0,0:0:0:0:
114,271,37049,1,8,0:1:0:0:
93,291,37178,2,0,P|99:241|121:197,1,100,10|0,0:0|0:0,0:0:0:0:
188,362,37567,1,8,0:0:0:0:
198,348,37697,2,0,P|199:324|193:299,1,50,8|0,0:1|0:0,0:0:0:0:
367,189,37957,6,0,P|328:175|240:173,2,100,10|0|0,0:1|0:0|0:0,0:0:0:0:
465,118,38598,1,8,0:1:0:0:
478,92,38726,2,0,P|425:65|397:88,1,100,10|0,0:0|0:0,0:0:0:0:
444,208,39115,1,8,0:0:0:0:
367,189,39245,2,0,P|341:199|322:224,1,50,8|0,0:1|0:0,0:0:0:0:
285,367,39505,6,0,L|266:254,2,100,10|0|0,0:1|0:0|0:0,0:0:0:0:
350,237,40151,1,8,0:1:0:0:
363,210,40280,2,0,P|320:172|278:193,1,100,10|0,0:0|0:0,0:0:0:0:
171,100,40673,1,8,0:0:0:0:
237,48,40804,2,0,P|272:55|292:70,1,50,8|0,0:1|0:0,0:0:0:0:
198,179,41066,5,10,0:1:0:0:
78,2,41322,1,0,0:0:0:0:
25,204,41578,1,2,0:0:0:0:
42,193,41707,1,8,0:1:0:0:
53,176,41835,2,0,P|49:141|12:78,1,100,10|0,0:0|0:0,0:0:0:0:
164,76,42228,2,0,P|150:105|130:122,1,50,2|8,0:0|0:1,0:0:0:0:
136,203,42490,1,8,0:0:0:0:
247,306,42621,6,0,P|244:254|222:191,2,100,10|0|0,0:1|0:0|0:0,0:0:0:0:
298,163,43281,1,8,0:1:0:0:
317,142,43413,2,0,P|362:160|346:220,1,100,10|0,0:0|0:0,0:0:0:0:
257,306,43804,1,8,0:0:0:0:
342,352,43934,2,0,P|335:322|334:296,1,50,8|0,0:1|0:0,0:0:0:0:
432,130,44195,6,0,P|430:66|412:11,2,100,10|0|0,0:1|0:0|0:0,0:0:0:0:
285,179,44847,1,8,0:1:0:0:
255,164,44978,2,0,P|297:138|345:122,1,100,10|0,0:0|0:0,0:0:0:0:
479,133,45365,1,8,0:0:0:0:
433,230,45495,2,0,P|461:225|479:211,1,50,8|0,0:1|0:0,0:0:0:0:
374,340,45753,6,0,P|340:303|292:292,2,100,10|0|0,0:1|0:0|0:0,0:0:0:0:
216,377,46405,1,8,0:1:0:0:
191,362,46535,2,0,P|173:326|170:238,1,100,10|0,0:0|0:0,0:0:0:0:
217,142,46919,1,8,0:0:0:0:
275,197,47047,2,0,P|282:221|282:255,1,50,8|0,0:1|0:0,0:0:0:0:
117,164,47304,5,10,0:1:0:0:
271,10,47561,1,0,0:0:0:0:
360,211,47819,1,2,0:0:0:0:
512,0,48076,2,0,P|478:58|475:111,1,100,10|0,0:0|0:0,0:0:0:0:
369,118,48470,2,0,P|359:80|363:58,1,50,2|8,0:0|0:1,0:0:0:0:
440,173,48733,1,8,0:0:0:0:
433,261,48865,6,0,P|384:295|301:300,2,100,10|0|0,0:1|0:0|0:0,0:0:0:0:
264,267,49514,1,8,0:1:0:0:
248,231,49644,2,0,P|248:191|274:121,1,100,10|0,0:0|0:0,0:0:0:0:
170,17,50037,2,0,P|158:59|213:89,1,100,2|0,0:0|0:0,0:0:0:0:
290,40,50430,6,0,P|360:25|430:76,1,150,10|0,0:1|0:0,0:0:0:0:
381,188,50947,1,2,0:0:0:0:
386,203,51076,1,2,0:0:0:0:
460,190,51205,2,0,P|413:162|354:180,1,100,8|0,0:0|0:0,0:0:0:0:
249,217,51601,1,8,0:1:0:0:
306,266,51733,2,0,P|281:268|258:258,1,50,8|0,0:0|0:0,0:0:0:0:
115,88,51997,6,0,P|160:117|159:181,1,100,10|0,0:1|0:0,0:0:0:0:
90,269,52383,2,0,P|120:257|141:239,1,50,2|0,0:0|0:1,0:0:0:0:
183,367,52640,1,8,0:1:0:0:
201,364,52769,2,0,P|218:323|218:276,2,50,10|0|0,0:0|0:0|0:0,0:0:0:0:
313,246,53163,1,8,0:0:0:0:
365,303,53295,2,0,P|358:278|347:256,1,50,8|0,0:1|0:0,0:0:0:0:
297,352,53558,1,10,0:1:0:0:
40,195,53812,5,2,0:0:0:0:
113,150,53939,1,2,0:0:0:0:
188,183,54066,2,0,P|213:154|217:103,1,50,10|8,0:1|0:1,0:0:0:0:
268,20,54320,2,0,P|278:72|317:130,2,100,10|8|8,0:0|0:1|0:1,0:0:0:0:
216,143,54980,1,8,0:0:0:0:
310,212,55112,6,0,P|366:192|424:191,2,100,10|0|0,0:1|0:0|0:0,0:0:0:0:
248,332,55758,1,8,0:1:0:0:
230,322,55887,2,0,P|216:285|214:235,2,50,10|0|0,0:0|0:0|0:0,0:0:0:0:
98,374,56288,1,8,0:0:0:0:
94,300,56422,2,0,P|83:322|79:347,1,50,10|0,0:1|0:0,0:0:0:0:
18,193,56690,6,0,P|33:125|115:68,1,150,10|0,0:1|0:0,0:0:0:0:
125,203,57202,1,2,0:0:0:0:
127,218,57331,1,10,0:1:0:0:
200,182,57459,2,0,P|192:155|156:137,2,50,10|0|0,0:0|0:0|0:0,0:0:0:0:
270,275,57857,1,10,0:0:0:0:
315,212,57989,2,0,P|311:241|296:270,1,50,10|0,0:1|0:0,0:0:0:0:
268,125,58255,5,10,0:1:0:0:
323,62,58384,2,0,P|383:52|436:118,1,150,2|0,0:0|0:0,0:0:0:0:
414,244,58904,1,8,0:1:0:0:
385,279,59034,2,0,P|358:216|360:164,1,100,10|0,0:0|0:0,0:0:0:0:
293,315,59430,1,8,0:0:0:0:
221,298,59562,2,0,P|254:285|294:288,1,50,8|0,0:1|0:0,0:0:0:0:
95,200,59826,6,0,P|128:242|131:356,1,150,10|0,0:1|0:0,0:0:0:0:
12,357,60338,2,0,P|33:337|66:329,1,50,2|8,0:0|0:1,0:0:0:0:
165,242,60595,2,0,P|212:157|187:96,1,150,10|0,0:0|0:0,0:0:0:0:
300,163,61116,1,8,0:1:0:0:
308,149,61247,1,8,0:0:0:0:
366,258,61377,6,0,P|306:198|270:243,1,160,14|0,0:1|0:0,0:0:0:0:
89,312,61775,2,0,P|67:278|66:239,1,80,2|0,0:0|0:0,0:0:0:0:
199,298,62040,1,8,0:1:0:0:
154,370,62173,2,0,P|115:364|79:333,2,80,8|0|2,0:0|0:0|0:2,0:0:0:0:
270,238,62576,1,8,0:0:0:0:
318,306,62711,2,0,P|312:266|297:229,1,80,8|0,0:1|0:0,0:0:0:0:
428,97,62980,6,0,P|398:153|394:257,1,160,10|0,0:1|0:0,0:0:0:0:
451,314,63374,1,2,0:0:0:0:
489,227,63506,1,2,0:0:0:0:
382,353,63637,1,8,0:1:0:0:
297,229,63769,2,0,P|237:167|148:186,1,160,8|2,0:0|0:0,0:0:0:0:
121,243,64169,1,8,0:0:0:0:
66,154,64302,2,0,P|89:192|96:233,1,80,8|0,0:1|0:0,0:0:0:0:
219,377,64569,6,0,P|247:327|251:297,1,80,10|0,0:1|0:0,0:0:0:0:
385,153,64827,1,2,0:0:0:0:
438,237,64956,2,0,B|420:275|420:275|376:291,1,80,2|0,0:0|0:0,0:0:0:0:
294,91,65215,1,8,0:1:0:0:
241,175,65344,2,0,B|259:213|259:213|303:229,2,80,8|0|2,0:0|0:0|0:0,0:0:0:0:
377,69,65735,1,8,0:0:0:0:
319,13,65865,2,0,P|360:37|423:37,1,80,8|0,0:1|0:0,0:0:0:0:
193,53,66126,6,0,P|123:68|57:148,1,160,10|0,0:1|0:0,0:0:0:0:
160,287,66527,2,0,B|170:245|170:245|155:204,1,80,2|0,0:0|0:0,0:0:0:0:
72,348,66795,1,8,0:1:0:0:
0,277,66929,2,0,P|42:258|101:256,1,80,10|0,0:0|0:0,0:0:0:0:
225,360,67191,2,0,L|248:275,1,80
307,210,67453,1,8,0:1:0:0:
344,310,67584,1,8,0:0:0:0:
460,204,67715,6,0,P|465:172|438:109,1,80,10|0,0:1|0:0,0:0:0:0:
279,60,67979,1,0,0:0:0:0:
375,33,68111,1,2,0:0:0:0:
160,289,68375,1,8,0:1:0:0:
62,247,68507,2,0,P|53:207|57:144,2,80,10|0|2,0:0|0:0|0:0,0:0:0:0:
193,201,68907,1,8,0:0:0:0:
129,133,69040,2,0,P|151:151|211:163,1,80,8|0,0:1|0:0,0:0:0:0:
393,210,69307,6,0,P|302:220|258:273,1,160,10|0,0:1|0:0,0:0:0:0:
281,356,69707,1,2,0:0:0:0:
188,324,69840,1,2,0:0:0:0:
349,301,69973,1,8,0:1:0:0:
248,158,70107,2,0,P|154:175|155:239,1,160,10|8,0:0|0:1,0:0:0:0:
70,132,70500,1,8,0:0:0:0:
115,16,70631,2,0,P|135:44|137:101,1,80,10|0,0:1|0:0,0:0:0:0:
251,252,70893,6,0,P|280:209|281:170,1,80,10|0,0:1|0:0,0:0:0:0:
397,80,71157,1,2,0:0:0:0:
458,166,71289,2,0,B|440:204|440:204|394:222,1,80,2|0,0:0|0:0,0:0:0:0:
307,37,71553,1,8,0:1:0:0:
246,123,71685,2,0,B|264:161|264:161|310:179,1,80,10|0,0:0|0:0,0:0:0:0:
173,344,71939,2,0,P|184:302|206:271,1,80,10|8,0:1|0:0,0:0:0:0:
39,186,72193,2,0,P|75:151|122:139,1,80,10|0,0:1|0:0,0:0:0:0:
327,90,72447,6,0,P|235:84|166:-13,1,200,10|0,0:1|0:0,0:0:0:0:
37,171,72834,1,8,0:0:0:0:
101,249,72964,2,0,P|137:227|173:172,1,100,10|8,0:1|0:1,0:0:0:0:
286,371,73222,2,0,L|264:230,1,100,10|0,0:0|0:0,0:0:0:0:
480,103,73472,2,0,L|451:198,1,100,10|0,0:1|0:0,0:0:0:0:
224,102,73722,2,0,L|208:3,1,100,10|0,0:0|0:0,0:0:0:0:
56,344,73972,6,0,B|97:311|97:311|86:255,1,100,14|0,0:1|0:0,0:0:0:0:
149,159,74218,1,8,0:0:0:0:
24,185,74342,1,8,0:1:0:0:
381,384,74589,1,8,0:1:0:0:
254,361,74712,2,0,P|241:301|246:238,1,100,10|0,0:0|0:0,0:0:0:0:
484,261,74960,2,0,B|356:217|356:217|322:296,1,200,8|8,0:1|0:0,0:0:0:0:
381,384,75334,5,0,0:0:0:0:
269,181,75458,5,10,0:1:0:0:
252,44,75581,1,8,0:0:0:0:
153,127,75705,1,8,0:0:0:0:
367,93,75829,1,8,0:1:0:0:
173,218,75953,2,0,B|127:241|127:241|66:226,1,100,2|0,0:0|0:0,0:0:0:0:
196,362,76201,5,8,0:0:0:0:
265,274,76323,1,8,0:0:0:0:
325,342,76445,1,8,0:3:0:0:
383,284,76568,1,8,0:3:0:0:
431,331,76690,1,4,0:3:0:0:
466,299,76813,1,4,0:3:0:0:
305,200,76935,6,0,B|273:111|273:111|435:41,1,239.999992675781,14|2,0:1|0:0,0:0:0:0:
223,20,77319,2,0,B|169:47|169:47|154:105,1,119.999996337891,2|2,0:0|0:0,0:0:0:0:
110,266,77576,1,8,0:1:0:0:
195,323,77704,2,0,P|218:260|211:183,2,119.999996337891,14|0|2,0:0|0:0|0:0,0:0:0:0:
132,184,78083,1,8,0:0:0:0:
264,115,78210,2,0,B|321:126|321:126|356:195,1,119.999996337891,10|0,0:1|0:0,0:0:0:0:
340,372,78463,6,0,P|367:238|446:145,1,239.999992675781,14|2,0:1|0:0,0:0:0:0:
276,266,78839,1,8,0:0:0:0:
195,202,78965,2,0,P|179:147|190:76,1,119.999996337891,10|0,0:1|0:0,0:0:0:0:
39,260,79216,2,0,B|64:313|64:313|128:324,1,119.999996337891,14|0,0:0|0:0,0:0:0:0:
29,137,79469,2,0,B|41:79|41:79|101:54,1,119.999996337891,8|0,0:1|0:0,0:0:0:0:
324,157,79722,2,0,B|327:97|327:97|276:57,1,119.999996337891,10|0,0:0|0:0,0:0:0:0:
298,312,79975,6,0,L|407:333,1,100,14|0,0:1|0:0,0:0:0:0:
243,234,80225,1,8,0:0:0:0:
209,380,80350,1,8,0:1:0:0:
304,59,80584,1,8,0:1:0:0:
406,201,80725,2,0,B|383:170|383:170|313:154,1,100,10|0,0:0|0:0,0:0:0:0:
160,278,80969,2,0,B|183:247|183:247|253:231,1,100,8|0,0:1|0:0,0:0:0:0:
410,358,81214,2,0,B|387:327|387:327|317:311,1,100,8|0,0:0|0:0,0:0:0:0:
218,145,81470,5,10,0:1:0:0:
43,197,81598,1,8,0:0:0:0:
176,40,81726,1,8,0:0:0:0:
351,92,81842,1,8,0:1:0:0:
132,209,81959,2,0,B|122:158|122:158|148:97,1,100,2|0,0:0|0:0,0:0:0:0:
193,382,82192,5,8,0:0:0:0:
221,262,82317,1,8,0:0:0:0:
91,377,82443,1,8,0:3:0:0:
67,276,82568,1,8,0:3:0:0:
187,361,82694,1,4,0:3:0:0:
205,279,82819,1,4,0:3:0:0:
124,140,82945,6,0,B|135:79|135:79|324:27,1,239.999992675781,14|2,0:1|0:0,0:0:0:0:
447,176,83324,2,0,B|406:40|406:40|337:132,1,239.999992675781,2|8,0:0|0:1,0:0:0:0:
412,287,83704,2,0,P|350:287|291:246,1,119.999996337891,14|0,0:0|0:0,0:0:0:0:
119,334,83961,1,2,0:0:0:0:
246,384,84090,1,8,0:0:0:0:
175,236,84219,2,0,P|155:290|156:372,1,119.999996337891,10|0,0:1|0:0,0:0:0:0:
53,144,84476,6,0,B|94:64|94:64|252:79,1,239.999992675781,14|2,0:1|0:0,0:0:0:0:
296,194,84854,1,8,0:0:0:0:
379,22,84980,1,10,0:1:0:0:
428,134,85106,1,0,0:0:0:0:
288,316,85232,2,0,P|334:285|425:300,1,119.999996337891,14|0,0:0|0:0,0:0:0:0:
154,237,85480,2,0,P|147:287|183:371,1,119.999996337891,8|0,0:1|0:0,0:0:0:0:
262,159,85729,2,0,P|321:166|371:198,1,119.999996337891,10|0,0:0|0:0,0:0:0:0:
60,111,85978,5,14,2:1:0:0:
101,31,86101,1,8,2:2:0:0:
190,20,86225,1,8,2:3:0:0:
271,60,86349,1,8,2:3:0:0:
356,88,86473,1,4,2:3:0:0:
443,64,86597,1,4,2:3:0:0:
511,6,86721,5,8,2:2:0:0:
371,198,86840,1,8,2:2:0:0:
485,259,86959,5,8,2:3:0:0:
500,306,87078,1,8,2:3:0:0:
452,321,87197,1,4,2:3:0:0:
437,274,87316,1,4,2:3:0:0:
371,198,87435,5,14,2:1:0:0:
287,164,87559,1,8,2:0:0:0:
206,204,87683,1,8,2:3:0:0:
117,215,87808,1,8,2:3:0:0:
37,172,87932,1,4,2:3:0:0:
18,84,88057,1,4,2:3:0:0:
71,10,88181,5,8,2:2:0:0:
24,274,88298,1,8,2:2:0:0:
107,356,88416,5,8,2:3:0:0:
132,313,88533,1,8,2:3:0:0:
134,262,88651,1,4,2:3:0:0:
117,215,88769,1,4,2:3:0:0:
205,111,88886,6,0,B|269:110|302:157|302:157|287:304,1,239.999992675781,14|0,0:1|0:0,0:0:0:0:
345,360,89262,1,8,0:2:0:0:
489,259,89388,2,0,B|431:243|431:243|372:291,1,119.999996337891,2|8,0:0|0:1,0:0:0:0:
166,366,89639,2,2,B|142:298|142:298|163:249,1,119.999996337891,14|0,0:0|0:0,0:0:0:0:
236,151,89892,1,10,0:1:0:0:
75,219,90018,1,8,0:0:0:0:
130,35,90145,2,0,B|154:103|154:103|133:152,1,119.999996337891,10|0,0:1|0:0,0:0:0:0:
335,298,90398,6,0,B|368:209|368:209|204:137,1,239.999992675781,14|0,0:1|0:0,0:0:0:0:
170,218,90778,1,8,0:0:0:0:
50,122,90904,2,0,B|62:63|62:63|116:26,1,119.999996337891,10|0,0:1|0:0,0:0:0:0:
178,236,91157,2,0,L|169:359,1,119.999996337891,14|0,0:0|0:0,0:0:0:0:
323,107,91408,2,0,L|332:230,1,119.999996337891,10|0,0:1|0:0,0:0:0:0:
482,362,91659,2,0,L|490:242,1,119.999996337891,10|0,0:0|0:0,0:0:0:0:
248,39,91910,6,0,B|229:164|229:164|141:221,1,200,14|8,0:1|0:0,0:0:0:0:
52,129,92283,1,8,0:1:0:0:
266,357,92532,1,8,0:1:0:0:
372,283,92656,2,0,B|380:235|380:235|357:178,1,100,10|0,0:0|0:0,0:0:0:0:
476,137,92912,2,0,L|439:333,1,200,8|8,0:1|0:0,0:0:0:0:
36,99,93425,5,10,0:2:0:0:
76,274,93546,1,8,0:1:0:0:
251,234,93667,1,8,0:0:0:0:
211,59,93789,1,8,0:0:0:0:
282,145,93910,2,0,B|319:164|319:164|393:153,1,100,8|8,0:3|0:3,0:0:0:0:
466,100,94153,5,0,1:0:0:0:
465,92,94214,1,0,1:0:0:0:
465,84,94275,1,0,1:0:0:0:
464,76,94337,1,0,1:0:0:0:
464,68,94398,1,0,1:0:0:0:
446,180,94521,1,8,0:0:0:0:
431,274,94644,1,8,0:3:0:0:
460,203,94767,1,4,0:3:0:0:
285,310,94890,6,0,B|230:245|230:245|248:69,1,239.999992675781,14|0,0:1|0:0,0:0:0:0:
183,27,95279,1,2,0:0:0:0:
56,180,95409,2,0,B|75:147|75:147|158:129,1,119.999996337891,2|8,0:0|0:1,0:0:0:0:
341,211,95669,2,0,P|251:208|182:332,1,239.999992675781,14|0,0:0|0:0,0:0:0:0:
56,180,96048,2,0,B|138:221|138:221|163:379,1,239.999992675781,8|0,0:0|0:0,0:0:0:0:
235,123,96428,6,0,B|222:49|222:49|162:15,1,119.999996337891,14|0,0:1|0:0,0:0:0:0:
258,210,96679,1,8,0:0:0:0:
407,54,96804,1,8,0:0:0:0:
307,63,96930,1,2,0:0:0:0:
394,36,97055,1,8,0:1:0:0:
431,222,97181,2,0,B|438:154|438:154|483:101,1,119.999996337891,8|0,0:0|0:0,0:0:0:0:
451,314,97434,5,8,0:0:0:0:
261,364,97560,1,8,0:0:0:0:
330,230,97687,1,8,0:3:0:0:
357,318,97813,1,8,0:3:0:0:
128,247,97940,6,0,B|105:113|-18:153|-110:50|-58:-43|75:-110|173:23|168:141|-69:150|63:350,1,719.999978027344,14|2,0:1|0:3,0:0:0:0:
29,57,110602,6,0,P|76:41|128:40,2,100,14|0|0,0:1|0:0|0:0,0:0:0:0:
153,139,111265,1,8,0:1:0:0:
179,122,111398,2,0,P|201:81|207:1,1,100,10|0,0:0|0:0,0:0:0:0:
284,140,111794,1,8,0:0:0:0:
344,80,111926,2,0,P|324:101|319:127,1,50,10|0,0:1|0:0,0:0:0:0:
392,287,112190,6,0,P|351:255|281:241,2,100,10|0|0,0:1|0:0|0:1,0:0:0:0:
234,301,112856,1,8,0:1:0:0:
203,289,112990,2,0,P|148:321|112:361,1,100,10|0,0:0|0:0,0:0:0:0:
58,253,113390,1,8,0:0:0:0:
95,184,113523,2,0,P|105:223|103:243,1,50,10|0,0:1|0:0,0:0:0:0:
210,65,113790,6,0,P|229:41|261:26,1,50,10|0,0:1|0:0,0:0:0:0:
348,124,114052,2,0,P|284:116|235:140,1,100,2|0,0:0|0:0,0:0:0:0:
228,253,114446,1,8,0:1:0:0:
199,290,114577,2,0,P|182:239|188:167,1,100,10|0,0:0|0:0,0:0:0:0:
149,72,114971,1,8,0:0:0:0:
102,139,115102,2,0,P|112:111|117:77,1,50,10|0,0:1|0:0,0:0:0:0:
286,17,115365,6,0,P|378:32|434:80,1,150,10|0,0:1|0:0,0:0:0:0:
377,146,115895,1,2,0:0:0:0:
439,197,116028,1,8,0:1:0:0:
414,234,116161,2,0,P|357:236|290:280,1,100,8|0,0:0|0:0,0:0:0:0:
235,329,116555,1,10,0:0:0:0:
195,262,116687,2,0,P|207:289|210:314,1,50,10|0,0:1|0:0,0:0:0:0:
79,200,116950,6,0,P|79:158|96:116,1,50,10|0,0:1|0:0,0:0:0:0:
119,20,117217,2,0,P|127:76|221:122,1,150,2|8,0:0|0:1,0:0:0:0:
334,65,117753,2,0,P|364:63|392:133,1,100,10|0,0:0|0:0,0:0:0:0:
347,205,118152,1,8,0:0:0:0:
269,193,118285,2,0,P|289:179|314:178,1,50,10|0,0:1|0:0,0:0:0:0:
204,334,118551,6,0,P|190:260|167:214,2,100,10|0|0,0:1|0:0|0:0,0:0:0:0:
88,231,119216,1,8,0:1:0:0:
77,190,119349,2,0,P|91:116|114:70,1,100,10|0,0:0|0:0,0:0:0:0:
215,156,119740,1,8,0:0:0:0:
247,86,119870,2,0,P|251:116|247:149,1,50,10|0,0:1|0:0,0:0:0:0:
348,286,120131,6,0,P|356:245|344:207,1,50,10|0,0:1|0:0,0:0:0:0:
441,131,120392,2,0,P|377:157|335:138,1,100,2|0,0:0|0:0,0:0:0:0:
217,228,120783,1,8,0:1:0:0:
180,209,120914,2,0,P|165:146|169:89,1,100,10|0,0:0|0:0,0:0:0:0:
256,14,121309,1,8,0:0:0:0:
296,82,121441,2,0,P|304:60|299:31,1,50,10|0,0:1|0:0,0:0:0:0:
311,215,121705,6,0,P|357:170|456:183,1,150,10|0,0:1|0:0,0:0:0:0:
393,307,122232,2,0,P|385:277|384:252,1,50,2|8,0:0|0:1,0:0:0:0:
180,359,122496,2,0,P|248:331|337:368,1,150,10|8,0:0|0:0,0:0:0:0:
261,234,123020,2,0,P|257:266|249:293,1,50,10|8,0:1|0:0,0:0:0:0:
119,231,123282,6,0,B|90:148|90:148|104:41,1,160,14|0,0:1|0:0,0:0:0:0:
270,78,123685,2,0,P|235:78|190:95,1,80,2|0,0:0|0:0,0:0:0:0:
277,212,123954,1,8,0:1:0:0:
344,173,124089,2,0,P|354:137|326:9,1,160,8|2,0:0|0:2,0:0:0:0:
457,111,124488,1,8,0:0:0:0:
494,187,124621,2,0,B|452:196|452:196|405:178,1,80,8|0,0:1|0:0,0:0:0:0:
291,369,124887,6,0,P|286:247|263:177,1,160,10|0,0:1|0:0,0:0:0:0:
217,128,125286,1,2,0:0:0:0:
181,217,125419,1,2,0:0:0:0:
126,138,125552,1,8,0:1:0:0:
164,49,125685,2,0,P|214:26|303:18,1,80,8|0,0:0|0:0,0:0:0:0:
331,105,125948,1,2,0:0:0:0:
363,22,126079,1,8,0:0:0:0:
415,147,126211,2,0,B|375:126|375:126|323:129,1,80,8|0,0:1|0:0,0:0:0:0:
236,290,126474,6,0,P|165:302|85:227,1,160,10|0,0:1|0:0,0:0:0:0:
69,144,126874,1,2,0:0:0:0:
185,205,127007,2,0,P|204:172|216:128,1,80,0|8,0:0|0:1,0:0:0:0:
415,40,127274,2,0,B|373:26|373:26|321:39,1,80,8|0,0:0|0:0,0:0:0:0:
305,111,127540,1,2,0:0:0:0:
388,161,127674,1,8,0:0:0:0:
306,228,127807,2,0,P|332:205|391:200,1,80,8|0,0:1|0:0,0:0:0:0:
197,354,128074,6,0,P|176:320|167:260,1,80,10|0,0:1|0:0,0:0:0:0:
100,106,128340,1,2,0:0:0:0:
34,196,128473,2,0,B|32:238|32:238|60:271,1,80,2|0,0:0|0:0,0:0:0:0:
224,115,128739,1,10,0:1:0:0:
120,72,128873,2,0,B|78:80|78:80|53:115,1,80,10|0,0:0|0:0,0:0:0:0:
191,291,129139,2,0,L|199:202,1,80
333,357,129405,2,0,L|325:268,1,80,8|0,0:1|0:0,0:0:0:0:
414,125,129672,6,0,P|324:117|292:189,1,160,10|0,0:1|0:0,0:0:0:0:
213,25,130063,2,0,B|195:52|195:52|205:115,1,80,2|0,0:0|0:0,0:0:0:0:
131,245,130324,1,8,0:1:0:0:
47,197,130454,2,0,B|29:170|29:170|39:107,1,80,10|0,0:0|0:0,0:0:0:0:
273,241,130724,2,0,B|254:203|254:203|201:184,1,80,2|8,0:0|0:0,0:0:0:0:
403,138,130994,2,0,B|401:96|401:96|363:55,1,80,8|0,0:1|0:0,0:0:0:0:
349,307,131264,6,0,P|365:275|492:218,1,160,10|0,0:1|0:0,0:0:0:0:
375,68,131660,1,2,0:0:0:0:
321,133,131792,2,0,B|304:169|304:169|320:230,1,80,2|8,0:0|0:1,0:0:0:0:
128,320,132056,2,0,P|173:275|292:296,1,160,10|8,0:0|0:1,0:0:0:0:
125,211,132456,1,8,0:0:0:0:
145,122,132589,2,0,B|186:133|186:133|211:173,1,80,10|0,0:1|0:0,0:0:0:0:
349,8,132856,6,0,P|332:46|323:114,1,100,10|0,0:1|0:0,0:0:0:0:
406,226,133114,1,0,0:0:0:0:
498,175,133243,2,0,B|449:168|449:168|401:208,1,100,2|0,0:0|0:0,0:0:0:0:
330,334,133502,1,8,0:1:0:0:
238,283,133631,2,0,B|287:276|287:276|335:316,1,100,10|0,0:0|0:0,0:0:0:0:
105,132,133893,2,0,L|93:248,1,100,10|8,0:1|0:0,0:0:0:0:
337,22,134155,2,0,L|349:138,1,100,10|0,0:1|0:0,0:0:0:0:
174,328,134417,6,0,P|237:232|333:216,1,200,10|0,0:1|0:0,0:0:0:0:
197,50,134795,1,8,0:0:0:0:
105,132,134921,2,0,B|127:160|127:160|211:169,1,100,10|8,0:1|0:1,0:0:0:0:
423,32,135173,2,0,L|442:141,1,100,10|0,0:0|0:0,0:0:0:0:
290,364,135427,2,0,L|303:249,1,100,10|0,0:1|0:0,0:0:0:0:
87,33,135681,2,0,L|106:142,1,100,10|0,0:0|0:0,0:0:0:0:
467,355,135935,6,0,B|484:295|484:295|454:226,1,100,14|0,0:1|0:0,0:0:0:0:
378,343,136193,1,8,0:0:0:0:
324,164,136322,1,8,0:1:0:0:
37,384,136581,1,8,0:1:0:0:
91,205,136710,2,0,B|119:247|119:247|123:318,1,100,10|0,0:0|0:0,0:0:0:0:
234,121,136966,2,0,L|212:337,1,200,8|8,0:1|0:0,0:0:0:0:
292,380,137351,1,0,0:0:0:0:
418,246,137479,5,10,0:1:0:0:
357,69,137599,1,8,0:0:0:0:
318,231,137719,1,8,0:1:0:0:
473,106,137839,1,8,0:3:0:0:
292,3,137959,2,0,B|256:28|256:28|242:94,1,100,4|4,0:3|0:3,0:0:0:0:
92,207,138199,5,8,0:0:0:0:
228,185,138322,1,8,0:0:0:0:
185,319,138445,1,8,0:3:0:0:
105,230,138569,1,8,0:3:0:0:
83,329,138692,1,4,0:3:0:0:
117,252,138816,1,4,0:3:0:0:
20,148,138939,6,0,B|51:66|51:66|229:104,1,239.999992675781,14|0,0:1|0:0,0:0:0:0:
252,187,139321,1,10,0:2:0:0:
399,37,139449,2,0,P|335:38|279:73,1,119.999996337891,2|8,0:0|0:1,0:0:0:0:
405,284,139704,2,0,B|366:127|366:127|322:238,1,239.999992675781,14|0,0:0|0:0,0:0:0:0:
292,336,140090,1,8,0:0:0:0:
154,240,140219,2,0,B|198:272|198:272|213:354,1,119.999996337891,10|0,0:1|0:0,0:0:0:0:
24,183,140476,6,0,P|41:116|196:64,1,239.999992675781,14|0,0:1|0:0,0:0:0:0:
237,148,140851,1,10,0:0:0:0:
391,17,140976,2,0,B|334:29|334:29|311:96,1,119.999996337891,2|8,0:0|0:1,0:0:0:0:
425,296,141226,2,0,L|446:167,1,119.999996337891,14|0,0:0|0:0,0:0:0:0:
203,266,141478,2,0,L|225:400,1,119.999996337891,8|0,0:1|0:0,0:0:0:0:
9,178,141730,2,0,L|30:49,1,119.999996337891,10|0,0:2|0:0,0:0:0:0:
300,346,141982,6,0,B|317:319|317:319|296:214,1,100,14|0,0:1|0:0,0:0:0:0:
202,174,142222,1,8,0:0:0:0:
142,323,142343,1,8,0:1:0:0:
332,30,142584,1,8,0:1:0:0:
466,88,142704,2,0,B|462:149|462:149|435:178,1,100,10|0,0:0|0:0,0:0:0:0:
303,252,142955,2,0,B|311:213|311:213|285:158,1,100,10|0,0:1|0:0,0:0:0:0:
225,381,143206,2,0,B|212:343|212:343|162:308,1,100,10|0,0:0|0:0,0:0:0:0:
44,160,143457,5,10,0:1:0:0:
142,25,143580,1,8,0:0:0:0:
89,277,143703,1,8,0:0:0:0:
187,142,143827,1,8,0:3:0:0:
360,50,143950,6,0,B|385:70|385:70|404:168,1,100,8|8,0:3|0:3,0:0:0:0:
334,354,144197,2,0,B|309:334|309:334|290:236,1,100,8|8,0:0|0:0,0:0:0:0:
298,143,144444,1,8,0:3:0:0:
370,226,144568,1,8,0:3:0:0:
425,294,144691,1,4,0:3:0:0:
387,228,144815,1,4,0:3:0:0:
218,296,144938,6,0,B|184:264|184:264|190:157,1,119.999996337891,14|0,0:1|0:0,0:0:0:0:
258,54,145200,2,0,P|221:150|106:88,1,239.999992675781,2|2,0:0|0:0,0:0:0:0:
68,244,145593,1,8,0:1:0:0:
249,376,145724,2,0,B|330:364|330:364|311:180,1,239.999992675781,14|2,0:0|0:0,0:0:0:0:
435,95,146103,1,8,0:0:0:0:
486,193,146230,2,0,B|460:246|460:246|374:257,1,119.999996337891,10|0,0:1|0:0,0:0:0:0:
181,123,146483,6,0,P|90:151|104:314,1,239.999992675781,14|2,0:1|0:0,0:0:0:0:
232,358,146872,2,0,B|249:301|249:301|229:235,1,119.999996337891,8|2,0:0|0:0,0:0:0:0:
156,300,147132,1,8,0:1:0:0:
48,136,147262,2,0,L|34:9,1,119.999996337891,14|0,0:0|0:0,0:0:0:0:
271,173,147506,2,0,L|257:292,1,119.999996337891,8|0,0:1|0:0,0:0:0:0:
466,136,147751,2,0,L|452:9,1,119.999996337891,10|0,0:2|0:0,0:0:0:0:
428,274,147996,5,14,2:1:0:0:
345,307,148116,1,8,2:2:0:0:
256,292,148236,1,8,2:3:0:0:
205,217,148357,1,8,2:3:0:0:
206,126,148477,1,4,2:3:0:0:
140,64,148598,1,4,2:3:0:0:
51,81,148718,5,8,2:2:0:0:
306,151,148837,1,8,2:2:0:0:
386,76,148957,5,8,2:3:0:0:
373,38,149076,1,8,2:3:0:0:
334,25,149196,1,4,2:3:0:0:
300,47,149315,1,4,2:3:0:0:
400,174,149435,5,14,2:1:0:0:
396,263,149558,1,8,2:0:0:0:
323,316,149682,1,8,2:3:0:0:
233,308,149806,1,8,2:3:0:0:
178,236,149930,1,4,2:3:0:0:
95,200,150054,1,4,2:3:0:0:
7,222,150178,5,8,2:2:0:0:
283,241,150299,1,8,2:2:0:0:
353,159,150421,5,8,2:3:0:0:
337,122,150543,1,8,2:3:0:0:
338,82,150665,1,4,2:3:0:0:
363,50,150787,1,4,2:3:0:0:
433,204,150909,6,0,P|338:125|229:148,1,239.999992675781,14|2,0:1|0:0,0:0:0:0:
70,80,151280,1,8,0:2:0:0:
153,21,151404,2,0,B|169:55|169:55|140:145,1,119.999996337891,2|8,0:0|0:1,0:0:0:0:
0,317,151652,2,0,B|27:235|27:235|203:288,1,239.999992675781,14|10,0:0|0:1,0:0:0:0:
217,370,152038,1,8,0:0:0:0:
336,202,152167,2,0,B|302:220|302:220|291:324,1,119.999996337891,10|0,0:1|0:0,0:0:0:0:
463,208,152424,6,0,P|433:84|325:8,1,239.999992675781,14|2,0:1|0:0,0:0:0:0:
307,105,152803,1,8,0:0:0:0:
157,86,152930,2,0,B|189:33|189:33|274:14,1,119.999996337891,2|8,0:0|0:1,0:0:0:0:
61,205,153183,2,0,L|31:53,1,119.999996337891,14|0,0:0|0:0,0:0:0:0:
249,258,153430,2,0,L|247:392,1,119.999996337891,8|0,0:1|0:0,0:0:0:0:
428,200,153678,2,0,L|458:48,1,119.999996337891,10|0,0:0|0:0,0:0:0:0:
94,35,153926,6,0,B|132:58|132:58|236:32,1,119.999996337891,14|0,0:1|0:0,0:0:0:0:
305,113,154170,1,8,0:0:0:0:
144,165,154293,1,8,0:1:0:0:
463,347,154538,1,8,0:1:0:0:
302,295,154660,2,0,B|266:301|266:301|206:355,1,100,10|0,0:0|0:0,0:0:0:0:
135,248,154906,2,0,B|266:226|266:226|324:267,1,200,8|8,0:1|0:0,0:0:0:0:
315,33,155400,5,10,0:2:0:0:
373,167,155521,1,8,0:3:0:0:
448,55,155643,1,10,0:1:0:0:
240,147,155765,1,8,0:0:0:0:
157,82,155887,1,0,1:0:0:0:
158,72,155948,1,0,1:0:0:0:
158,63,156009,1,0,1:0:0:0:
160,53,156070,1,0,1:0:0:0:
160,43,156131,1,8,1:2:0:0:
228,135,156253,5,8,0:2:0:0:
126,196,156375,1,8,0:0:0:0:
233,235,156497,1,8,0:3:0:0:
167,292,156619,1,8,0:3:0:0:
209,226,156741,1,4,0:3:0:0:
326,372,156862,6,0,B|369:336|369:336|391:142,1,239.999992675781,14|2,0:1|0:0,0:0:0:0:
452,85,157253,1,0,0:0:0:0:
338,13,157383,2,0,B|303:58|303:58|309:121,1,119.999996337891,2|8,0:0|0:1,0:0:0:0:
213,346,157644,2,0,B|247:300|247:300|241:237,1,119.999996337891,10|0,0:0|0:0,0:0:0:0:
175,134,157898,1,2,0:0:0:0:
98,284,158025,1,8,0:0:0:0:
17,127,158152,2,0,B|-2:182|-2:182|9:248,1,119.999996337891,10|0,0:1|0:0,0:0:0:0:
95,45,158406,6,0,B|169:9|169:9|345:103,1,239.999992675781,14|0,0:1|0:0,0:0:0:0:
326,192,158788,1,8,0:0:0:0:
463,80,158916,2,0,B|431:26|431:26|348:9,1,119.999996337891,2|8,0:0|0:1,0:0:0:0:
430,217,159171,2,0,L|456:357,1,119.999996337891,10|0,0:0|0:0,0:0:0:0:
257,138,159418,2,0,L|257:17,1,119.999996337891,8|0,0:1|0:0,0:0:0:0:
82,217,159666,2,0,L|56:357,1,119.999996337891,8|0,0:0|0:0,0:0:0:0:
142,384,159914,5,14,0:1:0:0:
369,63,160164,1,2,0:0:0:0:
373,88,160289,1,2,0:0:0:0:
378,114,160414,1,0,0:0:0:0:
383,140,160539,1,2,0:0:0:0:
451,207,160664,2,0,P|476:188|466:131,1,83.0000012031555,2|0,0:0|0:0,0:0:0:0:
372,216,160899,1,2,0:0:0:0:
367,229,161016,2,0,P|329:223|308:178,1,83.0000012031555,2|0,0:0|0:0,0:0:0:0:
41,344,161369,5,2,0:0:0:0:
68,325,161485,1,0,0:0:0:0:
100,319,161601,1,2,0:0:0:0:
132,326,161717,1,2,0:0:0:0:
162,339,161834,1,0,0:0:0:0:
195,335,161950,1,2,0:0:0:0:
238,253,162066,2,0,P|219:225|181:247,1,83.0000012031555,2|0,0:0|0:0,0:0:0:0:
291,346,162306,1,2,0:0:0:0:
281,333,162426,2,0,P|302:306|337:341,1,83.0000012031555,2|0,0:0|0:0,0:0:0:0:
453,183,162786,5,2,0:0:0:0:
441,144,162900,1,0,0:0:0:0:
412,115,163015,1,2,0:0:0:0:
373,105,163129,1,2,0:0:0:0:
333,110,163244,1,0,0:0:0:0:
296,94,163358,1,2,0:0:0:0:
310,0,163473,2,0,P|346:-1|343:39,1,83.0000012031555,2|0,0:0|0:0,0:0:0:0:
224,39,163703,1,2,0:0:0:0:
210,29,163819,2,0,P|176:40|193:79,1,83.0000012031555,2|0,0:0|0:0,0:0:0:0:
463,255,164165,5,2,0:0:0:0:
419,239,164286,1,0,0:0:0:0:
372,242,164407,1,2,0:0:0:0:
333,267,164529,1,2,0:0:0:0:
286,263,164650,1,0,0:0:0:0:
260,224,164772,1,2,0:0:0:0:
326,155,164893,2,0,P|332:130|288:105,1,83.0000012031555,2|0,0:0|0:0,0:0:0:0:
407,212,165128,1,2,0:0:0:0:
425,205,165245,2,0,P|444:188|420:141,1,83.0000012031555,2|0,0:0|0:0,0:0:0:0:
109,262,165598,6,0,B|99:233|99:233|111:163,1,100,14|0,0:1|0:0,0:0:0:0:
196,34,165836,1,8,0:1:0:0:
212,144,165955,1,8,0:2:0:0:
230,254,166074,1,8,0:1:0:0:
209,124,166193,1,8,0:1:0:0:
321,319,166312,6,0,B|373:315|373:315|428:275,1,100,10|0,0:1|0:0,0:0:0:0:
238,383,166552,1,8,0:1:0:0:
134,319,166673,1,8,0:0:0:0:
132,196,166793,1,8,0:1:0:0:
121,335,166914,1,8,0:1:0:0:
293,175,167034,6,0,B|310:142|310:142|294:56,1,100,10|0,0:1|0:0,0:0:0:0:
465,13,167273,1,10,0:1:0:0:
494,142,167392,1,8,0:0:0:0:
415,249,167512,1,10,0:1:0:0:
385,119,167631,1,0,0:0:0:0:
283,268,167751,6,0,B|306:307|306:307|311:382,1,100,10|0,0:1|0:0,0:0:0:0:
167,147,167996,1,8,0:1:0:0:
84,220,168119,2,0,B|61:259|61:259|59:337,1,100,8|10,0:0|0:1,0:0:0:0:
165,128,168365,1,0,0:0:0:0:
297,257,168488,6,0,B|337:277|337:277|410:267,1,100,10|0,0:1|0:0,0:0:0:0:
474,104,168728,1,8,0:1:0:0:
476,225,168849,1,8,0:0:0:0:
474,346,168969,1,8,0:1:0:0:
445,211,169090,1,8,0:1:0:0:
328,63,169210,6,0,B|277:75|277:75|239:129,1,100,10|0,0:1|0:0,0:0:0:0:
103,229,169454,1,8,0:1:0:0:
51,118,169577,1,8,0:0:0:0:
103,5,169699,1,8,0:1:0:0:
155,116,169822,1,8,0:1:0:0:
295,280,169944,6,0,B|298:217|298:217|322:177,1,100,10|0,0:1|0:0,0:0:0:0:
494,317,170184,1,10,0:1:0:0:
364,332,170305,1,8,0:0:0:0:
241,376,170425,1,10,0:1:0:0:
190,255,170546,1,0,0:0:0:0:
351,106,170666,6,0,B|390:132|390:132|406:209,1,100,10|0,0:1|0:0,0:0:0:0:
501,25,170907,1,8,0:1:0:0:
376,21,171028,1,8,0:0:0:0:
262,110,171148,1,10,0:1:0:0:
281,20,171269,1,0,0:0:0:0:
344,248,171389,1,10,0:1:0:0:
335,263,171632,5,10,0:1:0:0:
240,314,171754,1,8,0:0:0:0:
138,230,171876,1,10,0:1:0:0:
140,369,171998,1,2,0:0:0:0:
250,176,172120,1,10,0:1:0:0:
239,93,172243,1,2,0:0:0:0:
160,63,172366,1,10,0:1:0:0:
53,143,172490,6,0,B|190:104|190:104|209:52|209:52|286:47|286:47|302:15|302:15|408:10,1,398.999983561707,14|10,0:1|0:1,0:0:0:0:
404,25,173100,5,10,0:1:0:0:
419,141,173221,1,8,0:0:0:0:
398,262,173341,1,10,0:1:0:0:
493,185,173462,1,2,0:0:0:0:
293,241,173582,1,10,0:1:0:0:
214,205,173703,1,2,0:0:0:0:
205,119,173824,1,10,0:1:0:0:
262,4,173945,6,0,B|240:131|240:131|226:135|226:135|190:355|190:355|171:282,1,419.999987182618,14|10,0:1|0:1,0:0:0:0:
167,287,174553,1,10,0:1:0:0:
294,256,174675,1,8,0:0:0:0:
398,338,174796,1,10,0:1:0:0:
299,353,174918,1,2,0:0:0:0:
436,179,175039,1,10,0:1:0:0:
426,87,175161,1,2,0:0:0:0:
344,43,175284,1,10,0:1:0:0:
186,103,175407,6,0,B|219:107|219:107|285:80|285:80|313:87|313:87|327:64|327:64|375:76|375:76|471:18|471:18|530:70|530:70|505:136,1,450.000017166138,14|10,0:1|0:1,0:0:0:0:
497,124,176018,1,10,0:1:0:0:
395,224,176140,1,8,0:0:0:0:
246,199,176261,1,10,0:1:0:0:
214,327,176383,1,2,0:0:0:0:
330,116,176504,1,10,0:1:0:0:
269,48,176626,1,2,0:0:0:0:
178,59,176747,1,10,0:1:0:0:
31,24,176869,6,0,B|114:28|114:28|159:73|159:73|242:96|242:96|246:108|246:108|320:77|320:77|339:91|339:91|418:96,1,400,14|0,0:1|0:0,0:0:0:0:
402,86,177233,5,8,3:1:0:0:
370,214,177347,1,0,3:1:0:0:
440,323,177461,1,8,3:1:0:0:
264,345,177575,1,10,3:2:0:0:
263,260,177689,1,8,3:1:0:0:
334,307,177803,1,0,3:1:0:0:
465,229,177917,5,10,3:1:0:0:
333,135,178043,1,0,3:0:0:0:
169,159,178169,1,8,3:1:0:0:
269,74,178295,1,10,3:2:0:0:
257,173,178421,1,8,3:1:0:0:
185,240,178547,1,0,3:0:0:0:
24,35,178673,5,8,3:1:0:0:
93,175,178796,1,0,3:1:0:0:
21,328,178920,1,8,3:1:0:0:
87,88,179044,2,0,B|131:50|131:50|205:61,1,110.000003356934,10|8,3:2|3:1,0:0:0:0:
246,150,179292,1,0,3:1:0:0:
446,53,179416,5,10,3:1:0:0:
275,65,179538,1,0,3:0:0:0:
171,202,179661,1,8,3:1:0:0:
401,117,179784,2,0,B|425:153|425:153|423:250,1,110.000003356934,10|8,3:2|3:1,0:0:0:0:
382,308,180030,1,0,3:0:0:0:
119,384,180153,5,8,3:1:0:0:
212,275,180273,1,0,3:1:0:0:
340,214,180394,1,8,3:1:0:0:
126,273,180515,1,10,3:2:0:0:
200,355,180636,1,8,3:1:0:0:
306,331,180757,1,0,3:1:0:0:
142,125,180878,5,10,3:1:0:0:
283,43,181000,1,0,3:0:0:0:
444,80,181123,1,8,3:1:0:0:
233,120,181246,2,0,B|206:83|206:83|194:8,1,110.000003356934,10|8,3:2|3:1,0:0:0:0:
85,66,181492,1,0,3:0:0:0:
64,344,181615,5,8,3:1:0:0:
109,197,181736,1,0,3:1:0:0:
0,89,181858,1,8,3:1:0:0:
22,256,181980,1,10,3:2:0:0:
131,285,182102,1,8,3:1:0:0:
239,312,182224,1,0,3:1:0:0:
464,168,182346,5,10,3:1:0:0:
280,214,182469,1,0,3:0:0:0:
163,360,182593,1,8,3:1:0:0:
386,246,182717,1,10,3:2:0:0:
358,133,182841,1,8,3:1:0:0:
243,113,182965,1,0,3:0:0:0:
94,250,183089,6,0,B|68:323|68:323|42:105,1,269.999991760254,14|8,0:1|0:0,0:0:0:0:
273,361,183716,1,8,0:1:0:0:
331,250,183842,2,0,B|292:117|292:117|266:183,1,179.999994506836,8|8,0:0|0:1,0:0:0:0:
399,182,184228,2,0,B|521:213|521:213|442:244,1,179.999994506836,8|0,0:0|0:0,0:0:0:0:
363,334,184614,5,8,0:0:0:0:
91,292,184735,1,8,0:0:0:0:
258,84,184854,1,8,0:0:0:0:
227,355,184975,1,8,0:0:0:0:
192,257,185095,1,0,1:0:0:0:
193,247,185156,1,0,1:0:0:0:
194,237,185216,1,0,1:0:0:0:
195,227,185276,1,0,1:0:0:0:
196,217,185345,1,8,1:2:0:0:
312,182,185462,5,8,0:0:0:0:
182,132,185580,1,8,0:0:0:0:
100,18,185697,1,8,0:0:0:0:
91,190,185815,1,8,0:3:0:0:
267,102,185933,1,4,0:3:0:0:
468,167,186050,6,0,B|490:278|490:278|278:332,1,279.999991455078,14|2,0:1|0:0,0:0:0:0:
179,214,186446,2,0,B|252:199|252:199|325:250,1,139.999995727539,2|2,0:0|0:0,0:0:0:0:
226,331,186710,1,8,0:1:0:0:
68,196,186842,2,0,B|99:15|99:15|177:114,1,279.999991455078,14|2,0:0|0:0,0:0:0:0:
195,182,187229,1,8,0:1:0:0:
362,50,187359,2,0,B|291:64|291:64|261:134,1,139.999995727539,10|0,0:0|0:0,0:0:0:0:
443,350,187617,6,0,B|470:176|470:176|359:149,1,279.999991455078,14|2,0:1|0:0,0:0:0:0:
211,281,188008,2,0,L|359:253,1,139.999995727539,8|10,0:0|0:1,0:0:0:0:
298,366,188269,1,2,0:0:0:0:
108,263,188399,2,0,B|93:194|93:194|132:124,1,139.999995727539,14|0,0:0|0:0,0:0:0:0:
369,151,188653,2,0,B|329:92|329:92|252:71,1,139.999995727539,10|0,0:1|0:0,0:0:0:0:
174,347,188907,2,0,B|213:288|213:288|290:267,1,139.999995727539,10|0,0:0|0:0,0:0:0:0:
161,34,189161,6,0,B|112:21|112:21|37:41,1,119.999996337891,14|0,0:1|0:0,0:0:0:0:
192,130,189412,1,8,0:0:0:0:
10,179,189537,1,8,0:1:0:0:
432,297,189788,1,8,0:1:0:0:
250,248,189914,2,0,B|243:204|243:204|297:104,1,119.999996337891,10|0,0:0|0:0,0:0:0:0:
146,327,190167,2,0,B|112:297|112:297|89:186,1,119.999996337891,8|0,0:1|0:0,0:0:0:0:
264,351,190420,2,0,B|307:343|307:343|384:259,1,119.999996337891,8|0,0:0|0:0,0:0:0:0:
164,143,190673,5,10,0:0:0:0:
374,70,190793,1,8,0:3:0:0:
234,5,190914,1,8,0:3:0:0:
307,215,191035,1,8,0:3:0:0:
430,246,191156,5,0,1:0:0:0:
430,236,191217,1,0,1:0:0:0:
430,226,191277,1,0,1:0:0:0:
431,216,191338,1,0,1:0:0:0:
432,206,191398,1,8,1:2:0:0:
370,321,191521,5,8,0:0:0:0:
307,215,191645,1,8,0:3:0:0:
259,308,191769,1,8,0:3:0:0:
172,280,191893,1,4,0:3:0:0:
117,342,192017,1,4,0:3:0:0:
0,169,192141,6,0,B|17:119|17:119|110:85,1,139.999995727539,14|0,0:1|0:0,0:0:0:0:
172,280,192394,2,0,B|211:223|211:223|155:9,1,279.999991455078,2|2,0:0|0:0,0:0:0:0:
258,96,192775,1,8,0:1:0:0:
416,42,192902,2,0,B|368:5|368:5|284:27,1,139.999995727539,14|0,0:0|0:0,0:0:0:0:
388,191,193155,2,0,B|436:154|436:154|520:176,1,139.999995727539,2|8,0:0|0:0,0:0:0:0:
304,328,193409,2,0,B|267:280|267:280|289:196,1,139.999995727539,10|0,0:1|0:0,0:0:0:0:
137,29,193663,6,0,B|88:192|88:192|203:243,1,279.999991455078,14|8,0:1|0:1,0:0:0:0:
353,150,194041,2,0,B|309:90|309:90|228:78,1,139.999995727539,10|0,0:0|0:0,0:0:0:0:
357,257,194293,1,8,0:1:0:0:
261,339,194419,2,0,L|114:365,1,139.999995727539,10|0,0:0|0:0,0:0:0:0:
183,150,194669,2,0,L|14:133,1,139.999995727539,8|0,0:1|0:0,0:0:0:0:
255,238,194919,2,0,B|301:187|301:187|313:106,1,139.999995727539,8|0,0:0|0:0,0:0:0:0:
439,12,195169,5,14,2:1:0:0:
497,92,195291,1,8,2:2:0:0:
472,188,195413,1,8,2:3:0:0:
377,222,195536,1,8,2:3:0:0:
343,315,195658,1,4,2:3:0:0:
248,350,195781,1,4,2:3:0:0:
158,306,195903,5,8,2:2:0:0:
446,268,196023,1,8,2:2:0:0:
403,147,196143,5,8,2:3:0:0:
363,141,196264,1,8,2:3:0:0:
323,135,196384,1,4,2:3:0:0:
283,129,196505,1,4,2:3:0:0:
166,47,196625,5,14,2:1:0:0:
90,112,196751,1,8,2:0:0:0:
89,212,196878,1,8,2:3:0:0:
149,290,197004,1,8,2:3:0:0:
245,316,197131,1,4,2:3:0:0:
335,273,197257,1,4,2:3:0:0:
435,274,197384,5,8,2:2:0:0:
192,192,197504,1,8,2:2:0:0:
212,84,197624,5,8,2:3:0:0:
239,54,197744,1,8,2:3:0:0:
267,81,197864,1,4,2:3:0:0:
240,111,197984,1,4,2:3:0:0:
329,192,198104,6,0,B|428:177|428:177|395:-21,1,279.999991455078,14|2,0:1|0:0,0:0:0:0:
512,77,198480,1,8,0:0:0:0:
506,253,198606,2,0,B|472:282|472:282|378:270,1,139.999995727539,2|8,0:1|0:1,0:0:0:0:
197,158,198857,2,0,B|240:112|240:112|329:100,1,139.999995727539,14|0,0:0|0:0,0:0:0:0:
152,63,199111,1,10,0:1:0:0:
300,206,199238,1,8,0:0:0:0:
144,290,199365,2,0,B|112:270|112:270|97:157,1,139.999995727539,10|0,0:1|0:1,0:0:0:0:
288,363,199619,6,0,P|399:339|410:190,1,279.999991455078,14|8,0:1|0:1,0:0:0:0:
244,111,199994,2,0,B|268:74|268:74|379:55,1,139.999995727539,8|0,0:0|0:0,0:0:0:0:
235,249,200244,1,8,0:1:0:0:
129,202,200369,2,0,B|98:169|98:169|107:57,1,139.999995727539,14|0,0:0|0:0,0:0:0:0:
25,238,200613,2,0,B|60:296|60:296|141:315,1,139.999995727539,8|0,0:1|0:0,0:0:0:0:
315,168,200858,2,0,B|308:236|308:236|244:288,1,139.999995727539,10|0,0:0|0:0,0:0:0:0:
175,33,201103,6,0,B|202:53|202:53|300:31,1,119.999996337891,14|0,0:1|0:0,0:0:0:0:
397,150,201348,1,8,0:0:0:0:
427,0,201471,1,8,0:1:0:0:
253,281,201717,1,8,0:1:0:0:
184,147,201840,2,0,B|152:184|152:184|155:265,1,119.999996337891,10|0,0:0|0:0,0:0:0:0:
88,355,202080,2,0,B|75:182|75:182|18:119,1,239.999992675781,8|8,0:1|0:0,0:0:0:0:
386,206,202560,5,8,0:0:0:0:
425,50,202682,1,8,0:0:0:0:
260,191,202805,1,8,0:1:0:0:
482,298,202928,1,8,0:0:0:0:
363,345,203051,1,0,1:0:0:0:
352,346,203113,1,0,1:0:0:0:
341,348,203174,1,0,1:0:0:0:
330,349,203236,1,0,1:0:0:0:
320,351,203297,1,8,1:2:0:0:
170,242,203416,5,8,0:0:0:0:
324,261,203535,1,8,0:0:0:0:
230,361,203654,1,8,0:3:0:0:
143,361,203773,1,8,0:3:0:0:
223,342,203892,1,8,0:3:0:0:
267,175,204011,6,0,B|282:3|282:3|161:86,1,300.000011444092,14|2,0:1|0:0,0:0:0:0:
151,177,204395,1,0,0:0:0:0:
305,297,204523,2,0,B|342:217|342:217|412:176,1,150.000005722046,2|8,0:0|0:1,0:0:0:0:
364,0,204780,2,0,B|202:92|202:92|266:218,1,300.000011444092,14|2,0:0|0:0,0:0:0:0:
153,325,205158,1,8,0:0:0:0:
38,158,205285,2,0,B|108:166|108:166|160:250,1,150.000005722046,10|0,0:1|0:0,0:0:0:0:
346,372,205537,6,0,B|446:335|446:335|402:250|402:250|402:139,1,300.000011444092,14|0,0:1|0:0,0:0:0:0:
261,20,205916,2,0,B|255:97|255:97|300:185,1,150.000005722046,8|0,0:0|0:0,0:0:0:0:
260,296,206169,1,8,0:1:0:0:
17,277,206295,2,0,B|57:213|57:213|146:203,1,150.000005722046,10|0,0:0|0:0,0:0:0:0:
419,365,206539,2,0,B|411:289|411:289|335:241,1,150.000005722046,8|0,0:1|0:0,0:0:0:0:
86,6,206784,2,0,B|93:81|93:81|169:129,1,150.000005722046,8|0,0:0|0:0,0:0:0:0:
479,79,207029,6,0,B|453:50|453:50|356:35,1,119.999996337891,14|0,3:1|3:2,0:0:0:0:
236,0,207265,5,8,3:1:0:0:
292,124,207383,1,8,3:2:0:0:
251,255,207501,1,8,3:1:0:0:
177,201,207619,1,0,3:2:0:0:
371,238,207737,2,0,B|383:276|383:276|372:377,1,119.999996337891,10|0,0:1|0:2,0:0:0:0:
478,180,207973,5,10,0:1:0:0:
398,61,208091,1,8,0:2:0:0:
250,49,208210,1,10,0:1:0:0:
337,0,208328,1,0,0:2:0:0:
193,118,208446,2,0,B|145:127|145:127|55:75,1,119.999996337891,10|0,3:1|3:2,0:0:0:0:
0,243,208685,5,8,3:1:0:0:
140,225,208804,1,8,3:2:0:0:
273,276,208924,1,8,3:1:0:0:
171,319,209043,1,0,3:2:0:0:
310,148,209163,2,0,B|343:120|343:120|430:115,1,119.999996337891,10|0,0:1|0:0,0:0:0:0:
250,50,209400,5,8,0:1:0:0:
114,91,209518,1,10,0:2:0:0:
0,12,209637,1,10,0:1:0:0:
106,9,209755,1,0,0:2:0:0:
0,212,209874,2,0,B|24:252|24:252|135:278,1,119.999996337891,10|0,3:1|3:2,0:0:0:0:
317,212,210109,5,8,3:1:0:0:
180,262,210226,1,8,3:2:0:0:
81,374,210344,1,8,3:1:0:0:
180,354,210462,1,0,3:2:0:0:
86,163,210579,1,10,0:1:0:0:
130,92,210698,1,0,0:2:0:0:
245,194,210817,5,10,0:1:0:0:
389,211,210936,1,8,0:2:0:0:
501,118,211055,1,10,0:1:0:0:
393,98,211174,1,0,0:2:0:0:
512,276,211293,2,0,B|490:313|490:313|370:339,1,119.999996337891,10|0,3:1|3:2,0:0:0:0:
259,269,211527,5,8,3:1:0:0:
112,286,211644,1,8,3:2:0:0:
10,373,211761,1,8,3:1:0:0:
117,378,211878,1,0,3:2:0:0:
25,175,211996,1,10,3:1:0:0:
67,99,212108,1,0,3:2:0:0:
200,206,212220,5,8,3:1:0:0:
270,346,212333,1,8,3:2:0:0:
419,277,212445,1,8,3:1:0:0:
349,137,212557,1,8,3:2:0:0:
132,316,212670,6,0,B|176:263|207:236|265:236|317:269,1,209.999993591309,14|0,0:1|0:2,0:0:0:0:
143,64,213049,2,0,B|105:92|110:120|120:166,1,104.999996795654,2|0,0:1|0:2,0:0:0:0:
200,206,213302,1,2,0:2:0:0:
321,139,213429,2,0,B|331:119|341:108|341:108|335:77|335:77|326:66|322:29,1,104.999996795654,8|0,0:2|0:2,0:0:0:0:
295,262,213672,1,2,0:2:0:0:
202,301,213794,2,0,B|192:283|182:272|182:272|187:241|187:241|197:230|201:192,1,104.999996795654,2|0,0:2|0:0,0:0:0:0:
297,376,214038,1,0,0:2:0:0:
482,255,214160,6,0,B|459:228|459:228|460:222|448:214|448:214|424:217|418:207|374:206,1,104.999996795654,14|0,0:1|0:0,0:0:0:0:
321,139,214406,1,0,0:2:0:0:
114,216,214530,1,2,0:2:0:0:
104,131,214653,1,2,0:2:0:0:
189,120,214777,1,2,0:2:0:0:
199,205,214900,2,0,B|204:239|246:244|317:227|317:182|237:146|286:59,1,209.999993591309,10|0,0:2|0:2,0:0:0:0:
443,114,215261,2,0,B|457:74|457:74|465:68|465:68|473:15|473:15|429:30|395:8|365:30,1,209.999993591309,2|0,0:2|0:2,0:0:0:0:
355,234,215622,6,0,B|344:293|344:293|336:306|336:306|340:328|316:368|316:368|281:348|236:340,1,209.999993591309,14|0,0:1|0:2,0:0:0:0:
30,308,215989,2,0,B|33:330|33:330|39:333|39:333|56:370|56:370|84:360|110:356,1,104.999996795654,2|0,0:2|0:2,0:0:0:0:
156,288,216234,1,2,0:2:0:0:
0,161,216356,2,0,B|25:145|37:145|37:145|51:132|51:132|112:138,1,104.999996795654,10|0,0:2|0:2,0:0:0:0:
169,193,216601,1,2,0:2:0:0:
262,35,216724,2,0,B|237:19|225:19|225:19|211:6|211:6|150:10,1,104.999996795654,2|0,0:2|0:0,0:0:0:0:
92,52,216968,1,0,0:2:0:0:
257,190,217091,6,0,B|295:206|295:206|317:198|328:207|328:207|399:217|399:217|412:183|407:168|407:168|422:140,1,209.999993591309,14|0,0:1|0:2,0:0:0:0:
463,282,217456,1,2,0:2:0:0:
414,352,217578,1,2,0:2:0:0:
329,365,217700,1,2,0:2:0:0:
265,308,217822,5,10,0:2:0:0:
351,153,217945,1,8,0:2:0:0:
434,0,218068,1,8,0:2:0:0:
229,190,218192,5,14,0:1:0:0:
