osu file format v14

[General]
AudioFilename: audio.mp3
AudioLeadIn: 0
PreviewTime: 126547
Countdown: 1
SampleSet: None
StackLeniency: 0.7
Mode: 0
LetterboxInBreaks: 0
WidescreenStoryboard: 0

[Editor]
DistanceSpacing: 1.4
BeatDivisor: 4
GridSize: 4
TimelineZoom: 5.599997

[Metadata]
Title:Suite-Pee
TitleUnicode:Suite-Pee
Artist:System Of A Down
ArtistUnicode:System Of A Down
Creator:XenjeS
Version:ExTReMe
Source:
Tags:
BeatmapID:1486796
BeatmapSetID:702663

[Difficulty]
HPDrainRate:4
CircleSize:3.9
OverallDifficulty:8
ApproachRate:9.8
SliderMultiplier:3.19999990463257
SliderTickRate:1

[Events]
//Background and Video events
0,0,"Nagishiro-Mito-Anime-AO-Anime-Art-4165501.png",0,0
//Break Periods
2,60555,63051
2,74762,76385
2,91270,126147
//Storyboard Layer 0 (Background)
//Storyboard Layer 1 (Fail)
//Storyboard Layer 2 (Pass)
//Storyboard Layer 3 (Foreground)
//Storyboard Sound Samples

[TimingPoints]
357,476.190476190476,4,1,0,100,1,0
9880,317.460317460317,4,1,0,100,1,0
19563,-200,4,1,0,100,0,0
24404,-133.333333333333,4,1,0,100,0,0
25515,-200,4,1,0,100,0,0
26071,-133.333333333333,4,1,0,100,0,0
26626,-200,4,1,0,100,0,0
27261,-133.333333333333,4,1,0,100,0,0
29880,-100,4,1,0,100,0,1
38928,-133.333333333333,4,1,0,100,0,0
50118,-100,4,1,0,100,0,1
57816,-133.333333333333,4,1,0,100,0,1
59403,-200,4,1,0,100,0,0
127499,-100,4,1,0,100,0,0

[HitObjects]
168,160,357,6,0,L|288:160,9,79.9999976158142
272,276,1666,6,0,P|224:292|172:260,8,79.9999976158142
96,60,2856,6,0,P|120:104|196:120,8,79.9999976158142
408,224,4047,6,0,B|364:200|364:200|312:200,8,79.9999976158142
100,244,5237,5,0,0:0:0:0:
104,216,5356,1,0,0:0:0:0:
124,192,5476,1,0,0:0:0:0:
152,176,5595,1,0,0:0:0:0:
180,152,5714,1,0,0:0:0:0:
192,124,5833,1,0,0:0:0:0:
224,104,5952,1,0,0:0:0:0:
252,96,6071,1,0,0:0:0:0:
284,80,6190,1,0,0:0:0:0:
384,220,6428,5,0,0:0:0:0:
336,216,6547,1,0,0:0:0:0:
292,204,6666,1,0,0:0:0:0:
252,192,6785,1,0,0:0:0:0:
204,176,6904,1,0,0:0:0:0:
160,184,7023,1,0,0:0:0:0:
128,204,7142,1,0,0:0:0:0:
124,248,7261,1,0,0:0:0:0:
160,284,7380,1,0,0:0:0:0:
228,232,7618,6,0,L|324:236,8,79.9999976158142
304,72,8809,6,0,P|264:76|236:112,8,79.9999976158142
120,68,10198,5,0,0:0:0:0:
412,56,10356,1,0,0:0:0:0:
140,172,10515,1,0,0:0:0:0:
304,320,10674,1,0,0:0:0:0:
292,96,10833,1,0,0:0:0:0:
116,244,10991,1,0,0:0:0:0:
384,148,11150,1,14,0:0:0:0:
56,72,11468,5,0,0:0:0:0:
296,64,11626,1,0,0:0:0:0:
148,264,11785,1,0,0:0:0:0:
168,72,11944,1,0,0:0:0:0:
344,264,12103,1,0,0:0:0:0:
76,212,12261,1,0,0:0:0:0:
304,128,12420,1,14,0:0:0:0:
120,88,12658,5,0,0:0:0:0:
256,268,12817,1,0,0:0:0:0:
332,84,12976,1,0,0:0:0:0:
88,212,13135,1,0,0:0:0:0:
384,240,13293,1,0,0:0:0:0:
248,40,13452,1,0,0:0:0:0:
152,296,13611,1,14,0:0:0:0:
332,84,13849,5,0,0:0:0:0:
92,104,14008,1,0,0:0:0:0:
264,272,14167,1,0,0:0:0:0:
368,168,14325,1,0,0:0:0:0:
340,140,14405,1,0,0:0:0:0:
304,124,14484,5,0,0:0:0:0:
272,116,14564,1,0,0:0:0:0:
240,116,14643,1,0,0:0:0:0:
208,124,14722,1,0,0:0:0:0:
176,112,14802,1,8,0:0:0:0:
112,284,15118,5,0,0:0:0:0:
208,48,15277,1,0,0:0:0:0:
284,288,15436,1,0,0:0:0:0:
72,136,15595,1,0,0:0:0:0:
324,136,15753,1,0,0:0:0:0:
72,136,15912,1,0,0:0:0:0:
324,136,16070,1,4,0:0:0:0:
144,80,16309,5,0,0:0:0:0:
272,80,16467,1,0,0:0:0:0:
272,192,16626,1,0,0:0:0:0:
136,200,16785,1,0,0:0:0:0:
192,48,16944,1,0,0:0:0:0:
368,144,17102,1,0,0:0:0:0:
252,296,17261,1,4,0:0:0:0:
372,264,17499,5,0,0:0:0:0:
192,160,17658,1,0,0:0:0:0:
364,52,17817,1,0,0:0:0:0:
136,60,17976,1,0,0:0:0:0:
384,164,18134,1,0,0:0:0:0:
164,288,18293,1,0,0:0:0:0:
52,64,18452,1,4,0:0:0:0:
136,104,18690,5,0,0:0:0:0:
164,276,18849,1,0,0:0:0:0:
228,108,19007,1,0,0:0:0:0:
272,280,19166,1,0,0:0:0:0:
336,116,19325,1,0,0:0:0:0:
392,296,19483,1,0,0:0:0:0:
392,296,19642,2,2,P|324:304|264:268,1,135.000001573563
128,160,20118,5,0,0:0:0:0:
280,72,20277,1,0,0:0:0:0:
368,240,20436,1,0,0:0:0:0:
216,312,20595,1,0,0:0:0:0:
68,72,20753,2,0,P|60:136|88:184,1,90.0000010490418
368,64,21071,2,0,L|268:104,1,90.0000010490418
316,200,21309,2,0,L|448:152,1,135.000001573563
124,112,21784,2,4,P|100:156|144:236,1,135.000001573563
388,80,22341,5,0,0:0:0:0:
208,160,22499,1,0,0:0:0:0:
208,160,22579,1,0,0:0:0:0:
208,160,22658,1,0,0:0:0:0:
208,160,22737,2,0,P|228:216|280:232,1,90.0000010490418
396,164,23055,5,0,0:0:0:0:
192,68,23214,1,0,0:0:0:0:
148,336,23372,1,0,0:0:0:0:
36,100,23531,2,0,L|108:156,1,90.0000010490418
456,284,23849,2,0,L|380:228,1,90.0000010490418
116,204,24483,5,0,0:0:0:0:
236,96,24642,1,0,0:0:0:0:
264,92,24722,1,0,0:0:0:0:
300,96,24801,1,0,0:0:0:0:
324,112,24880,1,0,0:0:0:0:
348,136,24960,2,0,P|368:188|432:224,1,119.999996821086
100,232,25276,1,14,0:0:0:0:
296,288,25436,5,0,0:0:0:0:
128,96,25595,2,0,L|200:76,1,44.9999988079071
320,152,25833,2,0,P|264:144|244:148,1,44.9999988079071
72,292,26071,2,2,B|100:288|128:260|128:260|176:256|176:256|196:232|232:220,1,179.999995231629
152,80,26468,1,0,0:0:0:0:
380,116,26706,6,0,P|324:132|312:160,1,89.9999976158143
124,172,27023,2,0,P|160:196|216:188,1,89.9999976158143
396,312,27341,2,2,B|352:256|352:256|308:240|308:240|276:172,1,179.999995231629
212,160,27737,5,0,0:0:0:0:
400,104,27976,6,0,P|320:80|260:88,1,119.999996821086
172,256,28293,2,0,P|264:288|320:284,1,119.999996821086
84,124,28690,5,2,0:0:0:0:
112,108,28769,1,2,0:0:0:0:
140,100,28849,1,2,0:0:0:0:
176,104,28928,1,2,0:0:0:0:
204,100,29007,1,2,0:0:0:0:
236,96,29087,1,2,0:0:0:0:
264,112,29166,1,2,0:0:0:0:
296,128,29245,5,2,0:0:0:0:
304,160,29325,1,2,0:0:0:0:
288,192,29404,1,2,0:0:0:0:
288,224,29483,1,2,0:0:0:0:
304,252,29563,1,2,0:0:0:0:
324,276,29642,1,14,0:0:0:0:
88,88,29880,6,0,B|136:152|204:184|204:184|200:236|228:264,1,180.000002098084
356,100,30277,1,0,0:0:0:0:
356,100,30356,2,0,P|352:156|320:180,1,90.0000010490418
160,304,30595,2,0,L|124:220,1,90.0000010490418
124,188,30753,1,0,0:0:0:0:
128,152,30833,1,0,0:0:0:0:
152,128,30912,1,0,0:0:0:0:
152,88,30991,1,0,0:0:0:0:
432,120,31150,6,0,B|392:136|392:136|372:172|372:172|340:180|312:212|312:212|260:208,1,180.000002098084
164,304,31468,1,0,0:0:0:0:
68,152,31626,1,0,0:0:0:0:
324,188,31785,1,0,0:0:0:0:
272,56,31944,1,0,0:0:0:0:
108,216,32103,1,0,0:0:0:0:
376,296,32261,1,0,0:0:0:0:
88,64,32420,6,0,P|140:96|92:60,1,180.000002098084
268,112,32737,1,0,0:0:0:0:
364,212,32896,1,0,0:0:0:0:
388,104,33055,1,0,0:0:0:0:
128,288,33214,5,0,0:0:0:0:
224,68,33690,6,0,B|212:104|212:104|220:136|208:164|208:164|216:196|216:196|200:224|208:256,1,180.000002098084
88,120,34007,5,0,0:0:0:0:
272,124,34166,1,0,0:0:0:0:
160,264,34325,1,0,0:0:0:0:
204,36,34483,1,0,0:0:0:0:
436,168,34642,1,0,0:0:0:0:
80,140,34880,5,0,0:0:0:0:
332,120,35039,1,0,0:0:0:0:
144,316,35198,1,0,0:0:0:0:
372,280,35356,1,0,0:0:0:0:
328,52,35515,1,0,0:0:0:0:
80,88,35674,1,0,0:0:0:0:
372,176,35833,1,0,0:0:0:0:
80,88,35991,1,0,0:0:0:0:
56,268,36230,5,0,0:0:0:0:
216,260,36388,1,0,0:0:0:0:
200,92,36547,1,0,0:0:0:0:
64,300,36706,1,0,0:0:0:0:
240,160,36864,1,0,0:0:0:0:
452,44,37023,1,0,0:0:0:0:
308,328,37182,1,0,0:0:0:0:
64,68,37341,1,0,0:0:0:0:
116,160,37499,5,0,0:0:0:0:
116,160,37658,1,0,0:0:0:0:
116,160,37817,1,0,0:0:0:0:
232,76,37976,1,0,0:0:0:0:
356,88,38134,1,0,0:0:0:0:
428,168,38293,1,0,0:0:0:0:
104,296,38452,1,0,0:0:0:0:
160,180,38610,2,0,B|204:220|204:220|268:240|268:240|316:280,1,180.000002098084
448,68,38928,5,0,0:0:0:0:
392,60,39007,1,0,0:0:0:0:
336,68,39087,1,0,0:0:0:0:
280,80,39166,1,0,0:0:0:0:
248,116,39245,1,0,0:0:0:0:
212,152,39325,1,0,0:0:0:0:
168,180,39404,1,0,0:0:0:0:
136,216,39483,2,0,P|56:236|76:160,1,179.999995231629
332,284,39880,5,0,0:0:0:0:
372,152,40118,2,0,P|300:136|256:104,2,119.999996821086
76,96,40595,1,0,0:0:0:0:
264,280,40753,2,0,P|200:232|144:224,1,119.999996821086
192,76,41071,5,0,0:0:0:0:
376,80,41230,1,0,0:0:0:0:
272,208,41388,1,0,0:0:0:0:
376,80,41547,1,0,0:0:0:0:
192,76,41706,1,0,0:0:0:0:
272,208,41864,1,0,0:0:0:0:
120,264,42261,6,0,P|104:176|116:140,1,119.999996821086
368,136,42578,2,0,P|392:208|372:272,1,119.999996821086
244,184,42896,1,0,0:0:0:0:
92,144,43134,5,0,0:0:0:0:
236,44,43293,1,0,0:0:0:0:
376,176,43452,1,0,0:0:0:0:
212,296,43610,1,0,0:0:0:0:
232,164,43769,1,0,0:0:0:0:
76,244,43928,6,0,L|40:124,1,119.999996821086
56,96,44166,1,0,0:0:0:0:
100,68,44245,1,0,0:0:0:0:
152,72,44325,1,0,0:0:0:0:
200,92,44404,1,0,0:0:0:0:
256,84,44483,1,0,0:0:0:0:
304,72,44563,5,0,0:0:0:0:
348,104,44642,1,0,0:0:0:0:
376,156,44722,1,0,0:0:0:0:
360,216,44801,1,0,0:0:0:0:
384,272,44880,1,0,0:0:0:0:
372,324,44960,1,0,0:0:0:0:
88,304,45118,5,0,0:0:0:0:
200,240,45277,1,0,0:0:0:0:
84,144,45436,1,0,0:0:0:0:
188,72,45595,1,0,0:0:0:0:
304,152,45753,2,0,P|352:168|380:248,1,135.000001573563
144,284,46070,5,0,0:0:0:0:
64,104,46229,1,0,0:0:0:0:
248,196,46387,1,0,0:0:0:0:
164,44,46546,1,0,0:0:0:0:
420,124,46705,1,0,0:0:0:0:
184,112,46864,1,0,0:0:0:0:
420,124,47022,1,0,0:0:0:0:
184,112,47181,1,0,0:0:0:0:
260,296,47340,6,0,P|168:268|136:228,1,135.000001573563
308,96,47657,5,0,0:0:0:0:
180,196,47816,1,0,0:0:0:0:
308,96,47975,1,0,0:0:0:0:
140,252,48133,1,0,0:0:0:0:
364,44,48292,1,0,0:0:0:0:
140,252,48451,1,0,0:0:0:0:
364,44,48610,1,0,0:0:0:0:
444,320,48848,5,0,0:0:0:0:
432,316,48927,1,0,0:0:0:0:
408,308,49006,1,0,0:0:0:0:
384,296,49086,1,0,0:0:0:0:
364,280,49165,1,0,0:0:0:0:
344,252,49245,1,0,0:0:0:0:
324,220,49324,1,0,0:0:0:0:
304,188,49403,5,0,0:0:0:0:
280,156,49483,1,0,0:0:0:0:
248,128,49562,1,0,0:0:0:0:
208,104,49641,1,0,0:0:0:0:
160,96,49721,1,0,0:0:0:0:
112,108,49800,1,0,0:0:0:0:
88,148,49879,1,0,0:0:0:0:
244,312,50118,6,0,B|240:272|248:240|248:240|248:208|252:180|252:180|252:152|264:124,1,179.999995231629
260,128,50435,1,0,0:0:0:0:
84,72,50594,2,0,L|48:168,1,89.9999976158143
120,304,50753,2,0,L|160:200,1,89.9999976158143
308,108,50912,2,0,L|276:212,1,89.9999976158143
368,328,51070,2,0,L|404:196,1,79.9999976158142
400,88,51387,6,0,B|348:68|348:68|240:68,1,159.999995231628
56,168,51705,1,0,0:0:0:0:
244,316,51864,1,0,0:0:0:0:
376,168,52022,1,0,0:0:0:0:
56,168,52181,1,0,0:0:0:0:
375,239,52340,2,0,P|319:195|375:167,1,159.999995231628
56,168,52657,6,0,P|140:228|156:208,1,159.999995231628
220,88,52975,1,0,0:0:0:0:
304,48,53133,1,0,0:0:0:0:
392,80,53292,1,0,0:0:0:0:
416,180,53451,1,0,0:0:0:0:
344,256,53610,1,0,0:0:0:0:
80,180,53768,1,0,0:0:0:0:
236,320,53927,6,0,B|264:300|272:264|272:264|296:252|296:252|296:212|312:176,1,159.999995231628
84,96,54245,5,0,0:0:0:0:
112,72,54324,1,0,0:0:0:0:
148,56,54403,1,0,0:0:0:0:
192,56,54483,1,0,0:0:0:0:
232,72,54562,1,0,0:0:0:0:
272,80,54641,1,0,0:0:0:0:
312,68,54721,5,0,0:0:0:0:
352,64,54800,1,0,0:0:0:0:
372,88,54879,1,0,0:0:0:0:
376,128,54959,1,0,0:0:0:0:
80,280,55118,5,0,0:0:0:0:
260,308,55276,1,0,0:0:0:0:
112,144,55435,1,0,0:0:0:0:
256,48,55594,1,0,0:0:0:0:
392,220,55753,1,0,0:0:0:0:
160,224,55911,1,0,0:0:0:0:
256,48,56070,2,0,L|256:148,2,79.9999976158142
132,304,56546,5,0,0:0:0:0:
380,308,56705,1,0,0:0:0:0:
376,88,56864,1,0,0:0:0:0:
124,96,57022,1,0,0:0:0:0:
380,308,57181,1,0,0:0:0:0:
376,88,57340,1,0,0:0:0:0:
108,224,57499,2,0,L|280:284,1,159.999995231628
160,84,57816,5,0,0:0:0:0:
160,84,57975,2,0,P|216:128|268:132,1,120.000001001358
400,140,58292,1,0,0:0:0:0:
112,284,58451,1,0,0:0:0:0:
384,288,58610,1,0,0:0:0:0:
112,284,58768,1,0,0:0:0:0:
344,72,58927,2,0,B|272:88|196:80|196:80|176:100|152:108,1,180.000001502037
88,204,59324,5,0,0:0:0:0:
328,304,59483,1,0,0:0:0:0:
440,68,59641,1,0,0:0:0:0:
152,128,59800,1,0,0:0:0:0:
408,248,59959,1,0,0:0:0:0:
328,48,60197,5,0,0:0:0:0:
188,272,60355,1,0,0:0:0:0:
256,192,63530,12,0,66070,0:0:0:0:
256,192,66784,12,0,69562,0:0:0:0:
256,192,70118,12,0,72499,0:0:0:0:
256,192,73372,12,0,74562,0:0:0:0:
108,152,76864,5,0,0:0:0:0:
240,104,77022,1,0,0:0:0:0:
408,300,77260,1,0,0:0:0:0:
104,224,77657,5,0,0:0:0:0:
380,64,78292,5,0,0:0:0:0:
400,104,78372,1,0,0:0:0:0:
400,148,78451,1,0,0:0:0:0:
384,184,78530,1,0,0:0:0:0:
80,132,79086,5,0,0:0:0:0:
312,276,79324,1,0,0:0:0:0:
404,68,79562,1,0,0:0:0:0:
96,208,80118,5,0,0:0:0:0:
264,72,80356,1,0,0:0:0:0:
392,232,80594,1,0,0:0:0:0:
248,196,80991,5,0,0:0:0:0:
256,192,81149,12,0,82499,0:0:0:0:
168,128,82657,5,0,0:0:0:0:
424,88,82895,1,0,0:0:0:0:
348,300,83133,1,0,0:0:0:0:
84,128,83530,5,0,0:0:0:0:
372,112,83768,1,0,0:0:0:0:
280,240,83927,1,0,0:0:0:0:
256,128,84324,5,0,0:0:0:0:
344,240,84800,6,0,P|268:248|232:236,1,79.9999976158142
152,80,85276,6,0,P|232:92|248:88,1,79.9999976158142
132,260,85753,5,0,0:0:0:0:
344,72,85991,1,0,0:0:0:0:
380,308,86229,1,0,0:0:0:0:
380,308,86387,1,0,0:0:0:0:
76,116,86784,5,0,0:0:0:0:
340,56,87022,1,0,0:0:0:0:
256,296,87260,1,0,0:0:0:0:
252,192,87657,5,0,0:0:0:0:
88,84,88133,5,0,0:0:0:0:
400,272,88530,5,0,0:0:0:0:
52,64,89006,6,0,B|136:52|160:140|160:140|200:56|200:56|236:152|236:152|264:64|264:64|320:128|400:128,1,559.9999833107
56,288,90276,5,0,0:0:0:0:
168,284,90514,1,0,0:0:0:0:
268,236,90753,1,0,0:0:0:0:
400,56,91070,1,0,0:0:0:0:
108,152,126626,6,0,B|152:172|196:172|196:172|224:192|224:192|264:176|308:172,1,199.999994039536
384,308,127181,2,0,P|324:308|264:280,1,119.999996423721
80,164,127657,5,0,0:0:0:0:
416,224,127895,5,0,0:0:0:0:
228,64,128292,5,0,0:0:0:0:
132,312,128530,6,0,B|224:292|224:292|304:304|304:304|424:280,1,239.999992847443
256,192,128848,12,0,129641,0:0:0:0:
120,236,129959,5,0,0:0:0:0:
248,80,130118,1,0,0:0:0:0:
380,272,130276,1,0,0:0:0:0:
64,120,130435,1,0,0:0:0:0:
412,52,130594,1,0,0:0:0:0:
128,324,130753,1,0,0:0:0:0:
428,176,130911,1,0,0:0:0:0:
108,108,131229,5,0,0:0:0:0:
296,296,131387,1,0,0:0:0:0:
408,68,131546,1,0,0:0:0:0:
68,200,131705,1,0,0:0:0:0:
220,44,131864,1,0,0:0:0:0:
424,212,132022,1,0,0:0:0:0:
180,316,132181,1,0,0:0:0:0:
84,136,132499,5,0,0:0:0:0:
268,84,132658,1,0,0:0:0:0:
356,264,132817,1,0,0:0:0:0:
160,324,132975,1,0,0:0:0:0:
296,40,133134,1,0,0:0:0:0:
448,276,133293,1,0,0:0:0:0:
88,216,133451,2,0,B|208:188|208:188|236:156,1,159.999995231628
428,68,133768,5,0,0:0:0:0:
336,308,133927,1,0,0:0:0:0:
120,108,134086,1,0,0:0:0:0:
336,312,134245,1,0,0:0:0:0:
428,68,134403,1,0,0:0:0:0:
136,304,134562,1,0,0:0:0:0:
216,56,134721,2,0,B|200:108|200:108|212:156|212:156|204:224,1,159.999995231628
404,128,135038,5,0,0:0:0:0:
100,140,135197,1,0,0:0:0:0:
288,44,135356,1,0,0:0:0:0:
336,304,135514,1,0,0:0:0:0:
100,252,135673,1,0,0:0:0:0:
384,56,135832,1,0,0:0:0:0:
428,308,135991,1,0,0:0:0:0:
136,84,136308,5,0,0:0:0:0:
420,164,136467,1,0,0:0:0:0:
136,308,136626,1,0,0:0:0:0:
260,48,136784,1,0,0:0:0:0:
360,304,136943,1,0,0:0:0:0:
48,156,137102,1,0,0:0:0:0:
376,72,137260,1,0,0:0:0:0:
168,316,137578,5,0,0:0:0:0:
84,204,137737,1,0,0:0:0:0:
188,88,137895,1,0,0:0:0:0:
308,224,138054,1,0,0:0:0:0:
88,304,138213,1,0,0:0:0:0:
72,72,138372,1,0,0:0:0:0:
392,88,138530,1,0,0:0:0:0:
132,88,138768,6,0,L|208:148,1,79.9999976158142
368,72,138927,2,0,L|299:154,1,79.9999976158142
384,284,139086,2,0,L|296:224,1,79.9999976158142
144,300,139245,2,0,L|220:220,1,79.9999976158142
304,72,139403,2,0,L|384:152,1,79.9999976158142
296,328,139562,2,0,L|212:328,1,79.9999976158142
100,168,139721,2,0,L|152:88,1,79.9999976158142
208,104,140038,5,0,0:0:0:0:
428,104,140197,1,0,0:0:0:0:
208,308,140356,1,0,0:0:0:0:
304,76,140514,1,0,0:0:0:0:
408,280,140673,1,0,0:0:0:0:
84,180,140832,1,0,0:0:0:0:
364,44,140991,1,0,0:0:0:0:
320,304,141149,1,0,0:0:0:0:
164,64,141308,5,0,0:0:0:0:
144,308,141467,1,0,0:0:0:0:
412,156,141626,1,0,0:0:0:0:
68,168,141784,1,0,0:0:0:0:
332,324,141943,1,0,0:0:0:0:
300,60,142102,1,0,0:0:0:0:
96,232,142260,1,0,0:0:0:0:
428,232,142419,1,0,0:0:0:0:
168,64,142578,5,0,0:0:0:0:
188,308,142737,1,0,0:0:0:0:
408,300,142895,1,0,0:0:0:0:
56,144,143054,1,0,0:0:0:0:
320,80,143213,1,0,0:0:0:0:
280,312,143372,1,0,0:0:0:0:
104,68,143530,1,0,0:0:0:0:
400,172,143689,1,0,0:0:0:0:
112,272,143848,5,0,0:0:0:0:
196,64,144006,1,0,0:0:0:0:
416,272,144165,1,0,0:0:0:0:
104,176,144324,1,0,0:0:0:0:
352,64,144483,1,0,0:0:0:0:
304,336,144641,1,0,0:0:0:0:
100,80,144800,1,0,0:0:0:0:
436,144,144959,1,0,0:0:0:0:
380,296,145118,5,0,0:0:0:0:
376,80,145276,1,0,0:0:0:0:
120,88,145435,1,0,0:0:0:0:
136,304,145594,1,0,0:0:0:0:
320,120,145753,1,0,0:0:0:0:
204,120,145911,1,0,0:0:0:0:
208,236,146070,1,0,0:0:0:0:
320,240,146229,1,0,0:0:0:0:
108,316,146387,5,0,0:0:0:0:
72,156,146546,1,0,0:0:0:0:
288,52,146705,1,0,0:0:0:0:
424,204,146864,1,0,0:0:0:0:
156,160,147022,1,0,0:0:0:0:
376,72,147181,1,0,0:0:0:0:
308,300,147340,1,0,0:0:0:0:
56,136,147499,1,0,0:0:0:0:
128,52,147657,5,0,0:0:0:0:
456,164,147816,1,0,0:0:0:0:
128,336,147975,1,0,0:0:0:0:
312,40,148133,1,0,0:0:0:0:
416,328,148292,1,0,0:0:0:0:
64,160,148451,1,0,0:0:0:0:
420,52,148610,1,0,0:0:0:0:
272,336,148768,1,0,0:0:0:0:
76,52,148927,5,0,0:0:0:0:
464,120,149086,1,0,0:0:0:0:
96,324,149245,1,0,0:0:0:0:
296,40,149403,1,0,0:0:0:0:
444,308,149562,1,0,0:0:0:0:
96,160,149721,1,0,0:0:0:0:
