osu file format v14

[General]
AudioFilename: audio.mp3
AudioLeadIn: 0
PreviewTime: -1
Countdown: 1
SampleSet: Normal
StackLeniency: 0.7
Mode: 0
LetterboxInBreaks: 0
WidescreenStoryboard: 1

[Editor]
DistanceSpacing: 0.7
BeatDivisor: 4
GridSize: 32
TimelineZoom: 3.65

[Metadata]
Title:Sad Statue
TitleUnicode:Sad Statue
Artist:System Of A Down
ArtistUnicode:System Of A Down
Creator:S0meDude85
Version:Just a lil bit harder
Source:
Tags:Sad Statue
BeatmapID:4590283
BeatmapSetID:2165095

[Difficulty]
HPDrainRate:7
CircleSize:4
OverallDifficulty:9
ApproachRate:10
SliderMultiplier:2
SliderTickRate:1

[Events]
//Background and Video events
0,0,"mezmerize.png",0,0
//Break Periods
//Storyboard Layer 0 (Background)
//Storyboard Layer 1 (Fail)
//Storyboard Layer 2 (Pass)
//Storyboard Layer 3 (Foreground)
//Storyboard Layer 4 (Overlay)
//Storyboard Sound Samples

[TimingPoints]
5750,359.281437125748,4,1,0,100,1,0
8264,-66.6666666666667,4,1,0,100,0,0
9342,-100,4,1,0,100,0,0
12934,-100,4,1,0,100,0,0
14013,-66.6666666666667,4,1,0,100,0,0
14372,-100,4,1,0,100,0,0
15449,-66.6666666666667,4,1,0,100,0,0
15988,-100,4,1,0,100,0,0
26767,-50,4,1,0,100,0,0
27126,-100,4,1,0,100,0,0
35300,-50,4,1,0,100,0,0
35479,-100,4,1,0,100,0,0
37455,-50,4,1,0,100,0,0
37635,-100,4,1,0,100,0,0
38174,-50,4,1,0,100,0,0
38354,-100,4,1,0,100,0,0
41408,-66.6666666666667,4,1,0,100,0,0
41587,-100,4,1,0,100,0,0
46437,-133.333333333333,4,1,0,100,0,0
46617,-100,4,1,0,100,0,0
46797,-50,4,1,0,100,0,0
47066,-100,4,1,0,100,0,0
49671,-66.6666666666667,4,1,0,100,0,0
49851,-100,4,1,0,100,0,0
63054,-100,4,1,0,100,0,0
79761,-50,4,1,0,100,0,0
79940,-100,4,1,0,100,0,0
81557,-50,4,1,0,100,0,0
81917,-66.6666666666667,4,1,0,100,0,0
86408,-100,4,1,0,100,0,0
93055,-66.6666666666667,4,1,0,100,0,0
93235,-100,4,1,0,100,0,0
97726,-66.6666666666667,4,1,0,100,0,0
109223,-100,4,1,0,100,0,0
123594,-133.333333333333,4,1,0,100,0,0
126468,-100,4,1,0,100,0,0
126827,-133.333333333333,4,1,0,100,0,0
129342,-200,4,1,0,100,0,0
129702,-133.333333333333,4,1,0,100,0,0
134372,-100,4,1,0,100,0,0
145510,-50,4,1,0,100,0,0
146857,-66.6666666666667,4,1,0,100,0,0
167785,-100,4,1,0,100,0,0
193294,-66.6666666666667,4,1,0,100,0,0
203264,-66.6666666666667,4,1,0,100,0,0
204522,-33.3333333333333,4,1,0,100,0,0

[HitObjects]
163,64,5928,6,0,P|133:101|175:177,1,100
200,246,6288,6,0,L|231:297,2,50
307,262,6648,2,0,L|294:176,2,50
380,166,7007,2,0,L|401:228,2,50
217,72,7366,5,0,0:0:0:0:
186,95,7456,1,0,0:0:0:0:
157,111,7546,1,0,0:0:0:0:
188,131,7636,1,0,0:0:0:0:
217,141,7726,1,0,0:0:0:0:
248,147,7815,1,0,0:0:0:0:
277,152,7905,1,0,0:0:0:0:
240,167,7995,1,0,0:0:0:0:
202,175,8085,1,0,0:0:0:0:
227,193,8175,1,0,0:0:0:0:
242,202,8264,6,0,L|244:123,1,75.0000028610231
233,59,8444,2,0,P|178:129|226:119,1,225.000008583069
262,158,8803,2,0,B|270:263|188:122|165:212,1,150.000005722046
120,225,9073,5,0,0:0:0:0:
87,208,9163,1,0,0:0:0:0:
57,189,9252,1,0,0:0:0:0:
42,163,9342,1,0,0:0:0:0:
76,152,9432,5,0,0:0:0:0:
110,145,9522,1,0,0:0:0:0:
146,139,9612,1,0,0:0:0:0:
178,138,9702,1,0,0:0:0:0:
172,168,9791,5,0,0:0:0:0:
169,190,9881,1,0,0:0:0:0:
159,225,9971,1,0,0:0:0:0:
151,253,10061,1,0,0:0:0:0:
196,257,10151,5,0,0:0:0:0:
207,224,10241,1,0,0:0:0:0:
214,190,10330,1,0,0:0:0:0:
222,158,10420,1,0,0:0:0:0:
222,100,10509,6,0,B|275:105|275:105|304:160,1,100
227,224,10869,2,0,B|264:269|264:269|328:262,1,100
396,301,11228,2,0,B|341:296|341:296|305:254,1,100
418,175,11588,2,0,P|369:133|246:129,1,150
166,43,11947,5,0,0:0:0:0:
139,66,12037,1,0,0:0:0:0:
110,88,12127,1,0,0:0:0:0:
273,45,12306,5,0,0:0:0:0:
302,68,12396,1,0,0:0:0:0:
337,86,12486,1,0,0:0:0:0:
325,296,12666,5,0,0:0:0:0:
336,265,12755,1,0,0:0:0:0:
347,232,12845,1,0,0:0:0:0:
191,156,13025,6,0,L|240:161,1,50
284,181,13205,2,0,L|340:187,1,50
312,124,13384,2,0,L|366:135,1,50
330,71,13564,2,0,L|392:76,1,50
445,84,13744,2,0,L|380:79,1,50
443,149,13923,2,0,L|380:144,1,50
455,221,14103,6,0,B|296:266|296:266|334:210,1,225.000008583069
241,125,14462,5,0,0:0:0:0:
205,144,14552,1,0,0:0:0:0:
166,163,14642,2,0,L|128:225,1,50
190,211,14821,5,0,0:0:0:0:
216,243,14911,1,0,0:0:0:0:
242,276,15001,2,0,L|198:337,1,50
161,293,15181,5,0,0:0:0:0:
211,296,15270,1,0,0:0:0:0:
251,297,15360,1,0,0:0:0:0:
290,296,15450,6,0,B|334:227|334:227|274:294|274:294|252:233|252:233|257:301|257:301|214:252|214:252,1,300.000011444092
447,68,15988,1,0,0:0:0:0:
168,62,16168,1,0,0:0:0:0:
316,340,16348,1,0,0:0:0:0:
67,328,16527,5,0,0:0:0:0:
256,197,16708,1,0,0:0:0:0:
274,232,16797,1,0,0:0:0:0:
297,260,16887,1,0,0:0:0:0:
326,289,16977,1,0,0:0:0:0:
354,313,17067,6,0,P|435:319|445:302,1,100
439,180,17515,6,0,L|421:131,1,50
377,189,17695,2,0,L|366:260,1,50
323,188,17874,2,0,L|307:137,1,50
281,193,18054,2,0,L|260:253,1,50
235,190,18234,2,0,L|219:117,1,50
186,193,18414,2,0,L|156:238,1,50
201,313,18594,6,0,L|145:311,1,50
48,306,18773,2,0,L|102:266,1,50
234,214,18953,2,0,L|150:214,1,50
57,199,19133,2,0,L|126:156,1,50
222,122,19312,2,0,L|165:120,1,50
55,115,19492,2,0,L|106:84,1,50
167,94,19672,2,0,B|87:79|87:79|198:51,1,150
276,58,20030,2,0,L|260:266,1,200
163,323,20569,6,0,L|230:291,1,50
207,260,20749,2,0,L|280:222,1,50
123,235,20928,2,0,L|199:198,1,50
174,156,21108,2,0,L|248:121,1,50
176,76,21288,6,0,L|124:74,1,50
70,85,21468,2,0,L|58:134,1,50
27,14,21648,2,0,L|29:68,1,50
30,174,21827,2,0,P|61:250|101:270,1,100
139,317,22186,6,0,P|148:246|113:204,1,100
217,81,22545,2,0,P|258:32|287:54,1,100
423,141,22905,2,0,P|448:212|397:225,1,100
239,282,23264,6,0,L|180:259,1,50
276,235,23443,2,0,L|221:234,1,50
301,175,23623,2,0,L|246:167,1,50
293,113,23803,2,0,L|243:105,1,50
263,54,23982,2,0,L|213:46,1,50
152,72,24163,2,0,L|98:89,1,50
73,206,24342,5,0,0:0:0:0:
125,165,24432,1,0,0:0:0:0:
176,121,24522,1,0,0:0:0:0:
221,72,24612,1,0,0:0:0:0:
270,115,24702,1,0,0:0:0:0:
226,168,24791,1,0,0:0:0:0:
176,216,24881,1,0,0:0:0:0:
126,259,24971,1,0,0:0:0:0:
175,307,25061,1,0,0:0:0:0:
226,266,25151,1,0,0:0:0:0:
273,219,25241,1,0,0:0:0:0:
318,161,25330,1,0,0:0:0:0:
364,113,25420,6,0,P|375:215|321:270,1,150
191,35,26049,6,0,L|142:70,1,50
152,107,26229,2,0,L|217:129,1,50
197,183,26408,2,0,L|144:199,1,50
143,247,26588,2,0,L|194:262,1,50
268,198,26767,6,0,P|342:165|264:205,1,400
145,342,27306,6,0,L|105:308,1,50
36,164,27485,2,0,B|54:98|54:98|106:82,1,100
136,163,27845,2,0,B|136:207|217:283,1,100
221,271,28114,1,0,0:0:0:0:
259,272,28204,1,0,0:0:0:0:
292,268,28294,1,0,0:0:0:0:
326,255,28384,1,0,0:0:0:0:
355,234,28473,6,0,P|427:212|440:160,1,100
374,195,28833,2,0,B|374:135|374:135|415:97,1,100
447,226,29192,2,0,B|491:283|491:283|471:347,1,100
263,179,29551,2,0,B|205:116|205:116|152:114,1,100
103,345,29911,2,0,B|58:298|58:298|59:230,1,100
375,267,30270,6,0,P|348:192|269:169,1,150
121,122,30629,2,0,L|232:98,1,100
430,70,30989,2,0,B|337:26|337:26|211:41,1,200
100,224,31707,2,0,B|152:209|152:209|187:244,1,100
327,330,32066,2,0,B|369:293|369:293|389:240,1,100
205,116,32426,2,0,B|203:64|203:64|251:25,1,100
424,46,32785,6,0,B|460:99|460:99|433:176,1,100
164,47,33144,2,0,L|47:56,1,100
214,328,33503,6,0,L|152:318,1,50
209,262,33683,2,0,L|151:264,1,50
210,198,33863,2,0,L|104:204,1,100
129,273,34222,6,0,L|115:327,1,50
29,170,34402,2,0,L|9:245,1,50
108,103,34581,2,0,L|70:259,1,150
32,315,34940,6,0,B|37:364|37:364|106:343,1,100
175,232,35300,2,0,P|129:179|207:199,1,200
338,55,35659,6,0,B|402:49|402:49|424:83,1,100
455,350,36018,2,0,B|385:364|385:364|362:318,1,100
70,197,36378,2,0,B|104:140|104:140|144:165,1,100
488,194,36737,2,0,B|433:201|433:201|394:247,1,100
248,308,37096,6,0,B|202:354|202:354|166:323,1,100
85,128,37455,2,0,P|82:64|91:130,1,200
66,347,37815,6,0,B|125:355|125:355|174:309,1,100
212,162,38175,2,0,B|216:57|216:57|328:40,1,200
444,276,38533,2,0,B|485:221|485:221|439:234,1,100
233,300,38893,2,0,B|180:349|180:349|130:317,1,100
118,39,39252,6,0,L|47:36,1,50
111,109,39431,2,0,L|35:92,1,50
114,176,39611,2,0,B|39:175|39:175|101:222,1,150
123,215,39970,1,0,0:0:0:0:
215,219,40150,1,0,0:0:0:0:
303,222,40330,6,0,L|299:280,1,50
358,161,40509,2,0,L|358:226,1,50
433,133,40689,2,0,B|429:205|429:205|386:214,1,100
252,217,41048,2,0,B|251:134|251:134|288:100,1,100
348,107,41408,2,0,P|223:49|158:65,1,150.000005722046
71,114,41767,6,0,P|30:181|31:224,1,100
374,343,42127,2,0,P|388:278|437:240,1,100
268,34,42485,2,0,P|343:61|350:119,1,100
195,332,42845,1,0,0:0:0:0:
94,66,43024,1,0,0:0:0:0:
285,270,43204,6,0,B|341:235|341:235|349:191,1,100
454,139,43563,2,0,L|444:261,1,100
447,329,43923,1,0,0:0:0:0:
383,320,44012,1,0,0:0:0:0:
323,310,44102,1,0,0:0:0:0:
263,171,44282,6,0,B|206:206|206:206|200:243,1,100
133,314,44641,2,0,B|88:275|88:275|50:301,1,100
69,246,45001,6,0,L|126:216,1,50
56,185,45180,2,0,L|119:178,1,50
51,125,45360,2,0,B|60:72|60:72|132:79,1,100
186,73,45809,6,0,L|211:120,1,50
299,317,46078,2,0,B|362:285|362:285|377:235,1,100
304,150,46437,2,0,P|343:132|341:130,1,75.0000028610231
213,196,46797,2,0,P|118:239|218:207,1,300
268,176,47247,6,0,B|272:117|272:117|316:98,1,100
489,108,47606,2,0,B|457:155|457:155|399:113,1,100
455,32,47875,1,0,0:0:0:0:
328,24,47965,2,0,L|420:71,1,100
389,167,48324,2,0,L|278:121,1,100
230,220,48593,6,0,L|279:209,1,50
239,177,48773,2,0,L|279:209,1,50
279,209,48952,2,0,B|260:278|260:278|287:308,1,100
228,348,49312,5,0,0:0:0:0:
267,351,49402,2,0,L|378:352,1,100
395,350,49671,2,0,L|312:198,1,150.000005722046
267,105,50121,6,0,P|198:120|188:159,1,100
258,276,50480,2,0,P|204:299|124:284,1,100
143,223,50839,2,0,L|219:214,1,50
138,150,51018,2,0,L|208:148,1,50
143,74,51198,2,0,L|272:22,1,100
256,275,51558,6,0,B|257:208|257:208|298:182,1,100
400,60,51917,1,0,0:0:0:0:
106,246,52097,6,0,B|116:183|116:183|81:155,1,100
329,125,52456,2,0,B|293:196|293:196|314:240,1,100
139,322,52815,1,0,0:0:0:0:
432,220,52995,1,0,0:0:0:0:
136,83,53175,1,0,0:0:0:0:
387,79,53354,6,0,B|343:126|343:126|289:122,1,100
76,242,53714,1,0,0:0:0:0:
246,294,53893,6,0,B|314:300|314:300|335:238,1,100
124,115,54252,1,0,0:0:0:0:
361,146,54522,6,0,P|385:206|376:243,1,100
168,281,54881,2,0,L|162:160,1,100
196,46,55241,1,0,0:0:0:0:
416,297,55420,1,0,0:0:0:0:
87,296,55600,1,0,0:0:0:0:
360,116,55779,2,0,P|364:177|401:182,1,100
107,44,56139,5,0,0:0:0:0:
272,242,56318,2,0,P|230:308|181:326,1,100
405,59,56678,2,0,P|415:135|469:162,1,100
159,80,57037,2,0,L|83:52,2,50
105,300,57396,6,0,P|149:239|137:206,1,100
426,114,57755,2,0,P|371:77|368:31,1,100
318,266,58115,2,0,P|253:236|207:262,1,100
66,287,58474,1,0,0:0:0:0:
466,51,58654,1,0,0:0:0:0:
195,339,58833,1,0,0:0:0:0:
391,4,59013,1,0,0:0:0:0:
334,333,59193,2,0,L|289:210,1,100
135,52,59552,2,0,L|172:166,1,100
461,338,59911,5,0,0:0:0:0:
57,171,60091,1,0,0:0:0:0:
104,321,60270,1,0,0:0:0:0:
161,52,60450,1,0,0:0:0:0:
235,321,60630,2,0,P|211:253|179:239,1,100
345,108,60989,2,0,P|364:170|404:183,1,100
130,113,61348,1,0,0:0:0:0:
377,323,61528,1,0,0:0:0:0:
422,113,61708,2,0,L|360:77,2,50
456,313,62067,5,0,0:0:0:0:
225,65,62247,1,0,0:0:0:0:
56,168,62426,2,0,P|55:244|74:253,1,100
286,312,62785,2,0,P|254:244|271:212,1,100
398,172,63144,6,0,B|291:213|291:213|235:300|235:300|138:263,1,300
222,142,63863,2,0,B|114:93|114:93|219:57|219:57|319:91,1,300
127,161,64581,2,0,B|70:242|70:242|177:312|177:312|61:333,1,300
304,320,65300,2,0,B|230:241|230:241|319:174|319:174|248:98,1,300
314,44,66018,2,0,B|367:144|367:144|424:68|424:68|492:170,1,300
382,252,66827,6,0,P|273:308|260:263,1,200
88,115,67635,2,0,B|135:218|135:218|213:165,2,200
264,303,68714,2,0,B|230:346|230:346|306:341,1,100
402,283,69342,2,0,B|346:167|346:167|443:119,2,200
236,27,70330,6,0,P|202:91|213:99,1,100
336,227,70690,2,0,B|256:297|256:297|127:246,1,200
317,68,71229,1,0,0:0:0:0:
53,34,71587,2,0,B|28:89|28:89|57:117,1,100
179,37,71946,2,0,B|210:81|210:81|172:135,1,100
201,259,72306,2,0,B|152:219|152:219|162:172,1,100
19,248,72665,2,0,B|59:193|59:193|50:140,1,100
94,103,73024,6,0,L|222:108,1,100
232,236,73384,2,0,L|292:235,2,50
407,84,73743,5,0,0:0:0:0:
412,150,73833,1,0,0:0:0:0:
413,215,73923,2,0,L|310:314,1,100
198,267,74282,6,0,L|295:177,1,100
131,94,74732,5,0,0:0:0:0:
124,142,74821,1,0,0:0:0:0:
117,189,74911,2,0,L|176:197,1,50
306,120,75091,1,0,0:0:0:0:
299,155,75181,1,0,0:0:0:0:
294,195,75270,2,0,L|321:252,1,50
447,318,75450,5,0,0:0:0:0:
450,277,75540,1,0,0:0:0:0:
451,236,75630,1,0,0:0:0:0:
452,196,75720,2,0,L|487:144,2,50
445,109,75989,6,0,L|398:162,2,50
311,110,76258,1,0,0:0:0:0:
283,82,76348,1,0,0:0:0:0:
250,58,76438,2,0,L|205:24,1,50
151,94,76618,1,0,0:0:0:0:
180,115,76708,1,0,0:0:0:0:
210,135,76797,1,0,0:0:0:0:
246,156,76887,2,0,L|291:204,3,50
247,292,77247,5,0,0:0:0:0:
286,265,77336,1,0,0:0:0:0:
317,235,77426,1,0,0:0:0:0:
343,193,77516,1,0,0:0:0:0:
359,152,77606,2,0,P|393:102|435:171,1,150
444,252,77965,6,0,L|387:232,1,50
353,213,78145,1,0,0:0:0:0:
317,193,78235,2,0,P|287:151|311:106,1,100
317,67,78504,5,0,0:0:0:0:
293,100,78594,1,0,0:0:0:0:
270,126,78684,2,0,L|239:174,1,50
254,289,78863,1,0,0:0:0:0:
285,252,78953,1,0,0:0:0:0:
272,202,79043,1,0,0:0:0:0:
212,192,79133,2,0,L|187:252,1,50
119,228,79312,6,0,P|100:176|130:134,1,100
225,317,79761,6,0,P|148:257|229:310,1,200
237,152,80120,2,0,L|304:154,1,50
353,195,80479,2,0,L|371:138,1,50
410,226,80659,2,0,L|419:292,1,50
471,219,80839,2,0,L|496:163,1,50
301,344,81198,6,0,P|259:288|299:258,1,100
295,215,81557,2,0,P|296:101|266:228,1,400
247,229,82006,6,0,P|196:191|281:181,1,150.000005722046
313,153,82366,2,0,P|343:80|285:45,1,150.000005722046
389,211,82725,2,0,L|426:133,1,75.0000028610231
451,240,82905,2,0,L|478:165,1,75.0000028610231
492,267,83084,2,0,B|494:351|494:351|422:382,1,150.000005722046
423,288,83443,2,0,B|362:238|362:238|382:166,1,150.000005722046
280,99,83803,6,0,P|223:42|154:57,1,150.000005722046
59,229,84162,2,0,B|38:302|38:302|91:367,1,150.000005722046
278,287,84521,2,0,P|326:192|291:135,1,150.000005722046
406,290,84881,6,0,P|437:211|407:140,1,150.000005722046
220,57,85241,2,0,B|170:127|173:130|170:126|174:121|155:189|152:186|155:190|158:214,1,150.000005722046
240,322,85599,6,0,L|233:235,1,75.0000028610231
179,321,85779,2,0,L|166:243,1,75.0000028610231
119,329,85958,2,0,L|93:255,1,75.0000028610231
137,139,86228,6,0,B|131:223|131:223|205:264,1,150.000005722046
152,312,86587,2,0,L|51:357,1,100
57,271,86946,2,0,L|55:166,1,100
51,35,87306,2,0,L|136:110,1,100
206,279,87665,2,0,L|320:202,1,100
467,49,88024,2,0,L|368:131,1,100
199,345,88384,2,0,L|330:343,1,100
469,191,88743,6,0,L|395:109,1,100
101,41,89102,1,0,0:0:0:0:
451,31,89282,1,0,0:0:0:0:
51,144,89461,1,0,0:0:0:0:
403,342,89641,1,0,0:0:0:0:
385,82,89821,6,0,L|293:138,1,100
50,350,90180,1,0,0:0:0:0:
429,165,90360,1,0,0:0:0:0:
50,277,90539,1,0,0:0:0:0:
439,54,90719,1,0,0:0:0:0:
120,63,90899,6,0,L|112:179,1,100
216,300,91258,2,0,L|250:190,1,100
400,102,91617,2,0,L|436:236,1,100
304,207,91977,6,0,L|252:240,1,50
346,249,92157,2,0,L|300:288,1,50
401,280,92336,2,0,B|449:230|449:230|434:186,1,100
362,34,92696,2,0,L|259:54,1,100
70,152,93055,2,0,B|14:235|14:235|78:300,1,150.000005722046
266,248,93414,6,0,P|288:306|356:306,1,100
459,111,93773,2,0,P|425:63|374:45,1,100
369,331,94133,1,0,0:0:0:0:
388,46,94312,1,0,0:0:0:0:
187,179,94492,2,0,P|126:193|119:253,1,100
215,331,94851,5,0,0:0:0:0:
69,288,95031,2,0,P|37:210|62:166,1,100
332,67,95570,2,0,P|432:39|496:74,1,150
206,72,95929,2,0,L|104:225,1,150
191,284,96288,6,0,B|230:353|230:353|331:349,1,150
391,210,96648,2,0,L|414:338,1,100
287,346,97007,2,0,L|222:347,1,50
255,285,97187,2,0,L|206:283,1,50
241,219,97366,2,0,B|177:259|177:259|150:278,1,100
323,266,97726,6,0,B|267:189|267:189|213:262,1,150.000005722046
80,315,98264,2,0,B|30:251|30:251|88:195,1,150.000005722046
296,336,98624,1,0,0:0:0:0:
138,52,98803,2,0,B|216:98|216:98|266:45,1,150.000005722046
374,227,99163,2,0,B|462:281|462:281|446:344,1,150.000005722046
140,126,99522,1,0,0:0:0:0:
315,114,99702,6,0,B|263:41|263:41|185:51,1,150.000005722046
151,324,100061,2,0,B|55:313|55:313|28:222,1,150.000005722046
249,223,100420,1,0,0:0:0:0:
35,92,100600,2,0,B|90:21|90:21|175:19,1,150.000005722046
184,287,100959,1,0,0:0:0:0:
392,117,101139,1,0,0:0:0:0:
177,75,101318,6,0,P|137:157|165:218,1,150.000005722046
393,197,101678,2,0,P|404:293|344:338,1,150.000005722046
200,107,102037,1,0,0:0:0:0:
377,225,102217,2,0,P|319:274|245:234,1,150.000005722046
370,59,102576,2,0,B|286:38|286:38|226:80,1,150.000005722046
174,254,102935,1,0,0:0:0:0:
100,351,103115,6,0,B|83:271|83:271|39:346,1,150.000005722046
237,190,103474,1,0,0:0:0:0:
15,88,103654,1,0,0:0:0:0:
247,24,103833,2,0,B|180:92|180:92|206:176,1,150.000005722046
88,303,104193,2,0,B|83:242|83:242|148:170,1,150.000005722046
300,263,104552,1,0,0:0:0:0:
191,124,104732,6,0,P|138:58|182:32,1,150.000005722046
442,21,105091,1,0,0:0:0:0:
454,209,105270,2,0,B|377:262|377:262|297:219,1,150.000005722046
111,187,105630,1,0,0:0:0:0:
288,38,105809,1,0,0:0:0:0:
388,298,105989,1,0,0:0:0:0:
263,123,106169,6,0,B|344:118|344:118|352:202,1,150.000005722046
392,360,106528,2,0,B|470:352|470:352|462:274,1,150.000005722046
437,42,106887,1,0,0:0:0:0:
358,274,107067,1,0,0:0:0:0:
154,76,107247,2,0,P|194:158|139:199,1,150.000005722046
48,352,107606,1,0,0:0:0:0:
77,262,107785,6,0,L|170:257,2,75.0000028610231
233,72,108145,2,0,P|314:94|321:179,1,150.000005722046
295,324,108504,2,0,P|374:326|383:246,1,150.000005722046
157,61,108863,1,0,0:0:0:0:
341,82,109223,6,0,P|357:135|429:163,1,100
340,347,109582,2,0,L|229:329,1,100
135,131,109941,2,0,L|89:234,1,100
405,289,110300,2,0,L|414:163,1,100
147,313,110660,2,0,P|89:278|83:232,1,100
84,96,111019,6,0,L|74:211,1,100
327,48,111378,2,0,L|395:144,1,100
414,317,111738,2,0,L|433:201,1,100
209,131,112097,2,0,L|192:270,1,100
389,28,112456,6,0,P|366:105|310:115,1,100
101,190,112815,2,0,L|174:293,1,100
382,246,113175,2,0,P|428:318|400:357,1,100
41,99,113534,2,0,P|66:148|123:151,1,100
445,134,113893,2,0,P|360:111|345:61,1,100
251,319,114252,2,0,L|196:207,1,100
106,41,114612,6,0,L|37:137,1,100
162,336,114971,2,0,L|202:208,1,100
355,80,115330,2,0,L|459:161,1,100
286,352,115690,2,0,L|274:230,1,100
398,93,116049,2,0,L|305:197,1,100
254,338,116408,2,0,L|146:293,1,100
79,102,116767,2,0,L|195:42,1,100
295,157,117127,6,0,L|404:227,1,100
122,319,117486,2,0,L|127:171,1,100
429,62,117845,2,0,L|319:83,1,100
230,73,118205,2,0,L|256:169,1,100
420,327,118564,2,0,L|291:370,1,100
41,206,118923,2,0,L|172:166,1,100
363,114,119282,2,0,L|393:160,2,50
107,144,119642,2,0,B|114:77|114:77|161:61,1,100
180,270,120001,6,0,P|257:242|259:251,1,100
465,276,120360,2,0,P|482:227|459:179,1,100
234,25,120720,2,0,B|145:91|145:91|13:80,1,200
196,202,121438,2,0,B|317:228|317:228|334:348,1,200
101,334,122157,2,0,P|38:253|91:165,1,200
305,48,122875,2,0,P|375:118|303:222,1,200
81,216,123594,6,0,B|140:142|140:142|215:135,1,150.000005722046
372,339,124312,2,0,B|386:261|386:261|307:328,1,150.000005722046
247,71,125031,2,0,B|332:81|332:81|392:30,1,150.000005722046
163,231,125749,2,0,B|86:252|86:252|159:304,1,150.000005722046
323,126,126468,6,0,B|403:203|403:203|283:243,1,200
163,316,127187,2,0,B|106:253|106:253|106:186,1,150.000005722046
351,83,127905,2,0,B|407:173|407:173|411:239,1,150.000005722046
183,328,128624,2,0,B|263:315|263:315|270:227,1,150.000005722046
352,43,129342,6,0,P|298:61|305:70,1,100
119,189,130061,2,0,B|93:267|93:267|142:319,1,150.000005722046
290,258,130779,2,0,B|381:306|381:306|436:280,1,150.000005722046
382,167,131498,2,0,B|462:106|462:106|441:33,1,150.000005722046
256,192,132217,12,0,134372,0:0:0:0:
130,146,134732,5,0,0:0:0:0:
155,163,134821,1,0,0:0:0:0:
182,176,134911,1,0,0:0:0:0:
213,185,135001,1,0,0:0:0:0:
246,177,135091,1,0,0:0:0:0:
266,157,135181,1,0,0:0:0:0:
284,127,135270,1,0,0:0:0:0:
291,98,135360,1,0,0:0:0:0:
302,63,135450,5,0,0:0:0:0:
261,58,135540,1,0,0:0:0:0:
225,61,135630,1,0,0:0:0:0:
186,57,135720,1,0,0:0:0:0:
148,54,135809,1,0,0:0:0:0:
112,53,135899,1,0,0:0:0:0:
74,53,135989,1,0,0:0:0:0:
36,54,136079,1,0,0:0:0:0:
50,88,136169,5,0,0:0:0:0:
75,117,136258,1,0,0:0:0:0:
103,143,136348,1,0,0:0:0:0:
132,169,136438,1,0,0:0:0:0:
157,191,136528,1,0,0:0:0:0:
184,212,136618,1,0,0:0:0:0:
211,235,136708,1,0,0:0:0:0:
241,258,136797,1,0,0:0:0:0:
258,214,136887,5,0,0:0:0:0:
243,154,136977,1,0,0:0:0:0:
197,112,137067,1,0,0:0:0:0:
150,83,137157,1,0,0:0:0:0:
129,51,137247,5,0,0:0:0:0:
164,36,137336,1,0,0:0:0:0:
202,31,137426,1,0,0:0:0:0:
241,35,137516,1,0,0:0:0:0:
276,52,137606,1,0,0:0:0:0:
305,76,137696,1,0,0:0:0:0:
335,98,137785,1,0,0:0:0:0:
366,120,137875,1,0,0:0:0:0:
336,152,137965,5,0,0:0:0:0:
286,137,138055,1,0,0:0:0:0:
231,148,138145,1,0,0:0:0:0:
184,167,138235,1,0,0:0:0:0:
167,216,138324,1,0,0:0:0:0:
184,265,138414,1,0,0:0:0:0:
229,296,138504,1,0,0:0:0:0:
283,302,138594,1,0,0:0:0:0:
308,251,138684,5,0,0:0:0:0:
321,206,138773,1,0,0:0:0:0:
360,183,138863,1,0,0:0:0:0:
404,190,138953,1,0,0:0:0:0:
436,215,139043,1,0,0:0:0:0:
451,251,139133,1,0,0:0:0:0:
438,284,139223,1,0,0:0:0:0:
407,307,139312,1,0,0:0:0:0:
383,284,139402,5,0,0:0:0:0:
379,249,139492,1,0,0:0:0:0:
379,217,139582,1,0,0:0:0:0:
379,181,139672,1,0,0:0:0:0:
376,141,139761,1,0,0:0:0:0:
366,106,139851,1,0,0:0:0:0:
349,79,139941,1,0,0:0:0:0:
317,49,140031,1,0,0:0:0:0:
257,52,140121,5,0,0:0:0:0:
312,40,140211,1,0,0:0:0:0:
364,39,140300,1,0,0:0:0:0:
415,62,140390,1,0,0:0:0:0:
444,102,140480,1,0,0:0:0:0:
461,156,140570,1,0,0:0:0:0:
457,212,140660,1,0,0:0:0:0:
437,261,140749,1,0,0:0:0:0:
377,266,140839,5,0,0:0:0:0:
356,209,140929,1,0,0:0:0:0:
342,153,141019,1,0,0:0:0:0:
331,94,141109,1,0,0:0:0:0:
279,72,141199,1,0,0:0:0:0:
231,98,141288,1,0,0:0:0:0:
191,141,141378,1,0,0:0:0:0:
176,201,141468,1,0,0:0:0:0:
160,257,141558,5,0,0:0:0:0:
148,195,141648,1,0,0:0:0:0:
157,134,141738,1,0,0:0:0:0:
196,82,141827,1,0,0:0:0:0:
250,46,141917,5,0,0:0:0:0:
285,95,142007,5,0,0:0:0:0:
305,150,142097,1,0,0:0:0:0:
314,208,142187,1,0,0:0:0:0:
299,267,142276,1,0,0:0:0:0:
251,305,142366,1,0,0:0:0:0:
191,317,142456,1,0,0:0:0:0:
128,313,142546,1,0,0:0:0:0:
66,286,142636,5,0,0:0:0:0:
111,336,142726,1,0,0:0:0:0:
180,354,142815,1,0,0:0:0:0:
250,347,142905,1,0,0:0:0:0:
312,314,142995,1,0,0:0:0:0:
366,265,143085,1,0,0:0:0:0:
404,206,143175,1,0,0:0:0:0:
421,137,143264,1,0,0:0:0:0:
431,68,143354,5,0,0:0:0:0:
435,108,143444,1,0,0:0:0:0:
441,145,143534,1,0,0:0:0:0:
445,180,143624,1,0,0:0:0:0:
448,219,143714,1,0,0:0:0:0:
417,243,143803,1,0,0:0:0:0:
386,264,143893,1,0,0:0:0:0:
355,284,143983,1,0,0:0:0:0:
335,240,144073,5,0,0:0:0:0:
359,199,144163,1,0,0:0:0:0:
382,158,144252,1,0,0:0:0:0:
351,125,144342,1,0,0:0:0:0:
305,104,144432,1,0,0:0:0:0:
261,84,144522,1,0,0:0:0:0:
205,52,144612,5,0,0:0:0:0:
257,9,144702,1,0,0:0:0:0:
321,0,144791,1,0,0:0:0:0:
388,23,144881,1,0,0:0:0:0:
442,71,144971,1,0,0:0:0:0:
457,138,145061,1,0,0:0:0:0:
442,207,145151,1,0,0:0:0:0:
397,264,145241,1,0,0:0:0:0:
342,307,145330,1,0,0:0:0:0:
276,331,145420,1,0,0:0:0:0:
207,344,145510,6,0,P|123:258|256:325,1,400
276,331,145959,5,0,0:0:0:0:
228,343,146049,1,0,0:0:0:0:
180,337,146139,1,0,0:0:0:0:
142,316,146229,1,0,0:0:0:0:
124,273,146318,1,0,0:0:0:0:
131,228,146408,1,0,0:0:0:0:
173,189,146498,1,0,0:0:0:0:
216,163,146588,1,0,0:0:0:0:
266,139,146678,1,0,0:0:0:0:
324,119,146767,1,0,0:0:0:0:
388,109,146857,6,0,L|465:106,1,75.0000028610231
473,167,147037,2,0,L|393:172,1,75.0000028610231
391,225,147217,2,0,L|467:224,1,75.0000028610231
466,275,147396,2,0,L|389:274,1,75.0000028610231
309,286,147576,6,0,L|386:280,1,75.0000028610231
468,284,147755,2,0,L|391:280,1,75.0000028610231
325,192,147935,2,0,L|345:7,1,150.000005722046
462,41,148205,2,0,B|494:119|494:119|430:247,1,225.000008583069
448,357,148564,2,0,L|369:323,1,75.0000028610231
331,314,148744,5,0,0:0:0:0:
276,314,148833,1,0,0:0:0:0:
228,288,148923,1,0,0:0:0:0:
261,251,149013,1,0,0:0:0:0:
310,245,149103,1,0,0:0:0:0:
353,226,149193,1,0,0:0:0:0:
359,182,149282,1,0,0:0:0:0:
317,172,149372,1,0,0:0:0:0:
276,171,149462,1,0,0:0:0:0:
226,159,149552,1,0,0:0:0:0:
198,131,149642,1,0,0:0:0:0:
181,77,149732,6,0,L|262:63,1,75.0000028610231
375,84,149911,2,0,L|299:53,1,75.0000028610231
197,145,150091,2,0,L|272:100,1,75.0000028610231
363,144,150270,2,0,L|257:93,1,75.0000028610231
207,214,150450,2,0,L|277:152,1,75.0000028610231
341,217,150630,6,0,L|282:131,1,75.0000028610231
229,272,150809,2,0,L|318:253,1,75.0000028610231
302,325,150989,2,0,L|322:239,1,75.0000028610231
394,306,151169,2,0,L|338:246,1,75.0000028610231
399,222,151348,2,0,L|305:280,1,75.0000028610231
368,152,151528,2,0,L|315:209,1,75.0000028610231
308,96,151708,2,0,L|273:163,1,75.0000028610231
237,70,151887,2,0,L|241:149,1,75.0000028610231
180,77,152067,6,0,L|224:174,1,75.0000028610231
133,101,152247,2,0,L|195:166,1,75.0000028610231
100,146,152426,6,0,L|178:217,1,75.0000028610231
34,222,152606,2,0,L|100:166,1,75.0000028610231
146,253,152785,2,0,L|74:193,1,75.0000028610231
39,295,152965,2,0,L|96:226,1,75.0000028610231
146,312,153145,2,0,L|96:234,1,75.0000028610231
48,355,153324,2,0,L|91:281,1,75.0000028610231
119,356,153504,2,0,B|100:262|100:262|168:149,1,225.000008583069
225,193,153863,2,0,B|180:282|180:282|205:381,1,150.000005722046
271,310,154133,6,0,L|345:327,1,75.0000028610231
302,267,154312,2,0,L|386:297,1,75.0000028610231
347,228,154492,2,0,L|418:262,1,75.0000028610231
385,186,154672,2,0,L|477:212,1,75.0000028610231
464,205,154851,6,0,L|417:141,1,75.0000028610231
463,96,155031,2,0,B|396:26|396:26|272:63,1,225.000008583069
107,182,155480,6,0,L|144:117,1,75.0000028610231
69,116,155660,2,0,L|144:117,1,75.0000028610231
127,43,155839,2,0,L|144:117,1,75.0000028610231
144,117,156019,2,0,B|224:116|224:116|286:187,1,150.000005722046
299,195,156288,1,0,0:0:0:0:
325,169,156378,1,0,0:0:0:0:
336,127,156468,1,0,0:0:0:0:
333,87,156558,1,0,0:0:0:0:
310,53,156648,6,0,P|213:60|99:133,1,225.000008583069
81,258,157097,5,0,0:0:0:0:
244,63,157276,1,0,0:0:0:0:
207,345,157456,1,0,0:0:0:0:
413,80,157636,1,0,0:0:0:0:
468,351,157815,1,0,0:0:0:0:
155,115,157995,1,0,0:0:0:0:
199,171,158085,5,0,0:0:0:0:
216,216,158175,1,0,0:0:0:0:
222,258,158264,1,0,0:0:0:0:
226,294,158354,1,0,0:0:0:0:
261,273,158444,5,0,0:0:0:0:
276,228,158534,1,0,0:0:0:0:
274,182,158624,1,0,0:0:0:0:
261,141,158714,1,0,0:0:0:0:
299,113,158803,5,0,0:0:0:0:
323,146,158893,1,0,0:0:0:0:
338,187,158983,1,0,0:0:0:0:
365,233,159073,6,0,L|429:173,1,75.0000028610231
476,107,159252,2,0,B|343:51|343:51|309:162,1,225.000008583069
130,221,159881,1,0,0:0:0:0:
81,239,159971,6,0,L|111:308,1,75.0000028610231
132,236,160150,2,0,L|111:308,1,75.0000028610231
168,259,160330,2,0,L|111:308,1,75.0000028610231
49,171,160510,2,0,L|91:260,1,75.0000028610231
49,171,160690,2,0,L|126:210,1,75.0000028610231
49,171,160869,2,0,L|141:151,1,75.0000028610231
201,133,161049,6,0,L|109:159,1,75.0000028610231
201,133,161229,2,0,B|181:216|181:216|226:269,1,150.000005722046
336,350,161588,2,0,B|417:358|417:358|478:301,1,150.000005722046
455,95,161947,2,0,P|387:35|307:23,1,150.000005722046
97,238,162306,2,0,P|76:315|119:260,1,150.000005722046
302,280,162666,6,0,L|237:224,1,75.0000028610231
327,242,162845,2,0,L|249:228,1,75.0000028610231
326,195,163025,2,0,L|248:229,1,75.0000028610231
313,154,163205,2,0,L|251:223,1,75.0000028610231
288,115,163384,2,0,L|412:127,1,75.0000028610231
292,74,163564,2,0,B|378:126|368:118,1,75.0000028610231
305,42,163744,2,0,L|362:113,1,75.0000028610231
368,130,163923,5,0,0:0:0:0:
326,145,164013,1,0,0:0:0:0:
278,164,164103,1,0,0:0:0:0:
324,172,164193,1,0,0:0:0:0:
366,186,164282,1,0,0:0:0:0:
325,204,164372,1,0,0:0:0:0:
286,218,164462,1,0,0:0:0:0:
320,227,164552,1,0,0:0:0:0:
357,234,164642,1,0,0:0:0:0:
395,240,164732,1,0,0:0:0:0:
363,278,164821,2,0,B|252:232|252:232|177:335,1,225.000008583069
123,330,165450,6,0,L|170:239,1,75.0000028610231
95,304,165630,2,0,L|171:256,1,75.0000028610231
72,267,165809,2,0,L|158:250,1,75.0000028610231
67,215,165989,2,0,L|156:256,1,75.0000028610231
91,180,166169,2,0,B|154:257|154:257|205:137,1,225.000008583069
310,179,166708,6,0,L|376:230,1,75.0000028610231
454,180,166887,2,0,L|440:87,1,75.0000028610231
389,48,167067,2,0,L|319:125,1,75.0000028610231
301,286,167336,2,0,L|239:223,1,75.0000028610231
167,179,167516,2,0,L|112:279,1,75.0000028610231
152,339,167696,2,0,L|258:321,1,75.0000028610231
359,326,167875,6,0,P|350:259|390:226,1,100
422,117,168235,2,0,P|383:72|339:64,1,100
248,235,168594,2,0,P|230:281|176:309,1,100
79,137,168953,2,0,P|76:69|107:45,1,100
357,103,169312,2,0,P|307:53|237:58,1,100
45,76,169672,6,0,P|116:127|109:158,1,100
198,289,170031,2,0,P|262:267|274:235,1,100
334,45,170390,2,0,P|394:46|427:80,1,100
385,313,170749,2,0,P|311:267|269:287,1,100
141,126,171109,2,0,B|109:175|109:175|120:228,1,100
422,137,171468,2,0,B|459:194|459:194|433:241,1,100
111,329,171827,6,0,L|186:221,1,100
84,70,172187,2,0,P|135:51|107:93,1,100
348,280,172546,2,0,P|397:298|390:244,1,100
235,37,172905,2,0,L|244:159,1,100
453,307,173264,2,0,B|409:347|409:347|359:308,1,100
297,98,173624,6,0,B|253:56|253:56|183:72,1,100
95,220,173983,2,0,P|52:278|60:305,1,100
234,326,174342,2,0,L|317:258,1,100
131,120,174702,2,0,B|206:117|206:117|223:73,1,100
431,62,175061,2,0,P|365:63|391:99,1,100
428,188,175420,2,0,L|439:303,1,100
284,324,175779,6,0,B|213:332|213:332|166:295,1,100
351,109,176139,2,0,P|291:128|230:92,1,100
143,71,176498,2,0,P|93:60|92:123,1,100
128,281,176857,2,0,P|105:345|154:345,1,100
316,317,177127,2,0,L|335:199,1,100
255,30,177486,2,0,L|350:77,1,100
96,166,177845,2,0,B|166:175|166:175|185:129,1,100
430,302,178205,2,0,B|378:261|378:261|333:256,1,100
110,38,178564,6,0,P|43:105|61:132,1,100
294,246,178923,2,0,P|284:303|240:319,1,100
50,276,179282,2,0,P|45:192|68:163,1,100
160,336,179642,2,0,L|257:290,1,100
370,37,180001,2,0,B|408:102|408:102|397:150,1,100
344,330,180360,2,0,B|426:330|426:330|446:302,1,100
421,112,180720,2,0,B|392:40|392:40|342:32,1,100
63,168,181079,6,0,L|147:259,1,100
455,220,181438,2,0,P|452:290|422:301,1,100
155,214,181797,2,0,P|153:150|104:93,1,100
425,110,182157,2,0,P|393:157|400:214,1,100
152,346,182516,2,0,L|202:230,1,100
361,201,182875,6,0,L|377:309,1,100
165,258,183235,2,0,L|150:118,1,100
427,160,183594,2,0,P|372:136|307:144,1,100
113,60,183953,2,0,B|114:126|114:126|74:166,1,100
234,330,184312,2,0,P|324:348|368:327,1,100
265,233,184672,6,0,B|218:184|218:184|265:149,1,100
317,139,184941,2,0,P|293:72|261:56,1,100
393,248,185300,2,0,P|357:305|312:318,1,100
102,111,185660,2,0,P|94:179|58:221,1,100
282,341,186019,2,0,P|355:317|359:292,1,100
410,127,186379,2,0,P|400:59|367:27,1,100
103,167,186738,6,0,P|69:214|77:267,1,100
360,358,187097,2,0,L|441:277,1,100
222,33,187456,2,0,L|231:174,1,100
453,145,187815,2,0,L|373:52,1,100
194,315,188175,2,0,P|130:315|105:268,1,100
118,39,188534,2,0,B|172:79|172:79|231:63,1,100
400,73,188893,6,0,B|464:93|464:93|440:150,1,100
407,304,189252,2,0,L|302:274,1,100
60,72,189612,2,0,B|42:125|42:125|97:118,1,100
310,276,189971,2,0,P|326:206|301:162,1,100
280,99,190241,2,0,P|347:55|368:84,1,100
392,148,190600,6,0,P|400:223|381:277,1,100
253,263,190959,2,0,B|300:326|300:326|346:321,1,100
389,263,191318,2,0,L|312:173,1,100
273,78,191678,2,0,B|213:121|213:121|206:169,1,100
192,248,192037,2,0,B|266:254|266:254|295:218,1,100
320,151,192396,2,0,P|382:144|390:181,1,100
366,286,192755,2,0,L|268:212,1,100
152,195,193115,2,0,P|143:140|165:146,1,100
199,116,193384,6,0,B|226:212|226:212|301:215,1,150.000005722046
416,249,193744,2,0,L|325:236,1,75.0000028610231
416,187,193923,2,0,L|334:236,1,75.0000028610231
398,128,194103,2,0,B|320:198|320:198|213:122,1,225.000008583069
192,19,194462,6,0,L|196:113,1,75.0000028610231
252,26,194642,2,0,L|201:106,1,75.0000028610231
304,55,194821,2,0,L|234:115,1,75.0000028610231
261,155,195001,6,0,L|332:123,1,75.0000028610231
364,173,195181,2,0,L|287:208,1,75.0000028610231
327,255,195360,2,0,L|399:218,1,75.0000028610231
429,264,195540,2,0,L|356:311,1,75.0000028610231
388,345,195720,2,0,L|457:309,1,75.0000028610231
454,310,195899,2,0,P|394:346|286:216,1,225.000008583069
200,160,196528,6,0,L|178:240,1,75.0000028610231
152,140,196708,2,0,L|125:216,1,75.0000028610231
103,116,196887,2,0,B|89:215|89:215|189:301,1,225.000008583069
250,287,197247,6,0,L|197:225,1,75.0000028610231
277,226,197426,6,0,L|313:305,1,75.0000028610231
280,177,197606,6,0,L|211:225,1,75.0000028610231
295,123,197785,6,0,L|345:204,1,75.0000028610231
292,61,197965,6,0,B|228:130|228:130|62:25,1,225.000008583069
141,235,198594,6,0,P|144:323|227:352,1,150.000005722046
352,340,198953,2,0,P|434:305|442:221,1,150.000005722046
344,97,199312,2,0,L|290:22,1,75.0000028610231
266,117,199492,2,0,L|272:38,1,75.0000028610231
190,101,199672,2,0,B|213:26|213:26|151:74,1,150.000005722046
63,204,199941,6,0,L|91:123,1,75.0000028610231
155,200,200121,2,0,L|129:122,1,75.0000028610231
188,128,200300,6,0,L|213:217,1,75.0000028610231
271,177,200480,2,0,L|239:86,1,75.0000028610231
284,75,200660,2,0,L|328:156,1,75.0000028610231
371,121,200839,2,0,L|333:40,1,75.0000028610231
392,29,201019,2,0,L|437:111,1,75.0000028610231
475,79,201199,2,0,L|433:10,1,75.0000028610231
436,14,201378,2,0,B|482:81|482:81|414:197,1,150.000005722046
378,254,201738,6,0,B|372:337|372:337|280:357,1,150.000005722046
244,327,202007,2,0,L|284:254,1,75.0000028610231
189,292,202187,2,0,L|251:243,1,75.0000028610231
138,256,202366,2,0,B|220:178|220:178|301:189,1,150.000005722046
312,202,202726,6,0,L|265:265,1,75.0000028610231
259,177,202905,2,0,L|230:262,1,75.0000028610231
200,168,203085,2,0,L|206:248,1,75.0000028610231
132,145,203264,6,0,B|163:68|163:68|231:106,2,150.000005722046
455,253,203983,2,0,B|455:334|455:334|359:331,2,150.000005722046
146,290,204522,6,0,B|281:254|281:254|402:132,1,300.000011444092
